<?xml version="1.0" encoding="UTF-8"?>
<svg xmlns="http://www.w3.org/2000/svg" xmlns:xlink="http://www.w3.org/1999/xlink" version="1.2" >
<font id="Catalana Sans Medium">
<font-face  font-family="Catalana Sans" units-per-em="1000" ascent="1000" descent="-300" font-style="normal" font-weight="500" font-stretch="normal" slope="-12" cap-height="700" x-height="530" underline-position="-75" underline-thickness="50" />
<missing-glyph  horiz-adv-x="802" d="M285 517 Q301 525 332 537 Q363 549 402 549 Q441 549 467.5 540 Q494 531 510.5 516 Q527 501 534 482 Q541 463 541 444 Q541 407 523.5 382.5 Q506 358 464 338 Q435 325 426 316.5 Q417 308 415 294 L411 246 L353 246 L348 294 Q346 310 350 322 Q354 334 363.5 343.5 Q373 353 386 360.5 Q399 368 415 376 Q446 392 453.5 406.5 Q461 421 461 436 Q461 456 446 471.5 Q431 487 394 487 Q368 487 343 481 Q318 475 285 458 L285 517 Z M337 158 Q337 177 349.5 189.5 Q362 202 383 202 Q404 202 416 189.5 Q428 177 428 158 Q428 141 416 128.5 Q404 116 383 116 Q362 116 349.5 128.5 Q337 141 337 158 Z M40 349 Q40 424 68.5 490 Q97 556 146 604.5 Q195 653 261 681.5 Q327 710 402 710 Q477 710 543 681.5 Q609 653 657.5 604.5 Q706 556 734.5 490 Q763 424 763 349 Q763 274 734.5 209 Q706 144 656.5 95 Q607 46 541.5 18 Q476 -10 401 -10 Q326 -10 260 18 Q194 46 145.5 95 Q97 144 68.5 209 Q40 274 40 349 Z M99 349 Q99 286 122.5 231 Q146 176 187 135 Q228 94 283 70.5 Q338 47 401 47 Q464 47 519 70.5 Q574 94 615 135 Q656 176 679.5 231 Q703 286 703 349 Q703 412 679.5 467.5 Q656 523 615.5 564.5 Q575 606 520 629.5 Q465 653 402 653 Q339 653 284 629.5 Q229 606 187.5 564.5 Q146 523 122.5 467.5 Q99 412 99 349 Z " />
<glyph glyph-name="NULL" d="" />
<glyph glyph-name="nonmarkingreturn" unicode="&#xd;" d="" />
<glyph glyph-name="space" unicode="&#x20;" horiz-adv-x="220" d="" />
<glyph glyph-name="exclam" unicode="&#x21;" horiz-adv-x="261" d="M84 206 L61 510 L61 700 L199 700 L199 510 L177 206 L84 206 Z M57 60 Q57 88 78.5 109 Q100 130 130 130 Q161 130 182.5 109 Q204 88 204 60 Q204 31 182.5 10.5 Q161 -10 130 -10 Q100 -10 78.5 10.5 Q57 31 57 60 Z " />
<glyph glyph-name="quotedbl" unicode="&#x22;" horiz-adv-x="373" d="M229 452 L212 620 L212 700 L320 700 L320 620 L303 452 L229 452 Z M70 452 L53 620 L53 700 L161 700 L161 620 L144 452 L70 452 Z " />
<glyph glyph-name="numbersign" unicode="&#x23;" horiz-adv-x="562" d="M484 152 L373 152 L323 0 L249 0 L299 152 L189 152 L139 0 L65 0 L115 152 L37 152 L37 214 L135 214 L169 315 L77 315 L77 377 L189 377 L239 528 L314 528 L264 377 L373 377 L423 528 L498 528 L448 377 L524 377 L524 315 L428 315 L394 214 L484 214 L484 152 Z M210 214 L319 214 L353 315 L244 315 L210 214 Z " />
<glyph glyph-name="dollar" unicode="&#x24;" horiz-adv-x="562" d="M527 209 Q527 162 511.5 124.5 Q496 87 467.5 60 Q439 33 399.5 16 Q360 -1 312 -7 L312 -102 L256 -102 L256 -10 Q183 -9 128.5 0 Q74 9 47 17 L47 117 Q89 106 138.5 97.5 Q188 89 256 88 L256 301 Q203 317 164 336 Q125 355 99.5 380 Q74 405 61.5 438 Q49 471 49 515 Q49 555 64 588.5 Q79 622 106 646.5 Q133 671 171 686.5 Q209 702 256 707 L256 787 L312 787 L312 710 Q351 709 384 705.5 Q417 702 442 697 Q470 692 494 685 L494 585 Q456 596 411 603.5 Q366 611 312 612 L312 410 Q363 394 403 375.5 Q443 357 470.5 333.5 Q498 310 512.5 279.5 Q527 249 527 209 Z M405 190 Q405 226 383 246 Q361 266 312 284 L312 92 Q360 101 382.5 126.5 Q405 152 405 190 Z M164 524 Q164 509 168 496.5 Q172 484 182.5 473 Q193 462 210.5 451.5 Q228 441 256 430 L256 607 Q211 599 187.5 577.5 Q164 556 164 524 Z " />
<glyph glyph-name="percent" unicode="&#x25;" horiz-adv-x="682" d="M225 540 Q225 588 214 614 Q203 640 172 640 Q141 640 129.5 614 Q118 588 118 540 Q118 492 129.5 466 Q141 440 172 440 Q203 440 214 466 Q225 492 225 540 Z M305 540 Q305 453 269 413 Q233 373 172 373 Q111 373 75 413 Q39 453 39 541 Q39 628 75 667.5 Q111 707 172 707 Q233 707 269 667 Q305 627 305 540 Z M561 162 Q561 210 550 236 Q539 262 508 262 Q477 262 465.5 236 Q454 210 454 162 Q454 114 465.5 88 Q477 62 508 62 Q539 62 550 88 Q561 114 561 162 Z M641 162 Q641 75 605 35 Q569 -5 508 -5 Q447 -5 411 35 Q375 75 375 163 Q375 250 411 289.5 Q447 329 508 329 Q569 329 605 289 Q641 249 641 162 Z M57 0 L556 700 L626 700 L128 0 L57 0 Z " />
<glyph glyph-name="ampersand" unicode="&#x26;" horiz-adv-x="702" d="M253 557 Q253 535 268 506 Q283 477 326 427 Q342 437 358.5 450 Q375 463 388.5 479.5 Q402 496 410.5 516.5 Q419 537 419 561 Q419 600 397.5 620 Q376 640 344 640 Q300 640 276.5 617 Q253 594 253 557 Z M284 80 Q320 80 353.5 93.5 Q387 107 416 133 L261 319 Q249 314 231.5 305 Q214 296 198 281 Q182 266 171 244 Q160 222 160 192 Q160 170 167.5 150 Q175 130 190.5 114.5 Q206 99 229 89.5 Q252 80 284 80 Z M472 66 Q429 31 374.5 10.5 Q320 -10 251 -10 Q196 -10 155.5 5 Q115 20 88 45 Q61 70 47.5 102 Q34 134 34 168 Q34 219 54.5 254.5 Q75 290 104 313.5 Q133 337 164 350.5 Q195 364 217 371 Q191 402 176.5 428 Q162 454 155.5 475 Q149 496 147.5 512.5 Q146 529 146 543 Q146 574 158.5 604.5 Q171 635 195.5 658 Q220 681 255.5 695.5 Q291 710 337 710 Q384 710 417.5 698.5 Q451 687 472.5 667.5 Q494 648 504 622 Q514 596 514 566 Q514 531 502.5 502.5 Q491 474 471 450.5 Q451 427 425 407.5 Q399 388 371 373 L495 224 Q516 256 532 293.5 Q548 331 560 373 L649 373 Q633 317 610 261 Q587 205 553 155 L601 97 Q613 84 630 84 L682 84 L682 0 L588 0 Q548 0 527.5 12 Q507 24 491 43 L472 66 Z " />
<glyph glyph-name="quotesingle" unicode="&#x27;" horiz-adv-x="214" d="M70 452 L53 620 L53 700 L161 700 L161 620 L144 452 L70 452 Z " />
<glyph glyph-name="parenleft" unicode="&#x28;" horiz-adv-x="334" d="M46 431 Q46 492 63.5 545 Q81 598 112 643.5 Q143 689 185.5 727 Q228 765 279 796 L321 743 Q284 711 254.5 677.5 Q225 644 204 606.5 Q183 569 172 526 Q161 483 161 431 L161 250 Q161 198 172 155 Q183 112 204 74.5 Q225 37 254.5 3.5 Q284 -30 321 -62 L279 -115 Q228 -84 185.5 -46 Q143 -8 112 37.5 Q81 83 63.5 136 Q46 189 46 250 L46 431 Z " />
<glyph glyph-name="parenright" unicode="&#x29;" horiz-adv-x="334" d="M288.003 250.026 Q288.003 189.03 270.504 136.033 Q253.005 83.0365 222.007 37.5393 Q191.009 -7.95795 148.511 -45.9556 Q106.014 -83.9533 55.017 -114.951 L13.0196 -61.9547 Q50.0173 -29.9566 79.5155 3.54135 Q109.014 37.0393 130.012 74.537 Q151.011 112.035 162.01 155.032 Q173.01 198.029 173.01 250.026 L173.01 431.015 Q173.01 483.012 162.01 526.009 Q151.011 569.007 130.012 606.505 Q109.014 644.002 79.5155 677.5 Q50.0173 710.998 13.0196 742.996 L55.017 795.993 Q106.014 764.995 148.511 726.997 Q191.009 689 222.007 643.502 Q253.005 598.005 270.504 545.008 Q288.003 492.012 288.003 431.015 L288.003 250.026 Z " />
<glyph glyph-name="asterisk" unicode="&#x2a;" horiz-adv-x="448" d="M248 554 L319 613 L371 640 L410 563 L359 537 L259 511 L333 449 L367 403 L299 351 L264 397 L224 484 L185 397 L150 351 L81 403 L116 449 L189 511 L89 537 L38 563 L77 640 L129 613 L200 554 L181 643 L181 700 L267 700 L267 643 L248 554 Z " />
<glyph glyph-name="plus" unicode="&#x2b;" horiz-adv-x="498" d="M42 375 L210 375 L210 544 L288 544 L288 375 L456 375 L456 300 L288 300 L288 130 L210 130 L210 300 L42 300 L42 375 Z " />
<glyph glyph-name="comma" unicode="&#x2c;" horiz-adv-x="235" d="M49 -96 L87 -22 L81 -3 Q47 13 47 57 Q47 88 64.5 106 Q82 124 117 124 Q152 124 170 106 Q188 88 188 57 Q188 44 183 32.5 Q178 21 173 10 L101 -124 L49 -96 Z " />
<glyph glyph-name="hyphen" unicode="&#x2d;" horiz-adv-x="364" d="M61 324 L302 324 L302 241 L61 241 L61 324 Z " />
<glyph glyph-name="period" unicode="&#x2e;" horiz-adv-x="231" d="M45 57 Q45 83 65.5 103.5 Q86 124 115 124 Q144 124 165 103.5 Q186 83 186 57 Q186 30 165 10 Q144 -10 115 -10 Q86 -10 65.5 10 Q45 30 45 57 Z " />
<glyph glyph-name="slash" unicode="&#x2f;" horiz-adv-x="437" d="M21 -102 L332 787 L417 787 L106 -102 L21 -102 Z " />
<glyph glyph-name="zero" unicode="0" horiz-adv-x="635" d="M586 350 Q586 258 566.5 190.5 Q547 123 511.5 78.5 Q476 34 426.5 12 Q377 -10 318 -10 Q258 -10 208.5 12 Q159 34 123.5 78.5 Q88 123 68.5 190.5 Q49 258 49 350 Q49 442 68.5 509.5 Q88 577 123.5 621.5 Q159 666 208.5 688 Q258 710 318 710 Q377 710 426.5 688 Q476 666 511.5 621.5 Q547 577 566.5 509.5 Q586 442 586 350 Z M453 350 Q453 483 422 547.5 Q391 612 318 612 Q244 612 213 547.5 Q182 483 182 350 Q182 218 213 153 Q244 88 318 88 Q391 88 422 153 Q453 218 453 350 Z " />
<glyph glyph-name="one" unicode="1" horiz-adv-x="472" d="M148 664 Q165 664 181.5 668.5 Q198 673 211 679.5 Q224 686 233 694 Q242 702 245 710 L310 710 L310 84 L445 84 L445 0 L48 0 L48 84 L183 84 L183 579 L48 579 L48 664 L148 664 Z " />
<glyph glyph-name="two" unicode="2" horiz-adv-x="565" d="M59 662 Q63 664 81.5 671.5 Q100 679 129.5 687.5 Q159 696 197 703 Q235 710 279 710 Q342 710 385.5 694.5 Q429 679 456.5 653.5 Q484 628 496.5 594.5 Q509 561 509 525 Q509 487 497.5 456.5 Q486 426 462 397.5 Q438 369 400.5 339.5 Q363 310 312 276 Q270 250 244 231 Q218 212 203 195.5 Q188 179 183 163.5 Q178 148 178 129 L178 104 L519 104 L519 0 L50 0 L50 123 Q50 154 59 180.5 Q68 207 89.5 234 Q111 261 147 290 Q183 319 236 354 Q277 381 304 401.5 Q331 422 347.5 441 Q364 460 371 478.5 Q378 497 378 520 Q378 559 351 584.5 Q324 610 261 610 Q203 610 154.5 598 Q106 586 59 566 L59 662 Z " />
<glyph glyph-name="three" unicode="3" horiz-adv-x="545" d="M56 676 Q82 685 112 693 Q138 699 172 704.5 Q206 710 246 710 Q311 710 356.5 694.5 Q402 679 430.5 654 Q459 629 471.5 596.5 Q484 564 484 530 Q484 491 474.5 462.5 Q465 434 448 413.5 Q431 393 407.5 379.5 Q384 366 356 359 L356 356 Q421 341 458 302 Q495 263 495 188 Q495 151 481.5 115.5 Q468 80 438 52 Q408 24 360 7 Q312 -10 243 -10 Q161 -10 112.5 1 Q64 12 46 18 L46 115 Q87 101 131.5 93 Q176 85 230 85 Q300 85 332.5 118 Q365 151 365 198 Q365 230 355 252.5 Q345 275 327.5 288.5 Q310 302 285.5 308 Q261 314 233 314 L166 314 L166 405 L235 405 Q260 405 281.5 410.5 Q303 416 319.5 429 Q336 442 345.5 463 Q355 484 355 514 Q355 558 327.5 586.5 Q300 615 232 615 Q182 615 139 607 Q96 599 56 585 L56 676 Z " />
<glyph glyph-name="four" unicode="4" horiz-adv-x="601" d="M27 271 L361 710 L479 710 L479 271 L569 271 L569 174 L479 174 L479 0 L352 0 L352 174 L27 174 L27 271 Z M352 552 L136 271 L352 271 L352 552 Z " />
<glyph glyph-name="five" unicode="5" horiz-adv-x="561" d="M485 596 L177 596 L177 430 L257 430 Q382 430 452 377.5 Q522 325 522 217 Q522 176 507.5 135.5 Q493 95 461.5 62.5 Q430 30 380 9.5 Q330 -11 259 -11 Q216 -11 181 -7 Q146 -3 119.5 3 Q93 9 76 14.5 Q59 20 52 23 L52 125 Q95 110 140.5 99 Q186 88 249 88 Q287 88 314.5 98 Q342 108 359.5 124 Q377 140 385 161 Q393 182 393 205 Q393 241 381.5 265.5 Q370 290 349.5 304 Q329 318 301 324 Q273 330 239 330 L73 330 L73 700 L485 700 L485 596 Z " />
<glyph glyph-name="six" unicode="6" horiz-adv-x="582" d="M547 218 Q547 160 527.5 117.5 Q508 75 474.5 46.5 Q441 18 397 4 Q353 -10 304 -10 Q245 -10 198 8.5 Q151 27 118 65.5 Q85 104 67 163.5 Q49 223 49 305 Q49 387 64.5 460.5 Q80 534 116 589.5 Q152 645 211.5 677.5 Q271 710 359 710 Q408 710 444 703 Q480 696 487 692 L487 595 Q460 606 432.5 610.5 Q405 615 373 615 Q318 615 281.5 597 Q245 579 222 546 Q199 513 188.5 466.5 Q178 420 175 362 Q204 388 246 406.5 Q288 425 338 425 Q379 425 417 412.5 Q455 400 484 374.5 Q513 349 530 310 Q547 271 547 218 Z M307 81 Q362 81 394 113.5 Q426 146 426 212 Q426 273 394.5 304 Q363 335 309 335 Q270 335 235 316.5 Q200 298 175 274 Q180 173 212.5 127 Q245 81 307 81 Z " />
<glyph glyph-name="seven" unicode="7" horiz-adv-x="508" d="M116 0 L350 594 L25 594 L25 700 L490 700 L490 635 L249 0 L116 0 Z " />
<glyph glyph-name="eight" unicode="8" horiz-adv-x="593" d="M292 -10 Q223 -10 176.5 5 Q130 20 101 45 Q72 70 59.5 101 Q47 132 47 165 Q47 209 61 240.5 Q75 272 95 293.5 Q115 315 138.5 328.5 Q162 342 181 350 Q157 363 137 379 Q117 395 102 415.5 Q87 436 78.5 460.5 Q70 485 70 516 Q70 560 86.5 596 Q103 632 134 657.5 Q165 683 208 696.5 Q251 710 305 710 Q368 710 410 694.5 Q452 679 477.5 654.5 Q503 630 513.5 600.5 Q524 571 524 543 Q524 485 493.5 445 Q463 405 419 381 Q476 355 511 314.5 Q546 274 546 203 Q546 151 527.5 111 Q509 71 475.5 44 Q442 17 395 3.5 Q348 -10 292 -10 Z M178 537 Q178 517 185.5 500.5 Q193 484 211 469.5 Q229 455 259.5 441 Q290 427 336 412 Q369 429 395 457 Q421 485 421 524 Q421 567 390.5 594.5 Q360 622 298 622 Q242 622 210 598.5 Q178 575 178 537 Z M294 78 Q358 78 391.5 107.5 Q425 137 425 181 Q425 208 414 228 Q403 248 381.5 263.5 Q360 279 329.5 291.5 Q299 304 260 316 Q250 311 232 301 Q214 291 197 274.5 Q180 258 167 235.5 Q154 213 154 184 Q154 163 161 144 Q168 125 184.5 110.5 Q201 96 228 87 Q255 78 294 78 Z " />
<glyph glyph-name="nine" unicode="9" horiz-adv-x="582" d="M273 365 Q311 365 346.5 383.5 Q382 402 407 426 Q402 526 370 572 Q338 618 275 618 Q219 618 187.5 586 Q156 554 156 488 Q156 427 187.5 396 Q219 365 273 365 Z M223 -10 Q174 -10 138 -3 Q102 4 95 8 L95 105 Q122 94 149.5 89.5 Q177 85 209 85 Q264 85 300.5 103 Q337 121 360 154 Q383 187 393.5 233.5 Q404 280 407 337 Q378 311 336 293 Q294 275 244 275 Q203 275 165 287.5 Q127 300 98 325.5 Q69 351 52 390 Q35 429 35 482 Q35 539 54.5 582 Q74 625 107.5 653.5 Q141 682 185 696 Q229 710 278 710 Q396 710 464.5 634 Q533 558 533 395 Q533 313 517.5 239.5 Q502 166 466 110.5 Q430 55 370.5 22.5 Q311 -10 223 -10 Z " />
<glyph glyph-name="colon" unicode="&#x3a;" horiz-adv-x="263" d="M61 57 Q61 83 81.5 103.5 Q102 124 131 124 Q160 124 181 103.5 Q202 83 202 57 Q202 30 181 10 Q160 -10 131 -10 Q102 -10 81.5 10 Q61 30 61 57 Z M61 471 Q61 497 81.5 517.5 Q102 538 131 538 Q160 538 181 517.5 Q202 497 202 471 Q202 444 181 424 Q160 404 131 404 Q102 404 81.5 424 Q61 444 61 471 Z " />
<glyph glyph-name="semicolon" unicode="&#x3b;" horiz-adv-x="269" d="M65 471 Q65 497 85.5 517.5 Q106 538 135 538 Q164 538 185 517.5 Q206 497 206 471 Q206 444 185 424 Q164 404 135 404 Q106 404 85.5 424 Q65 444 65 471 Z M65 57 Q65 88 82.5 106 Q100 124 135 124 Q170 124 188 106 Q206 88 206 57 Q206 44 201 32.5 Q196 21 191 10 L119 -124 L66 -96 L105 -22 L99 -3 Q65 13 65 57 Z " />
<glyph glyph-name="less" unicode="&#x3c;" horiz-adv-x="522" d="M38 308 L38 363 L459 537 L459 455 L159 337 L459 215 L459 133 L38 308 Z " />
<glyph glyph-name="equal" unicode="&#x3d;" horiz-adv-x="543" d="M64 454 L479 454 L479 379 L64 379 L64 454 Z M64 293 L479 293 L479 218 L64 218 L64 293 Z " />
<glyph glyph-name="greater" unicode="&#x3e;" horiz-adv-x="522" d="M63 133 L63 215 L363 337 L63 455 L63 537 L484 363 L484 308 L63 133 Z " />
<glyph glyph-name="question" unicode="&#x3f;" horiz-adv-x="488" d="M119 61 Q119 91 140 112 Q161 133 194 133 Q229 133 249.5 112 Q270 91 270 61 Q270 32 249.5 11 Q229 -10 194 -10 Q161 -10 140 11 Q119 32 119 61 Z M34 657 Q47 664 66.5 673 Q86 682 111 690.5 Q136 699 165 704.5 Q194 710 226 710 Q289 710 333.5 695 Q378 680 405.5 655.5 Q433 631 445.5 600 Q458 569 458 536 Q458 474 428 433 Q398 392 329 360 Q305 349 290 340 Q275 331 266 323 Q257 315 253 306 Q249 297 248 285 L243 206 L146 206 L140 285 Q137 313 144 333 Q151 353 166 368 Q181 383 202.5 395.5 Q224 408 250 421 Q277 434 292.5 446.5 Q308 459 316 471.5 Q324 484 326 496.5 Q328 509 328 523 Q328 539 322 554.5 Q316 570 302 581.5 Q288 593 266 600 Q244 607 212 607 Q167 607 126.5 596.5 Q86 586 34 562 L34 657 Z " />
<glyph glyph-name="at" unicode="&#x40;" horiz-adv-x="871" d="M231 247 Q231 304 246.5 355 Q262 406 289.5 444.5 Q317 483 355.5 505.5 Q394 528 441 528 Q472 528 495 516 Q518 504 532 484 L535 484 L537 493 Q539 504 546 512 Q553 520 572 520 L636 520 L578 255 Q576 247 575 239 Q574 231 574 223 Q574 198 588.5 180 Q603 162 641 162 Q663 162 685 174.5 Q707 187 725 213.5 Q743 240 754.5 281.5 Q766 323 766 381 Q766 435 749 484 Q732 533 697.5 570.5 Q663 608 611.5 630.5 Q560 653 492 653 Q408 653 339 623.5 Q270 594 221 542 Q172 490 145 418.5 Q118 347 118 263 Q118 194 136.5 145 Q155 96 185 62.5 Q215 29 252 9 Q289 -11 325 -21.5 Q361 -32 393.5 -35 Q426 -38 446 -38 Q508 -38 556 -29.5 Q604 -21 644 -7 L650 -51 Q609 -70 555.5 -82.5 Q502 -95 438 -95 Q413 -95 374 -91 Q335 -87 291.5 -74.5 Q248 -62 204.5 -38.5 Q161 -15 125.5 25 Q90 65 68 123 Q46 181 46 263 Q46 359 78 441 Q110 523 168.5 583 Q227 643 309.5 676.5 Q392 710 492 710 Q578 710 643 683 Q708 656 751.5 610.5 Q795 565 816.5 505.5 Q838 446 838 381 Q838 303 815.5 249.5 Q793 196 759 163 Q725 130 683.5 115.5 Q642 101 605 101 Q557 101 522.5 118.5 Q488 136 476 171 Q456 142 422.5 122.5 Q389 103 350 103 Q293 103 262 142.5 Q231 182 231 247 Z M387 182 Q408 182 432 198.5 Q456 215 475 238 L515 422 Q501 435 484 442.5 Q467 450 449 450 Q424 450 403.5 435 Q383 420 368 394 Q353 368 345 333.5 Q337 299 337 260 Q337 226 349 204 Q361 182 387 182 Z " />
<glyph glyph-name="A" unicode="A" horiz-adv-x="623" d="M427 154 L184 154 L134 0 L13 0 L247 702 L374 702 L612 0 L478 0 L427 154 Z M214 248 L398 248 L306 532 L214 248 Z " />
<glyph glyph-name="B" unicode="B" horiz-adv-x="624" d="M77 700 L309 700 Q365 700 410.5 689 Q456 678 488 656.5 Q520 635 537 602 Q554 569 554 525 Q554 462 525.5 425 Q497 388 443 368 L443 365 Q510 347 547.5 304.5 Q585 262 585 190 Q585 92 518 46 Q451 0 335 0 L77 0 L77 700 Z M202 607 L202 407 L300 407 Q364 407 396 431.5 Q428 456 428 510 Q428 607 300 607 L202 607 Z M202 314 L202 93 L329 93 Q455 93 455 201 Q455 314 329 314 L202 314 Z " />
<glyph glyph-name="C" unicode="C" horiz-adv-x="547" d="M513 19 Q485 8 446 -1 Q407 -10 346 -10 Q276 -10 220 11.5 Q164 33 125 76.5 Q86 120 65.5 187 Q45 254 45 345 Q45 437 68 505.5 Q91 574 133 619.5 Q175 665 233.5 687.5 Q292 710 362 710 Q420 710 458 702.5 Q496 695 503 691 L503 589 Q474 598 448 603 Q422 608 382 608 Q272 608 225 544 Q178 480 178 355 Q178 225 220.5 158.5 Q263 92 368 92 Q411 92 443 99.5 Q475 107 513 121 L513 19 Z " />
<glyph glyph-name="D" unicode="D" horiz-adv-x="667" d="M77 700 L303 700 Q376 700 435 679.5 Q494 659 536 616 Q578 573 600.5 508 Q623 443 623 355 Q623 265 600.5 198 Q578 131 536 87 Q494 43 435 21.5 Q376 0 303 0 L77 0 L77 700 Z M203 98 L303 98 Q404 98 447 161 Q490 224 490 355 Q490 482 447 542 Q404 602 303 602 L203 602 L203 98 Z " />
<glyph glyph-name="E" unicode="E" horiz-adv-x="565" d="M203 602 L203 405 L475 405 L475 309 L203 309 L203 98 L524 98 L524 0 L77 0 L77 700 L518 700 L518 602 L203 602 Z " />
<glyph glyph-name="F" unicode="F" horiz-adv-x="562" d="M203 602 L203 386 L487 386 L487 289 L203 289 L203 0 L77 0 L77 700 L530 700 L530 602 L203 602 Z " />
<glyph glyph-name="G" unicode="G" horiz-adv-x="600" d="M548 29 Q516 15 469.5 2.5 Q423 -10 354 -10 Q282 -10 224.5 11 Q167 32 127 75.5 Q87 119 65.5 186 Q44 253 44 345 Q44 437 67 505.5 Q90 574 132.5 619.5 Q175 665 234.5 687.5 Q294 710 368 710 Q398 710 425 707.5 Q452 705 473 701 Q494 697 508 693.5 Q522 690 526 688 L526 587 Q494 595 457.5 602.5 Q421 610 378 610 Q324 610 285.5 593 Q247 576 223 543.5 Q199 511 188 463.5 Q177 416 177 356 Q177 224 223 156 Q269 88 376 88 Q411 88 435 98 L435 343 L548 343 L548 29 Z " />
<glyph glyph-name="H" unicode="H" horiz-adv-x="666" d="M462 309 L203 309 L203 0 L77 0 L77 700 L203 700 L203 406 L462 406 L462 700 L589 700 L589 0 L462 0 L462 309 Z " />
<glyph glyph-name="I" unicode="I" horiz-adv-x="280" d="M77 700 L203 700 L203 0 L77 0 L77 700 Z " />
<glyph glyph-name="J" unicode="J" horiz-adv-x="436" d="M237 700 L364 700 L364 215 Q364 106 312.5 48 Q261 -10 151 -10 Q103 -10 70 -1.5 Q37 7 20 17 L20 116 Q71 91 132 91 Q188 91 212.5 117 Q237 143 237 210 L237 700 Z " />
<glyph glyph-name="K" unicode="K" horiz-adv-x="620" d="M279 309 L203 309 L203 0 L77 0 L77 700 L203 700 L203 406 L277 406 L467 700 L600 700 L384 367 L616 0 L467 0 L279 309 Z " />
<glyph glyph-name="L" unicode="L" horiz-adv-x="537" d="M203 98 L521 98 L521 0 L77 0 L77 700 L203 700 L203 98 Z " />
<glyph glyph-name="M" unicode="M" horiz-adv-x="761" d="M190 481 L190 0 L77 0 L77 700 L211 700 L386 362 L560 700 L685 700 L685 0 L567 0 L567 492 L418 214 L338 214 L190 481 Z " />
<glyph glyph-name="N" unicode="N" horiz-adv-x="665" d="M497 -3 L186 486 L186 0 L76 0 L76 700 L186 700 L478 241 L478 700 L588 700 L588 -3 L497 -3 Z " />
<glyph glyph-name="O" unicode="O" horiz-adv-x="673" d="M45 350 Q45 442 66.5 509.5 Q88 577 126.5 621.5 Q165 666 218.5 688 Q272 710 336 710 Q400 710 454 688 Q508 666 546.5 621.5 Q585 577 606.5 509.5 Q628 442 628 350 Q628 258 606.5 190.5 Q585 123 546.5 78.5 Q508 34 454 12 Q400 -10 336 -10 Q272 -10 218.5 12 Q165 34 126.5 78.5 Q88 123 66.5 190.5 Q45 258 45 350 Z M178 350 Q178 216 215.5 153 Q253 90 336 90 Q420 90 457.5 153 Q495 216 495 350 Q495 484 457.5 547 Q420 610 336 610 Q253 610 215.5 547 Q178 484 178 350 Z " />
<glyph glyph-name="P" unicode="P" horiz-adv-x="607" d="M77 700 L313 700 Q437 700 507.5 647 Q578 594 578 481 Q578 422 559.5 378.5 Q541 335 506.5 306.5 Q472 278 422.5 264.5 Q373 251 311 251 L203 251 L203 0 L77 0 L77 700 Z M203 607 L203 344 L311 344 Q385 344 416 376 Q447 408 447 475 Q447 542 416 574.5 Q385 607 313 607 L203 607 Z " />
<glyph glyph-name="Q" unicode="Q" horiz-adv-x="672" d="M45 350 Q45 441 66.5 509 Q88 577 126.5 621.5 Q165 666 218.5 688 Q272 710 336 710 Q400 710 454 688 Q508 666 546.5 621.5 Q585 577 606.5 509 Q628 441 628 349 Q628 214 583 131.5 Q538 49 462 15 L520 -41 L555 -56 L627 -56 L627 -142 L508 -142 Q483 -142 461.5 -131 Q440 -120 425 -106 L327 -10 Q265 -9 213 14 Q161 37 123.5 81.5 Q86 126 65.5 193 Q45 260 45 350 Z M178 350 Q178 216 215.5 153 Q253 90 336 90 Q420 90 457.5 152.5 Q495 215 495 349 Q495 483 457.5 546 Q420 609 336 609 Q253 609 215.5 546 Q178 483 178 350 Z " />
<glyph glyph-name="R" unicode="R" horiz-adv-x="624" d="M77 700 L310 700 Q370 700 418 688.5 Q466 677 499.5 653 Q533 629 551 592 Q569 555 569 504 Q569 462 556 430 Q543 398 522 376.5 Q501 355 474 343 Q447 331 418 328 L418 326 Q439 323 454 313.5 Q469 304 481 288 Q493 272 503 250 Q513 228 523 200 L593 0 L452 0 L381 217 Q368 258 352.5 270.5 Q337 283 312 283 L203 283 L203 0 L77 0 L77 700 Z M203 607 L203 376 L306 376 Q374 376 406 405.5 Q438 435 438 497 Q438 551 406 579 Q374 607 307 607 L203 607 Z " />
<glyph glyph-name="S" unicode="S" horiz-adv-x="532" d="M496 208 Q496 154 477 113.5 Q458 73 424 45.5 Q390 18 342.5 4 Q295 -10 238 -10 Q199 -10 165.5 -6 Q132 -2 106.5 3.5 Q81 9 65.5 13.5 Q50 18 46 19 L46 119 Q84 110 132 99.5 Q180 89 238 89 Q307 89 340.5 115.5 Q374 142 374 190 Q374 212 367 228 Q360 244 344.5 257 Q329 270 304 280 Q279 290 243 301 Q193 316 156.5 334.5 Q120 353 96 378.5 Q72 404 60.5 437 Q49 470 49 515 Q49 560 66.5 596.5 Q84 633 115.5 658 Q147 683 191 696.5 Q235 710 288 710 Q324 710 355 706 Q386 702 409.5 697 Q433 692 447 688 Q461 684 464 683 L464 582 Q430 593 387 602.5 Q344 612 296 612 Q233 612 199.5 588.5 Q166 565 166 524 Q166 506 171 491 Q176 476 189.5 462.5 Q203 449 228 436.5 Q253 424 293 412 Q342 397 379.5 379 Q417 361 443 337 Q469 313 482.5 281.5 Q496 250 496 208 Z " />
<glyph glyph-name="T" unicode="T" horiz-adv-x="574" d="M18 700 L555 700 L555 602 L350 602 L350 0 L224 0 L224 602 L18 602 L18 700 Z " />
<glyph glyph-name="U" unicode="U" horiz-adv-x="649" d="M460 700 L578 700 L578 236 Q578 173 560 126.5 Q542 80 508.5 50 Q475 20 427 5 Q379 -10 320 -10 Q206 -10 138.5 50 Q71 110 71 236 L71 700 L200 700 L200 235 Q200 163 230 127 Q260 91 328 91 Q402 91 431 127 Q460 163 460 235 L460 700 Z " />
<glyph glyph-name="V" unicode="V" horiz-adv-x="605" d="M240 -2 L14 700 L149 700 L309 174 L468 700 L590 700 L367 -2 L240 -2 Z " />
<glyph glyph-name="W" unicode="W" horiz-adv-x="937" d="M468 485 L339 -2 L212 -2 L18 700 L150 700 L281 169 L411 700 L537 700 L669 169 L799 700 L917 700 L726 -2 L600 -2 L468 485 Z " />
<glyph glyph-name="X" unicode="X" horiz-adv-x="624" d="M305 262 L136 0 L1 0 L240 354 L22 700 L168 700 L319 449 L481 700 L613 700 L386 357 L615 0 L467 0 L305 262 Z " />
<glyph glyph-name="Y" unicode="Y" horiz-adv-x="604" d="M243 0 L243 271 L7 700 L151 700 L309 398 L460 700 L583 700 L370 285 L370 0 L243 0 Z " />
<glyph glyph-name="Z" unicode="Z" horiz-adv-x="573" d="M31 0 L31 67 L370 603 L46 603 L46 700 L526 700 L526 633 L189 98 L541 98 L541 0 L31 0 Z " />
<glyph glyph-name="bracketleft" unicode="&#x5b;" horiz-adv-x="308" d="M64 -102 L64 786 L280 786 L280 705 L175 705 L175 -22 L280 -22 L280 -102 L64 -102 Z " />
<glyph glyph-name="backslash" unicode="&#x5c;" horiz-adv-x="437" d="M20 787 L105 787 L417 -102 L332 -102 L20 787 Z " />
<glyph glyph-name="bracketright" unicode="&#x5d;" horiz-adv-x="308" d="M244.004 -102 L244.004 786 L28.0171 786 L28.0171 705 L133.011 705 L133.011 -22 L28.0171 -22 L28.0171 -102 L244.004 -102 Z " />
<glyph glyph-name="asciicircum" unicode="&#x5e;" horiz-adv-x="433" d="M311 385 L214 614 L122 385 L43 385 L176 700 L254 700 L391 385 L311 385 Z " />
<glyph glyph-name="underscore" unicode="&#x5f;" horiz-adv-x="504" d="M0 -80 L504 -80 L504 -143 L0 -143 L0 -80 Z " />
<glyph glyph-name="grave" unicode="&#x60;" horiz-adv-x="386" d="M260 579 L243 579 L93 684 L148 751 L171 751 L292 615 L260 579 Z " />
<glyph glyph-name="a" unicode="a" horiz-adv-x="507" d="M223 87 Q241 87 257.5 93 Q274 99 287.5 107 Q301 115 311.5 124 Q322 133 328 139 L328 221 L232 221 Q193 221 170 205.5 Q147 190 147 155 Q147 87 223 87 Z M331 57 Q323 49 309 37.5 Q295 26 276.5 15.5 Q258 5 234.5 -2.5 Q211 -10 183 -10 Q144 -10 115 2 Q86 14 67 35 Q48 56 38.5 85 Q29 114 29 147 Q29 186 42 215.5 Q55 245 78 265 Q101 285 133 295 Q165 305 203 305 L328 305 L328 343 Q328 363 325 380.5 Q322 398 311 411 Q300 424 278.5 431.5 Q257 439 220 439 Q169 439 128.5 428.5 Q88 418 69 410 L69 506 Q101 517 149 527.5 Q197 538 258 538 Q312 538 348 524 Q384 510 406 485.5 Q428 461 437 428.5 Q446 396 446 360 L446 0 L372 0 Q348 0 341.5 11 Q335 22 335 36 L335 57 L331 57 Z " />
<glyph glyph-name="b" unicode="b" horiz-adv-x="559" d="M309 -10 Q268 -10 235.5 6 Q203 22 181 43 L178 43 L178 36 Q178 22 171 11 Q164 0 140 0 L65 0 L65 730 L184 730 L184 468 Q207 496 244 517 Q281 538 332 538 Q371 538 405.5 521.5 Q440 505 465.5 472 Q491 439 505.5 389 Q520 339 520 271 Q520 202 503 149.5 Q486 97 457.5 61.5 Q429 26 390.5 8 Q352 -10 309 -10 Z M290 89 Q337 89 366.5 130.5 Q396 172 396 269 Q396 317 388.5 349 Q381 381 367.5 400 Q354 419 335 427 Q316 435 293 435 Q263 435 234.5 418 Q206 401 184 375 L184 147 Q207 120 234 104.5 Q261 89 290 89 Z " />
<glyph glyph-name="c" unicode="c" horiz-adv-x="445" d="M408 17 Q382 3 345.5 -3.5 Q309 -10 271 -10 Q224 -10 181.5 6 Q139 22 107 55 Q75 88 56.5 138 Q38 188 38 256 Q38 327 57.5 380 Q77 433 111 468 Q145 503 190 520.5 Q235 538 286 538 Q322 538 353 533.5 Q384 529 405 521 L405 423 Q380 431 358 435 Q336 439 303 439 Q162 439 162 261 Q162 172 200 130.5 Q238 89 304 89 Q333 89 360 95 Q387 101 408 109 L408 17 Z " />
<glyph glyph-name="d" unicode="d" horiz-adv-x="559" d="M266 93 Q296 93 325 110 Q354 127 376 152 L376 380 Q353 408 325.5 423 Q298 438 269 438 Q222 438 192.5 396.5 Q163 355 163 258 Q163 210 170.5 178 Q178 146 191.5 127 Q205 108 224 100.5 Q243 93 266 93 Z M376 60 Q353 32 316.5 11 Q280 -10 227 -10 Q188 -10 153.5 6.5 Q119 23 93.5 56 Q68 89 53.5 139 Q39 189 39 257 Q39 326 56 378.5 Q73 431 101.5 466.5 Q130 502 168.5 520 Q207 538 251 538 Q289 538 321.5 523 Q354 508 376 488 L376 730 L495 730 L495 0 L419 0 Q395 0 388.5 11 Q382 22 382 36 L382 60 L376 60 Z " />
<glyph glyph-name="e" unicode="e" horiz-adv-x="504" d="M262 450 Q215 450 190 415 Q165 380 160 306 L353 306 L353 337 Q353 450 262 450 Z M442 26 Q419 12 379 1 Q339 -10 278 -10 Q231 -10 187.5 5.5 Q144 21 111 53 Q78 85 58 135.5 Q38 186 38 256 Q38 325 55 378 Q72 431 102 466.5 Q132 502 173 520 Q214 538 263 538 Q358 538 413 479.5 Q468 421 468 317 L468 237 L452 222 L161 222 Q165 181 178 154.5 Q191 128 211.5 111.5 Q232 95 259 88.5 Q286 82 318 82 Q358 82 391.5 90.5 Q425 99 442 106 L442 26 Z " />
<glyph glyph-name="f" unicode="f" horiz-adv-x="349" d="M215 440 L215 0 L96 0 L96 440 L24 440 L24 526 L96 526 L96 560 Q96 599 105.5 632 Q115 665 136 689 Q157 713 191 726.5 Q225 740 275 740 Q298 740 320 737.5 Q342 735 354 733 L354 652 Q351 653 341 653.5 Q331 654 319.5 654.5 Q308 655 298.5 655 Q289 655 287 655 Q244 655 229.5 634.5 Q215 614 215 567 L215 526 L337 526 L337 440 L215 440 Z " />
<glyph glyph-name="g" unicode="g" horiz-adv-x="546" d="M351 369 Q351 417 326 440.5 Q301 464 259 464 Q218 464 193 440.5 Q168 417 168 369 Q168 321 193 296.5 Q218 272 259 272 Q301 272 326 296.5 Q351 321 351 369 Z M520 2 Q520 -45 498 -79 Q476 -113 438.5 -135.5 Q401 -158 350 -169 Q299 -180 242 -180 Q192 -180 151.5 -174 Q111 -168 83 -155 Q55 -142 40 -121 Q25 -100 25 -70 Q25 -49 32 -32.5 Q39 -16 50 -3.5 Q61 9 75 19 Q89 29 103 36 Q77 48 62 70 Q47 92 47 121 Q47 151 66.5 180 Q86 209 127 232 Q92 252 72 286 Q52 320 52 369 Q52 412 68.5 444 Q85 476 113.5 497 Q142 518 179.5 528 Q217 538 259 538 Q280 538 300 535.5 Q320 533 338 528 L515 528 L515 443 L457 443 L452 438 Q467 408 467 369 Q467 326 450 294 Q433 262 404.5 241 Q376 220 338.5 209.5 Q301 199 259 199 Q224 199 189 207 Q173 198 163.5 186.5 Q154 175 154 162 Q154 146 167 137.5 Q180 129 209 129 L349 129 Q386 129 417.5 122 Q449 115 472 99.5 Q495 84 507.5 60 Q520 36 520 2 Z M257 -101 Q287 -101 314 -96.5 Q341 -92 361 -83 Q381 -74 393 -60 Q405 -46 405 -26 Q405 2 385 13 Q365 24 323 24 L174 24 Q161 16 146 -1 Q131 -18 131 -44 Q131 -71 162 -86 Q193 -101 257 -101 Z " />
<glyph glyph-name="h" unicode="h" horiz-adv-x="562" d="M300 434 Q282 434 265 428 Q248 422 233 413 Q218 404 205.5 393.5 Q193 383 184 374 L184 0 L65 0 L65 730 L184 730 L184 469 Q193 478 207.5 489.5 Q222 501 241.5 512 Q261 523 285.5 530.5 Q310 538 338 538 Q384 538 415 525 Q446 512 465 490.5 Q484 469 492 440 Q500 411 500 378 L500 0 L381 0 L381 344 Q381 360 378.5 376 Q376 392 368 405 Q360 418 343.5 426 Q327 434 300 434 Z " />
<glyph glyph-name="i" unicode="i" horiz-adv-x="248" d="M184 528 L184 0 L65 0 L65 528 L184 528 Z M55 671 Q55 701 72 719 Q89 737 124 737 Q159 737 176.5 719 Q194 701 194 671 Q194 642 176.5 623.5 Q159 605 124 605 Q89 605 72 623.5 Q55 642 55 671 Z " />
<glyph glyph-name="j" unicode="j" horiz-adv-x="248" d="M-66 -89 Q-62 -90 -52 -90.5 Q-42 -91 -31.5 -91 Q-21 -91 -12.5 -91 Q-4 -91 -2 -91 Q35 -91 50 -69 Q65 -47 65 -2 L65 528 L184 528 L184 5 Q184 -33 174.5 -66.5 Q165 -100 144 -125.5 Q123 -151 89 -165.5 Q55 -180 5 -180 Q-17 -180 -35 -177.5 Q-53 -175 -66 -172 L-66 -89 Z M55 671 Q55 701 72 719 Q89 737 124 737 Q159 737 176.5 719 Q194 701 194 671 Q194 642 176.5 623.5 Q159 605 124 605 Q89 605 72 623.5 Q55 642 55 671 Z " />
<glyph glyph-name="k" unicode="k" horiz-adv-x="544" d="M242 240 L184 240 L184 0 L65 0 L65 730 L184 730 L184 329 L235 329 L398 528 L535 528 L342 298 L534 0 L395 0 L242 240 Z " />
<glyph glyph-name="l" unicode="l" horiz-adv-x="251" d="M185 730 L185 0 L66 0 L66 730 L185 730 Z " />
<glyph glyph-name="m" unicode="m" horiz-adv-x="861" d="M294 433 Q276 433 259 426.5 Q242 420 227.5 411 Q213 402 201.5 391.5 Q190 381 184 374 L184 0 L65 0 L65 528 L140 528 Q164 528 171 517 Q178 506 178 492 L178 467 L182 467 Q190 475 204 487 Q218 499 237.5 510.5 Q257 522 281 530 Q305 538 334 538 Q394 538 427.5 516 Q461 494 477 459 Q484 468 498.5 481 Q513 494 534 507 Q555 520 582 529 Q609 538 642 538 Q687 538 717.5 525 Q748 512 766 490.5 Q784 469 792 440 Q800 411 800 378 L800 0 L681 0 L681 344 Q681 360 678.5 375.5 Q676 391 668 404 Q660 417 644.5 425 Q629 433 602 433 Q584 433 567 427 Q550 421 536 412.5 Q522 404 510.5 394 Q499 384 492 377 L492 0 L373 0 L373 344 Q373 360 370.5 375.5 Q368 391 360 404 Q352 417 336.5 425 Q321 433 294 433 Z " />
<glyph glyph-name="n" unicode="n" horiz-adv-x="562" d="M300 433 Q282 433 265 427 Q248 421 233 412.5 Q218 404 205.5 393.5 Q193 383 184 374 L184 0 L65 0 L65 528 L140 528 Q164 528 171 517 Q178 506 178 492 L178 467 L182 467 Q190 475 204.5 487 Q219 499 239 510.5 Q259 522 284 530 Q309 538 338 538 Q384 538 415 525 Q446 512 465 490.5 Q484 469 492 440 Q500 411 500 378 L500 0 L381 0 L381 344 Q381 360 378.5 375.5 Q376 391 368 404 Q360 417 343.5 425 Q327 433 300 433 Z " />
<glyph glyph-name="o" unicode="o" horiz-adv-x="545" d="M508 264 Q508 195 489.5 143.5 Q471 92 439 58 Q407 24 364 7 Q321 -10 272 -10 Q224 -10 181 7 Q138 24 106.5 58 Q75 92 56.5 143.5 Q38 195 38 264 Q38 333 56.5 384.5 Q75 436 106.5 470 Q138 504 181 521 Q224 538 272 538 Q321 538 364 521 Q407 504 439 470 Q471 436 489.5 384.5 Q508 333 508 264 Z M384 264 Q384 446 272 446 Q162 446 162 264 Q162 82 272 82 Q384 82 384 264 Z " />
<glyph glyph-name="p" unicode="p" horiz-adv-x="559" d="M290 89 Q337 89 366.5 130.5 Q396 172 396 269 Q396 317 388.5 349 Q381 381 367.5 400 Q354 419 335 427 Q316 435 293 435 Q263 435 234.5 418 Q206 401 184 375 L184 147 Q207 120 234 104.5 Q261 89 290 89 Z M309 -10 Q270 -10 238 5 Q206 20 184 40 L184 -170 L65 -170 L65 528 L140 528 Q164 528 171 517 Q178 506 178 492 L178 466 L182 466 Q205 495 242 516.5 Q279 538 332 538 Q371 538 405.5 521.5 Q440 505 465.5 472 Q491 439 505.5 389 Q520 339 520 271 Q520 202 503 149.5 Q486 97 457.5 61.5 Q429 26 390.5 8 Q352 -10 309 -10 Z " />
<glyph glyph-name="q" unicode="q" horiz-adv-x="558" d="M375 -170 L375 58 Q352 31 315 10.5 Q278 -10 227 -10 Q188 -10 153.5 6.5 Q119 23 93.5 56 Q68 89 53.5 139 Q39 189 39 257 Q39 326 56 378.5 Q73 431 101.5 466.5 Q130 502 168.5 520 Q207 538 250 538 Q291 538 324 521.5 Q357 505 379 483 L382 483 L382 492 Q382 506 388.5 517 Q395 528 419 528 L494 528 L494 -170 L375 -170 Z M266 93 Q295 93 324 109.5 Q353 126 375 152 L375 380 Q352 408 325 423 Q298 438 269 438 Q222 438 192.5 396.5 Q163 355 163 258 Q163 210 170.5 178 Q178 146 191.5 127 Q205 108 224 100.5 Q243 93 266 93 Z " />
<glyph glyph-name="r" unicode="r" horiz-adv-x="384" d="M302 430 Q282 430 264.5 424 Q247 418 232 408.5 Q217 399 204.5 388 Q192 377 184 368 L184 0 L65 0 L65 528 L140 528 Q164 528 171 517 Q178 506 178 492 L178 459 L182 459 Q190 469 203.5 482.5 Q217 496 236 508.5 Q255 521 279.5 529.5 Q304 538 334 538 Q358 538 372 535 L372 421 L361 421 Q350 425 336 427.5 Q322 430 302 430 Z " />
<glyph glyph-name="s" unicode="s" horiz-adv-x="456" d="M424 159 Q424 118 408 86.5 Q392 55 363.5 33.5 Q335 12 295.5 1 Q256 -10 209 -10 Q170 -10 140 -6 Q110 -2 88 2.5 Q66 7 54 11 Q42 15 39 16 L39 111 Q70 100 107 90.5 Q144 81 193 81 Q306 81 306 145 Q306 170 284.5 187.5 Q263 205 202 219 Q155 229 124.5 246 Q94 263 76 284.5 Q58 306 51 331 Q44 356 44 383 Q44 417 58 445.5 Q72 474 99 494.5 Q126 515 164.5 526.5 Q203 538 251 538 Q281 538 307.5 535 Q334 532 354 528 Q377 524 397 519 L397 424 Q388 427 373 430.5 Q358 434 340 438 Q322 442 302 444.5 Q282 447 263 447 Q212 447 184.5 433 Q157 419 157 391 Q157 380 161 370 Q165 360 175 352 Q185 344 202 336.5 Q219 329 245 322 Q339 299 381.5 261.5 Q424 224 424 159 Z " />
<glyph glyph-name="t" unicode="t" horiz-adv-x="360" d="M200 -10 Q146 -10 118.5 13.5 Q91 37 91 94 L91 440 L21 440 L21 526 L85 526 L136 670 L210 670 L210 526 L331 526 L331 440 L210 440 L210 82 L343 82 L343 0 Q318 -3 292 -5 Q270 -7 245 -8.5 Q220 -10 200 -10 Z " />
<glyph glyph-name="u" unicode="u" horiz-adv-x="549" d="M367 60 Q359 52 345 40 Q331 28 311.5 17 Q292 6 267.5 -2 Q243 -10 215 -10 Q171 -10 141.5 2.5 Q112 15 94 37 Q76 59 68.5 88 Q61 117 61 150 L61 528 L180 528 L180 183 Q180 167 182.5 151 Q185 135 192.5 122.5 Q200 110 215 102 Q230 94 255 94 Q273 94 290 99.5 Q307 105 321.5 113 Q336 121 347 130 Q358 139 365 146 L365 528 L484 528 L484 0 L409 0 Q385 0 378 11 Q371 22 371 36 L371 60 L367 60 Z " />
<glyph glyph-name="v" unicode="v" horiz-adv-x="515" d="M15 528 L145 528 L263 160 L385 528 L500 528 L313 -2 L203 -2 L15 528 Z " />
<glyph glyph-name="w" unicode="w" horiz-adv-x="783" d="M18 528 L141 528 L245 153 L348 528 L449 528 L552 151 L656 528 L764 528 L601 -2 L491 -2 L392 325 L294 -2 L184 -2 L18 528 Z " />
<glyph glyph-name="x" unicode="x" horiz-adv-x="525" d="M258 181 L136 0 L7 0 L198 268 L19 528 L158 528 L269 362 L385 528 L514 528 L327 277 L514 0 L375 0 L258 181 Z " />
<glyph glyph-name="y" unicode="y" horiz-adv-x="515" d="M155 -170 L207 -12 L15 528 L146 528 L262 159 L383 528 L499 528 L256 -170 L155 -170 Z " />
<glyph glyph-name="z" unicode="z" horiz-adv-x="498" d="M30 0 L30 54 L297 434 L42 434 L42 528 L454 528 L454 468 L191 93 L466 93 L466 0 L30 0 Z " />
<glyph glyph-name="braceleft" unicode="&#x7b;" horiz-adv-x="351" d="M327 -103 Q312 -105 298.5 -106 Q285 -107 271 -107 Q183 -107 141.5 -68.5 Q100 -30 100 59 L100 221 Q100 247 98 263.5 Q96 280 88.5 290 Q81 300 67 304.5 Q53 309 29 311 L29 386 Q53 388 67 392.5 Q81 397 88.5 407 Q96 417 98 433.5 Q100 450 100 476 L100 624 Q100 712 141.5 751 Q183 790 271 790 Q285 790 298.5 789 Q312 788 327 786 L327 717 L293 717 Q258 717 237 697 Q216 677 216 623 L216 493 Q216 453 212.5 428 Q209 403 200.5 387 Q192 371 178.5 363 Q165 355 144 350 L144 347 Q165 342 179 334 Q193 326 201 310.5 Q209 295 212.5 269.5 Q216 244 216 204 L216 60 Q216 6 236.5 -14 Q257 -34 292 -34 L327 -34 L327 -103 L327 -103 Z " />
<glyph glyph-name="bar" unicode="&#x7c;" horiz-adv-x="210" d="M64 -102 L64 787 L145 787 L145 -102 L64 -102 Z " />
<glyph glyph-name="braceright" unicode="&#x7d;" horiz-adv-x="351" d="M24.02 -103 Q39.019 -105 52.5182 -106 Q66.0174 -107 80.0165 -107 Q168.011 -107 209.509 -68.5 Q251.006 -30 251.006 59 L251.006 221 Q251.006 247 253.006 263.5 Q255.006 280 262.505 290 Q270.005 300 284.004 304.5 Q298.003 309 322.002 311 L322.002 386 Q298.003 388 284.004 392.5 Q270.005 397 262.505 407 Q255.006 417 253.006 433.5 Q251.006 450 251.006 476 L251.006 624 Q251.006 712 209.509 751 Q168.011 790 80.0165 790 Q66.0174 790 52.5182 789 Q39.019 788 24.02 786 L24.02 717 L58.0179 717 Q93.0157 717 114.014 697 Q135.013 677 135.013 623 L135.013 493 Q135.013 453 138.513 428 Q142.013 403 150.512 387 Q159.012 371 172.511 363 Q186.01 355 207.009 350 L207.009 347 Q186.01 342 172.011 334 Q158.012 326 150.012 310.5 Q142.013 295 138.513 269.5 Q135.013 244 135.013 204 L135.013 60 Q135.013 6 114.514 -14 Q94.0157 -34 59.0178 -34 L24.02 -34 L24.02 -103 L24.02 -103 Z " />
<glyph glyph-name="asciitilde" unicode="&#x7e;" horiz-adv-x="636" d="M58 287 Q85 335 125 364.5 Q165 394 215 394 Q251 394 281.5 382 Q312 370 339 355.5 Q366 341 390.5 329 Q415 317 439 317 Q459 317 474 325 L536 389 Q539 387 543 383 Q550 376 559 370 Q569 361 581 351 Q552 302 512 273 Q472 244 421 244 Q386 244 356 256 Q326 268 299 283 Q272 298 247.5 310 Q223 322 199 322 Q181 322 163 313 L101 249 L58 287 L58 287 Z " />
<glyph glyph-name="uni00A0" unicode="&#xa0;" horiz-adv-x="220" d="" />
<glyph glyph-name="exclamdown" unicode="&#xa1;" horiz-adv-x="254" d="M81 324.013 L58 20.0311 L58 -169.957 L196 -169.957 L196 20.0311 L174 324.013 L81 324.013 Z M54 470.004 Q54 442.005 75.5 421.007 Q97 400.008 127 400.008 Q158 400.008 179.5 421.007 Q201 442.005 201 470.004 Q201 499.002 179.5 519.501 Q158 539.999 127 539.999 Q97 539.999 75.5 519.501 Q54 499.002 54 470.004 Z " />
<glyph glyph-name="cent" unicode="&#xa2;" horiz-adv-x="480" d="M429 106 Q406 94 377 88 Q348 82 316 80 L316 -10 L261 -10 L261 80 Q216 83 176.5 101 Q137 119 107 152 Q77 185 60 233 Q43 281 43 346 Q43 410 60 459.5 Q77 509 106.5 543.5 Q136 578 175.5 598 Q215 618 261 624 L261 710 L316 710 L316 627 Q383 625 426 611 L426 514 Q400 521 376 525 Q352 529 316 530 L316 178 Q372 176 429 197 L429 106 Z M164 350 Q164 280 189 239.5 Q214 199 261 185 L261 522 Q164 492 164 350 Z " />
<glyph glyph-name="sterling" unicode="&#xa3;" horiz-adv-x="587" d="M539 0 L46 0 L46 98 L116 98 L116 309 L46 309 L46 379 L116 379 L116 486 Q116 530 130 570.5 Q144 611 174 642 Q204 673 250.5 691.5 Q297 710 363 710 Q398 710 427.5 706.5 Q457 703 478.5 698.5 Q500 694 514 690 Q528 686 532 685 L532 588 Q494 602 453.5 609 Q413 616 377 616 Q307 616 275 587 Q243 558 243 486 L243 379 L397 379 L397 309 L243 309 L243 98 L539 98 L539 0 Z " />
<glyph glyph-name="currency" unicode="&#xa4;" horiz-adv-x="511" d="M322 203 Q293 186 256 186 Q218 186 188 204 L107 122 L49 178 L132 260 Q114 290 114 326 Q114 345 119 362.5 Q124 380 132 394 L50 476 L108 533 L189 451 Q204 459 220.5 464 Q237 469 256 469 Q274 469 291 464 Q308 459 323 451 L404 533 L461 476 L379 394 Q387 379 392 362 Q397 345 397 326 Q397 308 392 291 Q387 274 379 259 L461 178 L403 122 L322 203 Z M181 326 Q181 294 203.5 271 Q226 248 256 248 Q287 248 309 271 Q331 294 331 326 Q331 359 309 382 Q287 405 256 405 Q226 405 203.5 382 Q181 359 181 326 Z " />
<glyph glyph-name="yen" unicode="&#xa5;" horiz-adv-x="634" d="M87 368 L211 368 L29 700 L173 700 L331 398 L482 700 L605 700 L434 368 L547 368 L547 297 L398 297 L392 285 L392 240 L547 240 L547 169 L392 169 L392 0 L265 0 L265 169 L87 169 L87 240 L265 240 L265 271 L250 297 L87 297 L87 368 Z " />
<glyph glyph-name="brokenbar" unicode="&#xa6;" horiz-adv-x="221" d="M69 404 L69 773 L152 773 L152 404 L69 404 Z M69 -106 L69 264 L152 264 L152 -106 L69 -106 Z " />
<glyph glyph-name="section" unicode="&#xa7;" horiz-adv-x="564" d="M300 182 Q319 177 336 171.5 Q353 166 369 159 Q408 189 408 230 Q408 250 399.5 264.5 Q391 279 373.5 290 Q356 301 329 310.5 Q302 320 265 331 Q248 336 233 341 Q218 346 204 351 Q160 328 160 284 Q160 265 167 251 Q174 237 190 225.5 Q206 214 233 203.5 Q260 193 300 182 Z M247 -210 Q207 -210 172 -206.5 Q137 -203 111 -198 Q80 -193 55 -185 L55 -86 Q95 -95 144 -104 Q193 -113 247 -113 Q316 -113 349.5 -89.5 Q383 -66 383 -27 Q383 -8 375.5 5.5 Q368 19 352.5 30 Q337 41 311.5 50.5 Q286 60 250 71 Q201 85 163.5 102 Q126 119 100.5 141.5 Q75 164 61.5 194.5 Q48 225 48 266 Q48 311 68 343.5 Q88 376 123 398 Q65 446 65 532 Q65 574 83.5 607 Q102 640 134.5 663 Q167 686 211.5 698 Q256 710 309 710 Q347 710 379.5 706 Q412 702 437 697 Q466 692 491 685 L491 585 Q453 595 409 603.5 Q365 612 318 612 Q248 612 215 591.5 Q182 571 182 537 Q182 521 188 509 Q194 497 209 486 Q224 475 249.5 464.5 Q275 454 314 442 Q362 427 401 410 Q440 393 467 371 Q494 349 508.5 320 Q523 291 523 254 Q523 206 503.5 171.5 Q484 137 451 112 Q506 65 506 -6 Q506 -56 486.5 -94.5 Q467 -133 433 -158.5 Q399 -184 351.5 -197 Q304 -210 247 -210 Z " />
<glyph glyph-name="dieresis" unicode="&#xa8;" horiz-adv-x="337" d="M40 661 Q40 683 55 699 Q70 715 94 715 Q118 715 133 699 Q148 683 148 661 Q148 638 133 623 Q118 608 94 608 Q70 608 55 623 Q40 638 40 661 Z M189 661 Q189 683 204.5 699 Q220 715 243 715 Q267 715 282.5 699 Q298 683 298 661 Q298 638 282.5 623 Q267 608 243 608 Q220 608 204.5 623 Q189 638 189 661 Z " />
<glyph glyph-name="copyright" unicode="&#xa9;" horiz-adv-x="809" d="M45 349 Q45 423 73 488.5 Q101 554 150 603 Q199 652 264 680.5 Q329 709 404 709 Q478 709 543.5 680.5 Q609 652 658 603 Q707 554 735.5 488.5 Q764 423 764 349 Q764 274 735.5 209 Q707 144 658 95 Q609 46 543.5 18 Q478 -10 404 -10 Q329 -10 264 18 Q199 46 150 95 Q101 144 73 209 Q45 274 45 349 Z M94 349 Q94 284 118 226.5 Q142 169 184 126 Q226 83 282.5 58.5 Q339 34 404 34 Q468 34 524.5 58.5 Q581 83 623 126 Q665 169 689.5 226.5 Q714 284 714 349 Q714 414 689.5 471.5 Q665 529 623 572 Q581 615 524.5 640 Q468 665 404 665 Q339 665 282.5 640 Q226 615 184 572 Q142 529 118 471.5 Q94 414 94 349 Z M525 136 Q503 125 473 119.5 Q443 114 410 114 Q368 114 331 127.5 Q294 141 267 169 Q240 197 224 240.5 Q208 284 208 343 Q208 402 224.5 446 Q241 490 270 519.5 Q299 549 338 563.5 Q377 578 421 578 Q453 578 479 574 Q505 570 523 564 L523 484 Q501 490 482 493 Q463 496 434 496 Q374 496 342.5 458.5 Q311 421 311 347 Q311 269 344.5 233.5 Q378 198 439 198 Q462 198 485 202 Q508 206 525 212 L525 136 Z " />
<glyph glyph-name="ordfeminine" unicode="&#xaa;" horiz-adv-x="366" d="M169 439 Q189 439 204 449.5 Q219 460 226 467 L226 519 L171 519 Q150 519 136 510 Q122 501 122 480 Q122 462 132.5 450.5 Q143 439 169 439 Z M226 420 Q216 409 193 394.5 Q170 380 137 380 Q87 380 64.5 408 Q42 436 42 475 Q42 518 71 544 Q100 570 148 570 L226 570 L226 592 Q226 604 224 615 Q222 626 215 633.5 Q208 641 195.5 645.5 Q183 650 161 650 Q129 650 103 643.5 Q77 637 66 632 L66 691 Q72 693 106 701.5 Q140 710 193 710 Q226 710 247.5 702 Q269 694 281.5 680 Q294 666 299.5 647 Q305 628 305 607 L305 385 L252 385 Q238 385 233.5 391.5 Q229 398 229 406 L229 420 L226 420 Z " />
<glyph glyph-name="guillemotleft" unicode="&#xab;" horiz-adv-x="508" d="M37.0165 236 L173.008 46 L266.003 46 L131.011 256 L266.003 463 L173.008 463 L37.0165 274 L37.0165 236 Z M237.017 236 L373.008 46 L466.003 46 L331.011 256 L466.003 463 L373.008 463 L237.017 274 L237.017 236 Z " />
<glyph glyph-name="logicalnot" unicode="&#xac;" horiz-adv-x="545" d="M64 327 L479 327 L479 107 L403 107 L403 252 L64 252 L64 327 Z " />
<glyph glyph-name="uni00AD" unicode="&#xad;" horiz-adv-x="522" d="" />
<glyph glyph-name="registered" unicode="&#xae;" horiz-adv-x="668" d="M47 421 Q47 481 69.5 533.5 Q92 586 131 625 Q170 664 222 687 Q274 710 333 710 Q393 710 445 687 Q497 664 536 625 Q575 586 597.5 533.5 Q620 481 620 421 Q620 361 597.5 308.5 Q575 256 536 217 Q497 178 445 155 Q393 132 333 132 Q274 132 222 155 Q170 178 131 217 Q92 256 69.5 308.5 Q47 361 47 421 Z M90 421 Q90 369 109 323.5 Q128 278 161 244 Q194 210 238.5 190.5 Q283 171 334 171 Q385 171 429.5 191 Q474 211 507 245 Q540 279 559 324.5 Q578 370 578 421 Q578 473 559 518.5 Q540 564 507 598 Q474 632 429.5 652 Q385 672 334 672 Q283 672 238.5 652 Q194 632 161 598 Q128 564 109 518.5 Q90 473 90 421 Z M215 578 L338 578 Q395 578 428 557.5 Q461 537 461 491 Q461 453 439 435 Q417 417 392 413 L392 412 Q407 408 416 397.5 Q425 387 434 366 L474 265 L389 265 L360 357 Q355 377 348 381.5 Q341 386 330 386 L289 386 L289 265 L215 265 L215 578 Z M289 527 L289 439 L336 439 Q363 439 374.5 450 Q386 461 386 484 Q386 504 374.5 515.5 Q363 527 336 527 L289 527 Z " />
<glyph glyph-name="macron" unicode="&#xaf;" horiz-adv-x="396" d="M68 690 L327 690 L327 620 L68 620 L68 690 Z " />
<glyph glyph-name="degree" unicode="&#xb0;" horiz-adv-x="376" d="M37 559 Q37 590 49 617.5 Q61 645 81.5 665.5 Q102 686 129 698 Q156 710 187 710 Q218 710 245.5 698 Q273 686 293.5 665.5 Q314 645 326 617.5 Q338 590 338 559 Q338 528 326 501 Q314 474 293.5 453.5 Q273 433 245.5 421 Q218 409 187 409 Q156 409 129 421 Q102 433 81.5 453.5 Q61 474 49 501 Q37 528 37 559 Z M103 559 Q103 541 110 525 Q117 509 128.5 497.5 Q140 486 155 479 Q170 472 187 472 Q204 472 219 479 Q234 486 245.5 497.5 Q257 509 264 525 Q271 541 271 559 Q271 577 264 593 Q257 609 245.5 621 Q234 633 219 640 Q204 647 187 647 Q170 647 155 640 Q140 633 128.5 621 Q117 609 110 593 Q103 577 103 559 Z " />
<glyph glyph-name="plusminus" unicode="&#xb1;" horiz-adv-x="543" d="M64 443 L234 443 L234 594 L309 594 L309 443 L479 443 L479 368 L309 368 L309 217 L234 217 L234 368 L64 368 L64 443 Z M64 162 L479 162 L479 88 L64 88 L64 162 Z " />
<glyph glyph-name="twosuperior" unicode="&#xb2;" horiz-adv-x="295" d="M33 506 L33 561 Q33 581 37 595.5 Q41 610 50.5 622.5 Q60 635 76.5 647 Q93 659 118 675 Q156 698 167.5 711 Q179 724 179 738 Q179 766 132 766 Q109 766 84.5 761 Q60 756 37 748 L37 813 Q51 819 68 824 Q82 828 101.5 831.5 Q121 835 144 835 Q175 835 197 827 Q219 819 232.5 805.5 Q246 792 252 775.5 Q258 759 258 741 Q258 723 253 708.5 Q248 694 236.5 680.5 Q225 667 207 653.5 Q189 640 163 625 Q137 608 127.5 600.5 Q118 593 118 582 L118 573 L266 573 L266 506 L33 506 Z " />
<glyph glyph-name="threesuperior" unicode="&#xb3;" horiz-adv-x="282" d="M36 823 Q48 826 63 829 Q76 831 92 833 Q108 835 128 835 Q160 835 182.5 827.5 Q205 820 219 808 Q233 796 239 781 Q245 766 245 751 Q245 716 228 698 Q211 680 185 672 L185 669 Q216 662 233.5 645 Q251 628 251 595 Q251 577 244.5 560 Q238 543 223 529.5 Q208 516 184 508 Q160 500 126 500 Q87 500 64.5 504.5 Q42 509 31 512 L31 578 Q51 573 72 569 Q93 565 118 565 Q171 565 171 603 Q171 639 122 639 L86 639 L86 700 L122 700 Q167 700 167 737 Q167 751 156.5 760.5 Q146 770 120 770 Q103 770 78.5 766.5 Q54 763 36 758 L36 823 Z " />
<glyph glyph-name="acute" unicode="&#xb4;" horiz-adv-x="386" d="M126 579 L93 615 L215 751 L237 751 L292 684 L143 579 L126 579 Z " />
<glyph glyph-name="paragraph" unicode="&#xb6;" horiz-adv-x="628" d="M381 700 L381 -170 L300 -170 L300 250 Q237 250 186.5 264 Q136 278 100.5 306.5 Q65 335 45.5 377.5 Q26 420 26 478 Q26 536 45.5 578 Q65 620 101.5 647 Q138 674 189.5 687 Q241 700 304 700 L381 700 Z M476 -170 L476 700 L557 700 L557 -170 L476 -170 Z " />
<glyph glyph-name="periodcentered" unicode="&#xb7;" horiz-adv-x="247" d="M53 375 Q53 401 73.5 421.5 Q94 442 123 442 Q152 442 173 421.5 Q194 401 194 375 Q194 348 173 328 Q152 308 123 308 Q94 308 73.5 328 Q53 348 53 375 Z " />
<glyph glyph-name="cedilla" unicode="&#xb8;" horiz-adv-x="400" d="M173 -180 Q142 -180 114.5 -172 Q87 -164 70 -153 L87 -111 Q97 -117 119.5 -124 Q142 -131 163 -131 Q180 -131 193 -126 Q206 -121 206 -107 Q206 -90 181.5 -81 Q157 -72 116 -68 L116 -48 L166 13 L231 12 L192 -35 Q237 -40 262 -56 Q287 -72 287 -104 Q287 -125 277 -139.5 Q267 -154 251 -163 Q235 -172 214.5 -176 Q194 -180 173 -180 Z " />
<glyph glyph-name="onesuperior" unicode="&#xb9;" horiz-adv-x="252" d="M34 506 L34 561 L91 561 L91 751 L34 751 L34 807 L83 807 Q99 807 110.5 815.5 Q122 824 124 833 L172 833 L172 561 L230 561 L230 506 L34 506 Z " />
<glyph glyph-name="ordmasculine" unicode="&#xba;" horiz-adv-x="375" d="M333 545 Q333 502 321.5 471 Q310 440 290.5 419.5 Q271 399 244.5 389.5 Q218 380 187 380 Q156 380 129 389.5 Q102 399 82.5 419.5 Q63 440 52 471 Q41 502 41 545 Q41 588 52 619 Q63 650 82.5 670 Q102 690 129 700 Q156 710 187 710 Q218 710 244.5 700 Q271 690 290.5 670 Q310 650 321.5 619 Q333 588 333 545 Z M252 545 Q252 601 236.5 625.5 Q221 650 187 650 Q154 650 138.5 625.5 Q123 601 123 545 Q123 489 138.5 464.5 Q154 440 187 440 Q221 440 236.5 464.5 Q252 489 252 545 Z " />
<glyph glyph-name="guillemotright" unicode="&#xbb;" horiz-adv-x="508" d="M271 236 L135 46 L42 46 L177 256 L42 463 L135 463 L271 274 L271 236 Z M471 236 L335 46 L242 46 L377 256 L242 463 L335 463 L471 274 L471 236 Z " />
<glyph glyph-name="onequarter" unicode="&#xbc;" horiz-adv-x="633" d="M312 134 L465 329 L535 329 L535 134 L575 134 L575 70 L535 70 L535 0 L458 0 L458 70 L312 70 L312 134 Z M458 237 L374 134 L458 134 L458 237 Z M65 376 L65 431 L122 431 L122 621 L65 621 L65 677 L114 677 Q130 677 141.5 685.5 Q153 694 155 703 L203 703 L203 431 L261 431 L261 376 L65 376 Z M35 0 L534 700 L604 700 L106 0 L35 0 Z " />
<glyph glyph-name="onehalf" unicode="&#xbd;" horiz-adv-x="644" d="M364 0 L364 55 Q364 75 368 89.5 Q372 104 381.5 116.5 Q391 129 407.5 141 Q424 153 449 169 Q487 192 498.5 205 Q510 218 510 232 Q510 260 463 260 Q440 260 415.5 255 Q391 250 368 242 L368 307 Q382 313 399 318 Q413 322 432.5 325.5 Q452 329 475 329 Q506 329 528 321 Q550 313 563.5 299.5 Q577 286 583 269.5 Q589 253 589 235 Q589 217 584 202.5 Q579 188 567.5 174.5 Q556 161 538 147.5 Q520 134 494 119 Q468 102 458.5 94.5 Q449 87 449 76 L449 67 L597 67 L597 0 L364 0 Z M63 376 L63 431 L120 431 L120 621 L63 621 L63 677 L112 677 Q128 677 139.5 685.5 Q151 694 153 703 L201 703 L201 431 L259 431 L259 376 L63 376 Z M33 0 L532 700 L602 700 L104 0 L33 0 Z " />
<glyph glyph-name="threequarters" unicode="&#xbe;" horiz-adv-x="638" d="M317 134 L470 329 L540 329 L540 134 L580 134 L580 70 L540 70 L540 0 L463 0 L463 70 L317 70 L317 134 Z M463 237 L379 134 L463 134 L463 237 Z M39 0 L538 700 L608 700 L110 0 L39 0 Z M64 693 Q76 696 91 699 Q104 701 120 703 Q136 705 156 705 Q188 705 210.5 697.5 Q233 690 247 678 Q261 666 267 651 Q273 636 273 621 Q273 586 256 568 Q239 550 213 542 L213 539 Q244 532 261.5 515 Q279 498 279 465 Q279 447 272.5 430 Q266 413 251 399.5 Q236 386 212 378 Q188 370 154 370 Q115 370 92.5 374.5 Q70 379 59 382 L59 448 Q79 443 100 439 Q121 435 146 435 Q199 435 199 473 Q199 509 150 509 L114 509 L114 570 L150 570 Q195 570 195 607 Q195 621 184.5 630.5 Q174 640 148 640 Q131 640 106.5 636.5 Q82 633 64 628 L64 693 Z " />
<glyph glyph-name="questiondown" unicode="&#xbf;" horiz-adv-x="482" d="M366.007 469.004 Q366.007 439.006 345.009 418.007 Q324.01 397.008 291.012 397.008 Q256.014 397.008 235.515 418.007 Q215.016 439.006 215.016 469.004 Q215.016 498.002 235.515 519.001 Q256.014 539.999 291.012 539.999 Q324.01 539.999 345.009 519.001 Q366.007 498.002 366.007 469.004 Z M451.002 -126.96 Q438.003 -133.959 418.504 -142.959 Q399.005 -151.958 374.007 -160.458 Q349.008 -168.957 320.01 -174.457 Q291.012 -179.957 259.014 -179.957 Q196.018 -179.957 151.52 -164.958 Q107.023 -149.958 79.5247 -125.46 Q52.0264 -100.961 39.5272 -69.9634 Q27.028 -38.9653 27.028 -5.96729 Q27.028 56.0289 57.0261 97.0264 Q87.0243 138.024 156.02 170.022 Q180.019 181.021 195.018 190.021 Q210.017 199.02 219.016 207.02 Q228.016 215.019 232.015 224.019 Q236.015 233.018 237.015 245.017 L242.015 324.013 L339.009 324.013 L345.009 245.017 Q348.008 217.019 341.009 197.02 Q334.009 177.022 319.01 162.022 Q304.011 147.023 282.512 134.524 Q261.014 122.025 235.015 109.026 Q208.017 96.0265 192.518 83.5273 Q177.019 71.028 169.019 58.5288 Q161.02 46.0295 159.02 33.5303 Q157.02 21.0311 157.02 7.03192 Q157.02 -8.9671 163.02 -24.4662 Q169.019 -39.9652 183.018 -51.4645 Q197.018 -62.9638 219.016 -69.9634 Q241.015 -76.963 273.013 -76.963 Q318.01 -76.963 358.508 -66.4636 Q399.005 -55.9642 451.002 -31.9657 L451.002 -126.96 Z " />
<glyph glyph-name="Agrave" unicode="&#xc0;" horiz-adv-x="623" d="M427 154 L184 154 L134 0 L13 0 L247 702 L374 702 L612 0 L478 0 L427 154 Z M214 248 L398 248 L306 532 L214 248 Z M323 752 L306 752 L156 856 L212 924 L233 924 L355 788 L323 752 Z " />
<glyph glyph-name="Aacute" unicode="&#xc1;" horiz-adv-x="623" d="M427 154 L184 154 L134 0 L13 0 L247 702 L374 702 L612 0 L478 0 L427 154 Z M214 248 L398 248 L306 532 L214 248 Z M307 752 L274 788 L396 924 L418 924 L473 856 L324 752 L307 752 Z " />
<glyph glyph-name="Acircumflex" unicode="&#xc2;" horiz-adv-x="623" d="M427 154 L184 154 L134 0 L13 0 L247 702 L374 702 L612 0 L478 0 L427 154 Z M214 248 L398 248 L306 532 L214 248 Z M191 753 L165 783 L293 926 L334 926 L463 783 L436 753 L418 753 L313 830 L209 753 L191 753 Z " />
<glyph glyph-name="Atilde" unicode="&#xc3;" horiz-adv-x="623" d="M427 154 L184 154 L134 0 L13 0 L247 702 L374 702 L612 0 L478 0 L427 154 Z M214 248 L398 248 L306 532 L214 248 Z M473 896 L473 854 Q473 809 451.5 788 Q430 767 392 767 Q368 767 348 774 Q328 781 310 789.5 Q292 798 277 805 Q262 812 249 812 Q235 812 228.5 805 Q222 798 222 793 L222 757 L155 757 L155 795 Q155 847 177.5 868 Q200 889 236 889 Q259 889 279 881.5 Q299 874 316.5 865 Q334 856 350.5 848.5 Q367 841 382 841 Q398 841 403 849.5 Q408 858 408 863 L408 896 L473 896 Z " />
<glyph glyph-name="Adieresis" unicode="&#xc4;" horiz-adv-x="623" d="M427 154 L184 154 L134 0 L13 0 L247 702 L374 702 L612 0 L478 0 L427 154 Z M214 248 L398 248 L306 532 L214 248 Z M186 836 Q186 858 201 874 Q216 890 240 890 Q264 890 279 874 Q294 858 294 836 Q294 813 279 798 Q264 783 240 783 Q216 783 201 798 Q186 813 186 836 Z M335 836 Q335 858 350.5 874 Q366 890 389 890 Q413 890 428.5 874 Q444 858 444 836 Q444 813 428.5 798 Q413 783 389 783 Q366 783 350.5 798 Q335 813 335 836 Z " />
<glyph glyph-name="Aring" unicode="&#xc5;" horiz-adv-x="623" d="M427 154 L184 154 L134 0 L13 0 L247 702 L374 702 L612 0 L478 0 L427 154 Z M214 248 L398 248 L306 532 L214 248 Z M367 828 Q367 870 314 870 Q262 870 262 828 Q262 787 314 787 Q367 787 367 828 Z M433 828 Q433 784 398.5 763.5 Q364 743 314 743 Q264 743 230 763.5 Q196 784 196 828 Q196 872 230 893 Q264 914 314 914 Q364 914 398.5 893 Q433 872 433 828 Z " />
<glyph glyph-name="AE" unicode="&#xc6;" horiz-adv-x="948" d="M460 154 L219 154 L137 0 L0 0 L375 700 L901 700 L901 602 L586 602 L586 405 L858 405 L858 309 L586 309 L586 98 L907 98 L907 0 L460 0 L460 154 Z M264 247 L460 247 L460 602 L451 602 L264 247 Z " />
<glyph glyph-name="Ccedilla" unicode="&#xc7;" horiz-adv-x="547" d="M319 -180 Q287 -180 259.5 -172 Q232 -164 215 -153 L232 -111 Q243 -117 265 -124 Q287 -131 309 -131 Q326 -131 339 -126 Q352 -121 352 -107 Q352 -90 327 -81 Q302 -72 262 -68 L262 -48 L295 -7 Q177 7 111 93 Q45 179 45 345 Q45 437 68 505.5 Q91 574 133 619.5 Q175 665 233.5 687.5 Q292 710 362 710 Q420 710 458 702.5 Q496 695 503 691 L503 589 Q474 598 448 603 Q422 608 382 608 Q272 608 225 544 Q178 480 178 355 Q178 225 220.5 158.5 Q263 92 368 92 Q411 92 443 99.5 Q475 107 513 121 L513 19 Q487 8 450 0 Q413 -8 357 -10 L337 -35 Q382 -40 407 -56 Q432 -72 432 -104 Q432 -125 422 -139.5 Q412 -154 396.5 -163 Q381 -172 360.5 -176 Q340 -180 319 -180 Z " />
<glyph glyph-name="Egrave" unicode="&#xc8;" horiz-adv-x="565" d="M325 752 L308 752 L158 856 L214 924 L235 924 L357 788 L325 752 Z M203 602 L203 405 L475 405 L475 309 L203 309 L203 98 L524 98 L524 0 L77 0 L77 700 L518 700 L518 602 L203 602 Z " />
<glyph glyph-name="Eacute" unicode="&#xc9;" horiz-adv-x="565" d="M203 602 L203 405 L475 405 L475 309 L203 309 L203 98 L524 98 L524 0 L77 0 L77 700 L518 700 L518 602 L203 602 Z M309 752 L276 788 L398 924 L420 924 L475 856 L326 752 L309 752 Z " />
<glyph glyph-name="Ecircumflex" unicode="&#xca;" horiz-adv-x="565" d="M193 753 L167 783 L295 926 L336 926 L465 783 L438 753 L420 753 L315 830 L211 753 L193 753 Z M203 602 L203 405 L475 405 L475 309 L203 309 L203 98 L524 98 L524 0 L77 0 L77 700 L518 700 L518 602 L203 602 Z " />
<glyph glyph-name="Edieresis" unicode="&#xcb;" horiz-adv-x="565" d="M203 602 L203 405 L475 405 L475 309 L203 309 L203 98 L524 98 L524 0 L77 0 L77 700 L518 700 L518 602 L203 602 Z M188 836 Q188 858 203 874 Q218 890 242 890 Q266 890 281 874 Q296 858 296 836 Q296 813 281 798 Q266 783 242 783 Q218 783 203 798 Q188 813 188 836 Z M337 836 Q337 858 352.5 874 Q368 890 391 890 Q415 890 430.5 874 Q446 858 446 836 Q446 813 430.5 798 Q415 783 391 783 Q368 783 352.5 798 Q337 813 337 836 Z " />
<glyph glyph-name="Igrave" unicode="&#xcc;" horiz-adv-x="280" d="M77 700 L203 700 L203 0 L77 0 L77 700 Z M149 752 L132 752 L-18 856 L38 924 L59 924 L181 788 L149 752 Z " />
<glyph glyph-name="Iacute" unicode="&#xcd;" horiz-adv-x="280" d="M77 700 L203 700 L203 0 L77 0 L77 700 Z M133 752 L100 788 L222 924 L244 924 L299 856 L150 752 L133 752 Z " />
<glyph glyph-name="Icircumflex" unicode="&#xce;" horiz-adv-x="280" d="M77 700 L203 700 L203 0 L77 0 L77 700 Z M17 753 L-9 783 L119 926 L160 926 L289 783 L262 753 L244 753 L139 830 L35 753 L17 753 Z " />
<glyph glyph-name="Idieresis" unicode="&#xcf;" horiz-adv-x="280" d="M77 700 L203 700 L203 0 L77 0 L77 700 Z M12 836 Q12 858 27 874 Q42 890 66 890 Q90 890 105 874 Q120 858 120 836 Q120 813 105 798 Q90 783 66 783 Q42 783 27 798 Q12 813 12 836 Z M161 836 Q161 858 176.5 874 Q192 890 215 890 Q239 890 254.5 874 Q270 858 270 836 Q270 813 254.5 798 Q239 783 215 783 Q192 783 176.5 798 Q161 813 161 836 Z " />
<glyph glyph-name="Eth" unicode="&#xd0;" horiz-adv-x="674" d="M83 0 L83 324 L16 324 L16 390 L83 390 L83 700 L310 700 Q383 700 442 679.5 Q501 659 542.5 616 Q584 573 606.5 508 Q629 443 629 355 Q629 265 606.5 198 Q584 131 542.5 87 Q501 43 442 21.5 Q383 0 310 0 L83 0 Z M310 98 Q411 98 453.5 161 Q496 224 496 355 Q496 482 453.5 542 Q411 602 310 602 L210 602 L210 390 L372 390 L372 324 L210 324 L210 98 L310 98 Z " />
<glyph glyph-name="Ntilde" unicode="&#xd1;" horiz-adv-x="665" d="M504 896 L504 854 Q504 809 482.5 788 Q461 767 423 767 Q399 767 379 774 Q359 781 341 789.5 Q323 798 308 805 Q293 812 280 812 Q266 812 259.5 805 Q253 798 253 793 L253 757 L186 757 L186 795 Q186 847 208.5 868 Q231 889 267 889 Q290 889 310 881.5 Q330 874 347.5 865 Q365 856 381.5 848.5 Q398 841 413 841 Q429 841 434 849.5 Q439 858 439 863 L439 896 L504 896 Z M497 -3 L186 486 L186 0 L76 0 L76 700 L186 700 L478 241 L478 700 L588 700 L588 -3 L497 -3 Z " />
<glyph glyph-name="Ograve" unicode="&#xd2;" horiz-adv-x="673" d="M349 752 L332 752 L182 856 L238 924 L259 924 L381 788 L349 752 Z M45 350 Q45 442 66.5 509.5 Q88 577 126.5 621.5 Q165 666 218.5 688 Q272 710 336 710 Q400 710 454 688 Q508 666 546.5 621.5 Q585 577 606.5 509.5 Q628 442 628 350 Q628 258 606.5 190.5 Q585 123 546.5 78.5 Q508 34 454 12 Q400 -10 336 -10 Q272 -10 218.5 12 Q165 34 126.5 78.5 Q88 123 66.5 190.5 Q45 258 45 350 Z M178 350 Q178 216 215.5 153 Q253 90 336 90 Q420 90 457.5 153 Q495 216 495 350 Q495 484 457.5 547 Q420 610 336 610 Q253 610 215.5 547 Q178 484 178 350 Z " />
<glyph glyph-name="Oacute" unicode="&#xd3;" horiz-adv-x="673" d="M332 752 L299 788 L421 924 L443 924 L498 856 L349 752 L332 752 Z M45 350 Q45 442 66.5 509.5 Q88 577 126.5 621.5 Q165 666 218.5 688 Q272 710 336 710 Q400 710 454 688 Q508 666 546.5 621.5 Q585 577 606.5 509.5 Q628 442 628 350 Q628 258 606.5 190.5 Q585 123 546.5 78.5 Q508 34 454 12 Q400 -10 336 -10 Q272 -10 218.5 12 Q165 34 126.5 78.5 Q88 123 66.5 190.5 Q45 258 45 350 Z M178 350 Q178 216 215.5 153 Q253 90 336 90 Q420 90 457.5 153 Q495 216 495 350 Q495 484 457.5 547 Q420 610 336 610 Q253 610 215.5 547 Q178 484 178 350 Z " />
<glyph glyph-name="Ocircumflex" unicode="&#xd4;" horiz-adv-x="673" d="M217 753 L191 783 L319 926 L360 926 L489 783 L462 753 L444 753 L339 830 L235 753 L217 753 Z M45 350 Q45 442 66.5 509.5 Q88 577 126.5 621.5 Q165 666 218.5 688 Q272 710 336 710 Q400 710 454 688 Q508 666 546.5 621.5 Q585 577 606.5 509.5 Q628 442 628 350 Q628 258 606.5 190.5 Q585 123 546.5 78.5 Q508 34 454 12 Q400 -10 336 -10 Q272 -10 218.5 12 Q165 34 126.5 78.5 Q88 123 66.5 190.5 Q45 258 45 350 Z M178 350 Q178 216 215.5 153 Q253 90 336 90 Q420 90 457.5 153 Q495 216 495 350 Q495 484 457.5 547 Q420 610 336 610 Q253 610 215.5 547 Q178 484 178 350 Z " />
<glyph glyph-name="Otilde" unicode="&#xd5;" horiz-adv-x="673" d="M45 350 Q45 442 66.5 509.5 Q88 577 126.5 621.5 Q165 666 218.5 688 Q272 710 336 710 Q400 710 454 688 Q508 666 546.5 621.5 Q585 577 606.5 509.5 Q628 442 628 350 Q628 258 606.5 190.5 Q585 123 546.5 78.5 Q508 34 454 12 Q400 -10 336 -10 Q272 -10 218.5 12 Q165 34 126.5 78.5 Q88 123 66.5 190.5 Q45 258 45 350 Z M178 350 Q178 216 215.5 153 Q253 90 336 90 Q420 90 457.5 153 Q495 216 495 350 Q495 484 457.5 547 Q420 610 336 610 Q253 610 215.5 547 Q178 484 178 350 Z M498 896 L498 854 Q498 809 476.5 788 Q455 767 417 767 Q393 767 373 774 Q353 781 335 789.5 Q317 798 302 805 Q287 812 274 812 Q260 812 253.5 805 Q247 798 247 793 L247 757 L180 757 L180 795 Q180 847 202.5 868 Q225 889 261 889 Q284 889 304 881.5 Q324 874 341.5 865 Q359 856 375.5 848.5 Q392 841 407 841 Q423 841 428 849.5 Q433 858 433 863 L433 896 L498 896 Z " />
<glyph glyph-name="Odieresis" unicode="&#xd6;" horiz-adv-x="673" d="M45 350 Q45 442 66.5 509.5 Q88 577 126.5 621.5 Q165 666 218.5 688 Q272 710 336 710 Q400 710 454 688 Q508 666 546.5 621.5 Q585 577 606.5 509.5 Q628 442 628 350 Q628 258 606.5 190.5 Q585 123 546.5 78.5 Q508 34 454 12 Q400 -10 336 -10 Q272 -10 218.5 12 Q165 34 126.5 78.5 Q88 123 66.5 190.5 Q45 258 45 350 Z M178 350 Q178 216 215.5 153 Q253 90 336 90 Q420 90 457.5 153 Q495 216 495 350 Q495 484 457.5 547 Q420 610 336 610 Q253 610 215.5 547 Q178 484 178 350 Z M211 836 Q211 858 226 874 Q241 890 265 890 Q289 890 304 874 Q319 858 319 836 Q319 813 304 798 Q289 783 265 783 Q241 783 226 798 Q211 813 211 836 Z M360 836 Q360 858 375.5 874 Q391 890 414 890 Q438 890 453.5 874 Q469 858 469 836 Q469 813 453.5 798 Q438 783 414 783 Q391 783 375.5 798 Q360 813 360 836 Z " />
<glyph glyph-name="multiply" unicode="&#xd7;" horiz-adv-x="479" d="M52 203 L183 333 L52 463 L110 520 L239 389 L369 520 L426 463 L295 333 L427 203 L370 146 L239 277 L109 146 L52 203 Z " />
<glyph glyph-name="Oslash" unicode="&#xd8;" horiz-adv-x="675" d="M47 350 Q47 442 68.5 509.5 Q90 577 128.5 621.5 Q167 666 220.5 688 Q274 710 338 710 Q389 710 434 696.5 Q479 683 514 654 L554 710 L637 710 L562 605 Q594 560 612 497 Q630 434 630 350 Q630 258 608.5 190.5 Q587 123 548.5 78.5 Q510 34 456 12 Q402 -10 338 -10 Q287 -10 242.5 3.5 Q198 17 162 45 L123 -10 L39 -10 L114 95 Q82 140 64.5 203 Q47 266 47 350 Z M497 350 Q497 437 481 492 L228 138 Q266 90 338 90 Q422 90 459.5 153 Q497 216 497 350 Z M180 350 Q180 307 183.5 272 Q187 237 195 208 L448 562 Q409 610 338 610 Q255 610 217.5 547 Q180 484 180 350 Z " />
<glyph glyph-name="Ugrave" unicode="&#xd9;" horiz-adv-x="649" d="M338 752 L321 752 L171 856 L227 924 L248 924 L370 788 L338 752 Z M460 700 L578 700 L578 236 Q578 173 560 126.5 Q542 80 508.5 50 Q475 20 427 5 Q379 -10 320 -10 Q206 -10 138.5 50 Q71 110 71 236 L71 700 L200 700 L200 235 Q200 163 230 127 Q260 91 328 91 Q402 91 431 127 Q460 163 460 235 L460 700 Z " />
<glyph glyph-name="Uacute" unicode="&#xda;" horiz-adv-x="649" d="M460 700 L578 700 L578 236 Q578 173 560 126.5 Q542 80 508.5 50 Q475 20 427 5 Q379 -10 320 -10 Q206 -10 138.5 50 Q71 110 71 236 L71 700 L200 700 L200 235 Q200 163 230 127 Q260 91 328 91 Q402 91 431 127 Q460 163 460 235 L460 700 Z M321 752 L288 788 L410 924 L432 924 L487 856 L338 752 L321 752 Z " />
<glyph glyph-name="Ucircumflex" unicode="&#xdb;" horiz-adv-x="649" d="M205 753 L179 783 L307 926 L348 926 L477 783 L450 753 L432 753 L327 830 L223 753 L205 753 Z M460 700 L578 700 L578 236 Q578 173 560 126.5 Q542 80 508.5 50 Q475 20 427 5 Q379 -10 320 -10 Q206 -10 138.5 50 Q71 110 71 236 L71 700 L200 700 L200 235 Q200 163 230 127 Q260 91 328 91 Q402 91 431 127 Q460 163 460 235 L460 700 Z " />
<glyph glyph-name="Udieresis" unicode="&#xdc;" horiz-adv-x="649" d="M460 700 L578 700 L578 236 Q578 173 560 126.5 Q542 80 508.5 50 Q475 20 427 5 Q379 -10 320 -10 Q206 -10 138.5 50 Q71 110 71 236 L71 700 L200 700 L200 235 Q200 163 230 127 Q260 91 328 91 Q402 91 431 127 Q460 163 460 235 L460 700 Z M200 836 Q200 858 215 874 Q230 890 254 890 Q278 890 293 874 Q308 858 308 836 Q308 813 293 798 Q278 783 254 783 Q230 783 215 798 Q200 813 200 836 Z M349 836 Q349 858 364.5 874 Q380 890 403 890 Q427 890 442.5 874 Q458 858 458 836 Q458 813 442.5 798 Q427 783 403 783 Q380 783 364.5 798 Q349 813 349 836 Z " />
<glyph glyph-name="Yacute" unicode="&#xdd;" horiz-adv-x="603" d="M243 0 L243 271 L7 700 L151 700 L309 398 L460 700 L583 700 L370 285 L370 0 L243 0 Z M309 752 L276 788 L398 924 L420 924 L475 856 L326 752 L309 752 Z " />
<glyph glyph-name="Ygrave" unicode="&#x1ef2;" horiz-adv-x="603" d="M243 0 L243 271 L7 700 L151 700 L309 398 L460 700 L583 700 L370 285 L370 0 L243 0 Z M315 752 L298 752 L148 856 L204 924 L225 924 L347 788 L315 752 Z " />
<glyph glyph-name="Thorn" unicode="&#xde;" horiz-adv-x="605" d="M203 475 L203 236 L311 236 Q384 236 414 266 Q444 296 444 359 Q444 418 414 446.5 Q384 475 311 475 L203 475 Z M77 0 L77 700 L203 700 L203 568 L311 568 Q435 568 505 519 Q575 470 575 365 Q575 308 556.5 266 Q538 224 504 196.5 Q470 169 421 156 Q372 143 311 143 L203 143 L203 0 L77 0 Z " />
<glyph glyph-name="germandbls" unicode="&#xdf;" horiz-adv-x="616" d="M302 104 Q327 90 355 82 Q383 74 416 74 Q449 74 467 89.5 Q485 105 485 135 Q485 163 459 188 Q433 213 397 245 Q374 265 357 281.5 Q340 298 328.5 313.5 Q317 329 311 344.5 Q305 360 305 378 Q305 407 321 431.5 Q337 456 356 479 Q375 502 391 526 Q407 550 407 579 Q407 618 379.5 636.5 Q352 655 316 655 Q293 655 274.5 651 Q256 647 243 636.5 Q230 626 222.5 607 Q215 588 215 559 L215 0 L96 0 L96 441 L24 441 L24 526 L96 526 L96 552 Q96 590 109.5 624.5 Q123 659 150.5 684.5 Q178 710 219 725 Q260 740 316 740 Q349 740 384 731.5 Q419 723 447.5 704.5 Q476 686 494 655.5 Q512 625 512 580 Q512 547 497 522.5 Q482 498 464 477.5 Q446 457 431 438.5 Q416 420 416 400 Q416 376 432 357.5 Q448 339 480 309 Q503 286 524.5 266 Q546 246 562.5 225.5 Q579 205 588.5 181.5 Q598 158 598 128 Q598 65 555.5 27.5 Q513 -10 434 -10 Q392 -10 355.5 -2.5 Q319 5 302 13 L302 104 L302 104 Z " />
<glyph glyph-name="agrave" unicode="&#xe0;" horiz-adv-x="507" d="M223 87 Q241 87 257.5 93 Q274 99 287.5 107 Q301 115 311.5 124 Q322 133 328 139 L328 221 L232 221 Q193 221 170 205.5 Q147 190 147 155 Q147 87 223 87 Z M331 57 Q323 49 309 37.5 Q295 26 276.5 15.5 Q258 5 234.5 -2.5 Q211 -10 183 -10 Q144 -10 115 2 Q86 14 67 35 Q48 56 38.5 85 Q29 114 29 147 Q29 186 42 215.5 Q55 245 78 265 Q101 285 133 295 Q165 305 203 305 L328 305 L328 343 Q328 363 325 380.5 Q322 398 311 411 Q300 424 278.5 431.5 Q257 439 220 439 Q169 439 128.5 428.5 Q88 418 69 410 L69 506 Q101 517 149 527.5 Q197 538 258 538 Q312 538 348 524 Q384 510 406 485.5 Q428 461 437 428.5 Q446 396 446 360 L446 0 L372 0 Q348 0 341.5 11 Q335 22 335 36 L335 57 L331 57 Z M269 579 L252 579 L102 684 L157 751 L180 751 L301 615 L269 579 Z " />
<glyph glyph-name="aacute" unicode="&#xe1;" horiz-adv-x="507" d="M223 87 Q241 87 257.5 93 Q274 99 287.5 107 Q301 115 311.5 124 Q322 133 328 139 L328 221 L232 221 Q193 221 170 205.5 Q147 190 147 155 Q147 87 223 87 Z M331 57 Q323 49 309 37.5 Q295 26 276.5 15.5 Q258 5 234.5 -2.5 Q211 -10 183 -10 Q144 -10 115 2 Q86 14 67 35 Q48 56 38.5 85 Q29 114 29 147 Q29 186 42 215.5 Q55 245 78 265 Q101 285 133 295 Q165 305 203 305 L328 305 L328 343 Q328 363 325 380.5 Q322 398 311 411 Q300 424 278.5 431.5 Q257 439 220 439 Q169 439 128.5 428.5 Q88 418 69 410 L69 506 Q101 517 149 527.5 Q197 538 258 538 Q312 538 348 524 Q384 510 406 485.5 Q428 461 437 428.5 Q446 396 446 360 L446 0 L372 0 Q348 0 341.5 11 Q335 22 335 36 L335 57 L331 57 Z M253 579 L220 615 L342 751 L364 751 L419 684 L270 579 L253 579 Z " />
<glyph glyph-name="acircumflex" unicode="&#xe2;" horiz-adv-x="507" d="M223 87 Q241 87 257.5 93 Q274 99 287.5 107 Q301 115 311.5 124 Q322 133 328 139 L328 221 L232 221 Q193 221 170 205.5 Q147 190 147 155 Q147 87 223 87 Z M331 57 Q323 49 309 37.5 Q295 26 276.5 15.5 Q258 5 234.5 -2.5 Q211 -10 183 -10 Q144 -10 115 2 Q86 14 67 35 Q48 56 38.5 85 Q29 114 29 147 Q29 186 42 215.5 Q55 245 78 265 Q101 285 133 295 Q165 305 203 305 L328 305 L328 343 Q328 363 325 380.5 Q322 398 311 411 Q300 424 278.5 431.5 Q257 439 220 439 Q169 439 128.5 428.5 Q88 418 69 410 L69 506 Q101 517 149 527.5 Q197 538 258 538 Q312 538 348 524 Q384 510 406 485.5 Q428 461 437 428.5 Q446 396 446 360 L446 0 L372 0 Q348 0 341.5 11 Q335 22 335 36 L335 57 L331 57 Z M139 579 L114 609 L241 751 L280 751 L407 609 L382 579 L364 579 L260 659 L157 579 L139 579 Z " />
<glyph glyph-name="atilde" unicode="&#xe3;" horiz-adv-x="507" d="M223 87 Q241 87 257.5 93 Q274 99 287.5 107 Q301 115 311.5 124 Q322 133 328 139 L328 221 L232 221 Q193 221 170 205.5 Q147 190 147 155 Q147 87 223 87 Z M331 57 Q323 49 309 37.5 Q295 26 276.5 15.5 Q258 5 234.5 -2.5 Q211 -10 183 -10 Q144 -10 115 2 Q86 14 67 35 Q48 56 38.5 85 Q29 114 29 147 Q29 186 42 215.5 Q55 245 78 265 Q101 285 133 295 Q165 305 203 305 L328 305 L328 343 Q328 363 325 380.5 Q322 398 311 411 Q300 424 278.5 431.5 Q257 439 220 439 Q169 439 128.5 428.5 Q88 418 69 410 L69 506 Q101 517 149 527.5 Q197 538 258 538 Q312 538 348 524 Q384 510 406 485.5 Q428 461 437 428.5 Q446 396 446 360 L446 0 L372 0 Q348 0 341.5 11 Q335 22 335 36 L335 57 L331 57 Z M419 723 L419 682 Q419 637 397.5 616 Q376 595 338 595 Q314 595 294 602 Q274 609 256 617.5 Q238 626 223 633 Q208 640 195 640 Q181 640 174.5 633 Q168 626 168 621 L168 585 L101 585 L101 623 Q101 674 123.5 695.5 Q146 717 182 717 Q205 717 225 709.5 Q245 702 262.5 692.5 Q280 683 296.5 675.5 Q313 668 328 668 Q344 668 349 677 Q354 686 354 691 L354 723 L419 723 Z " />
<glyph glyph-name="adieresis" unicode="&#xe4;" horiz-adv-x="507" d="M223 87 Q241 87 257.5 93 Q274 99 287.5 107 Q301 115 311.5 124 Q322 133 328 139 L328 221 L232 221 Q193 221 170 205.5 Q147 190 147 155 Q147 87 223 87 Z M331 57 Q323 49 309 37.5 Q295 26 276.5 15.5 Q258 5 234.5 -2.5 Q211 -10 183 -10 Q144 -10 115 2 Q86 14 67 35 Q48 56 38.5 85 Q29 114 29 147 Q29 186 42 215.5 Q55 245 78 265 Q101 285 133 295 Q165 305 203 305 L328 305 L328 343 Q328 363 325 380.5 Q322 398 311 411 Q300 424 278.5 431.5 Q257 439 220 439 Q169 439 128.5 428.5 Q88 418 69 410 L69 506 Q101 517 149 527.5 Q197 538 258 538 Q312 538 348 524 Q384 510 406 485.5 Q428 461 437 428.5 Q446 396 446 360 L446 0 L372 0 Q348 0 341.5 11 Q335 22 335 36 L335 57 L331 57 Z M132 661 Q132 683 147 699 Q162 715 186 715 Q210 715 225 699 Q240 683 240 661 Q240 638 225 623 Q210 608 186 608 Q162 608 147 623 Q132 638 132 661 Z M281 661 Q281 683 296.5 699 Q312 715 335 715 Q359 715 374.5 699 Q390 683 390 661 Q390 638 374.5 623 Q359 608 335 608 Q312 608 296.5 623 Q281 638 281 661 Z " />
<glyph glyph-name="aring" unicode="&#xe5;" horiz-adv-x="507" d="M223 87 Q241 87 257.5 93 Q274 99 287.5 107 Q301 115 311.5 124 Q322 133 328 139 L328 221 L232 221 Q193 221 170 205.5 Q147 190 147 155 Q147 87 223 87 Z M331 57 Q323 49 309 37.5 Q295 26 276.5 15.5 Q258 5 234.5 -2.5 Q211 -10 183 -10 Q144 -10 115 2 Q86 14 67 35 Q48 56 38.5 85 Q29 114 29 147 Q29 186 42 215.5 Q55 245 78 265 Q101 285 133 295 Q165 305 203 305 L328 305 L328 343 Q328 363 325 380.5 Q322 398 311 411 Q300 424 278.5 431.5 Q257 439 220 439 Q169 439 128.5 428.5 Q88 418 69 410 L69 506 Q101 517 149 527.5 Q197 538 258 538 Q312 538 348 524 Q384 510 406 485.5 Q428 461 437 428.5 Q446 396 446 360 L446 0 L372 0 Q348 0 341.5 11 Q335 22 335 36 L335 57 L331 57 Z M378 656 Q378 612 344 591 Q310 570 259 570 Q209 570 175 591 Q141 612 141 656 Q141 700 175 721 Q209 742 259 742 Q309 742 343.5 721 Q378 700 378 656 Z M312 656 Q312 698 259 698 Q207 698 207 656 Q207 636 220.5 625 Q234 614 259 614 Q285 614 298.5 625 Q312 636 312 656 Z " />
<glyph glyph-name="ae" unicode="&#xe6;" horiz-adv-x="789" d="M547 451 Q500 451 475 416 Q450 381 445 306 L638 306 L638 337 Q638 451 547 451 Z M726 26 Q703 12 663 1 Q623 -10 563 -10 Q511 -10 462 11.5 Q413 33 378 79 Q368 69 351 54 Q334 39 309.5 24.5 Q285 10 253.5 0 Q222 -10 183 -10 Q142 -10 113.5 2 Q85 14 66 35 Q47 56 38.5 85 Q30 114 30 147 Q30 225 78.5 264.5 Q127 304 203 304 L328 304 L328 343 Q328 364 325 381.5 Q322 399 311 411.5 Q300 424 278.5 431.5 Q257 439 220 439 Q169 439 128.5 429 Q88 419 69 411 L69 506 Q101 517 149 527.5 Q197 538 258 538 Q314 538 346.5 517.5 Q379 497 396 464 Q424 501 463 519.5 Q502 538 548 538 Q643 538 697.5 479.5 Q752 421 752 317 L752 239 L737 223 L445 223 Q449 182 462 155 Q475 128 495.5 111.5 Q516 95 543 88.5 Q570 82 602 82 Q644 82 676.5 90.5 Q709 99 726 106 L726 26 Z M227 86 Q265 86 295.5 103.5 Q326 121 346 138 Q339 156 334.5 177 Q330 198 328 222 L232 222 Q197 222 172 208.5 Q147 195 147 156 Q147 121 164.5 103.5 Q182 86 227 86 Z " />
<glyph glyph-name="ccedilla" unicode="&#xe7;" horiz-adv-x="445" d="M240 -180 Q209 -180 181.5 -172 Q154 -164 137 -153 L154 -111 Q164 -117 186.5 -124 Q209 -131 230 -131 Q247 -131 260 -126 Q273 -121 273 -107 Q273 -90 248.5 -81 Q224 -72 183 -68 L183 -48 L218 -5 Q180 3 147 23 Q114 43 90 75 Q66 107 52 152 Q38 197 38 256 Q38 327 57.5 380 Q77 433 111 468 Q145 503 190 520.5 Q235 538 286 538 Q322 538 353 533.5 Q384 529 405 521 L405 423 Q380 431 358 435 Q336 439 303 439 Q162 439 162 261 Q162 172 200 130.5 Q238 89 304 89 Q333 89 360 95 Q387 101 408 109 L408 17 Q383 3 349 -3 Q315 -9 279 -10 L259 -35 Q304 -40 329 -56 Q354 -72 354 -104 Q354 -125 344 -139.5 Q334 -154 318 -163 Q302 -172 281.5 -176 Q261 -180 240 -180 Z " />
<glyph glyph-name="egrave" unicode="&#xe8;" horiz-adv-x="504" d="M262 450 Q215 450 190 415 Q165 380 160 306 L353 306 L353 337 Q353 450 262 450 Z M442 26 Q419 12 379 1 Q339 -10 278 -10 Q231 -10 187.5 5.5 Q144 21 111 53 Q78 85 58 135.5 Q38 186 38 256 Q38 325 55 378 Q72 431 102 466.5 Q132 502 173 520 Q214 538 263 538 Q358 538 413 479.5 Q468 421 468 317 L468 237 L452 222 L161 222 Q165 181 178 154.5 Q191 128 211.5 111.5 Q232 95 259 88.5 Q286 82 318 82 Q358 82 391.5 90.5 Q425 99 442 106 L442 26 Z M272 579 L255 579 L105 684 L160 751 L183 751 L304 615 L272 579 Z " />
<glyph glyph-name="eacute" unicode="&#xe9;" horiz-adv-x="504" d="M257 579 L224 615 L346 751 L368 751 L423 684 L274 579 L257 579 Z M262 450 Q215 450 190 415 Q165 380 160 306 L353 306 L353 337 Q353 450 262 450 Z M442 26 Q419 12 379 1 Q339 -10 278 -10 Q231 -10 187.5 5.5 Q144 21 111 53 Q78 85 58 135.5 Q38 186 38 256 Q38 325 55 378 Q72 431 102 466.5 Q132 502 173 520 Q214 538 263 538 Q358 538 413 479.5 Q468 421 468 317 L468 237 L452 222 L161 222 Q165 181 178 154.5 Q191 128 211.5 111.5 Q232 95 259 88.5 Q286 82 318 82 Q358 82 391.5 90.5 Q425 99 442 106 L442 26 Z " />
<glyph glyph-name="ecircumflex" unicode="&#xea;" horiz-adv-x="504" d="M142 579 L117 609 L244 751 L283 751 L410 609 L385 579 L367 579 L263 659 L160 579 L142 579 Z M262 450 Q215 450 190 415 Q165 380 160 306 L353 306 L353 337 Q353 450 262 450 Z M442 26 Q419 12 379 1 Q339 -10 278 -10 Q231 -10 187.5 5.5 Q144 21 111 53 Q78 85 58 135.5 Q38 186 38 256 Q38 325 55 378 Q72 431 102 466.5 Q132 502 173 520 Q214 538 263 538 Q358 538 413 479.5 Q468 421 468 317 L468 237 L452 222 L161 222 Q165 181 178 154.5 Q191 128 211.5 111.5 Q232 95 259 88.5 Q286 82 318 82 Q358 82 391.5 90.5 Q425 99 442 106 L442 26 Z " />
<glyph glyph-name="edieresis" unicode="&#xeb;" horiz-adv-x="504" d="M135 661 Q135 683 150 699 Q165 715 189 715 Q213 715 228 699 Q243 683 243 661 Q243 638 228 623 Q213 608 189 608 Q165 608 150 623 Q135 638 135 661 Z M284 661 Q284 683 299.5 699 Q315 715 338 715 Q362 715 377.5 699 Q393 683 393 661 Q393 638 377.5 623 Q362 608 338 608 Q315 608 299.5 623 Q284 638 284 661 Z M262 450 Q215 450 190 415 Q165 380 160 306 L353 306 L353 337 Q353 450 262 450 Z M442 26 Q419 12 379 1 Q339 -10 278 -10 Q231 -10 187.5 5.5 Q144 21 111 53 Q78 85 58 135.5 Q38 186 38 256 Q38 325 55 378 Q72 431 102 466.5 Q132 502 173 520 Q214 538 263 538 Q358 538 413 479.5 Q468 421 468 317 L468 237 L452 222 L161 222 Q165 181 178 154.5 Q191 128 211.5 111.5 Q232 95 259 88.5 Q286 82 318 82 Q358 82 391.5 90.5 Q425 99 442 106 L442 26 Z " />
<glyph glyph-name="igrave" unicode="&#xec;" horiz-adv-x="248" d="M184 528 L184 0 L65 0 L65 528 L184 528 Z M134 579 L117 579 L-33 684 L22 751 L45 751 L166 615 L134 579 Z " />
<glyph glyph-name="iacute" unicode="&#xed;" horiz-adv-x="248" d="M118 579 L85 615 L207 751 L229 751 L284 684 L135 579 L118 579 Z M184 528 L184 0 L65 0 L65 528 L184 528 Z " />
<glyph glyph-name="icircumflex" unicode="&#xee;" horiz-adv-x="248" d="M4 579 L-21 609 L106 751 L145 751 L272 609 L247 579 L229 579 L125 659 L22 579 L4 579 Z M184 528 L184 0 L65 0 L65 528 L184 528 Z " />
<glyph glyph-name="idieresis" unicode="&#xef;" horiz-adv-x="248" d="M-4 661 Q-4 683 11 699 Q26 715 50 715 Q74 715 89 699 Q104 683 104 661 Q104 638 89 623 Q74 608 50 608 Q26 608 11 623 Q-4 638 -4 661 Z M145 661 Q145 683 160.5 699 Q176 715 199 715 Q223 715 238.5 699 Q254 683 254 661 Q254 638 238.5 623 Q223 608 199 608 Q176 608 160.5 623 Q145 638 145 661 Z M184 528 L184 0 L65 0 L65 528 L184 528 Z " />
<glyph glyph-name="eth" unicode="&#xf0;" horiz-adv-x="547" d="M272 -10 Q224 -10 181 6.5 Q138 23 106.5 57 Q75 91 56.5 142.5 Q38 194 38 264 Q38 334 56 385.5 Q74 437 105.5 471 Q137 505 178.5 521.5 Q220 538 267 538 Q305 538 334 520 Q320 543 303 564.5 Q286 586 268 606 L195 573 L174 622 L225 645 Q211 657 195.5 668 Q180 679 167 687 L215 738 Q267 715 308 683 L384 718 L406 668 L354 644 Q429 572 468.5 474 Q508 376 508 264 Q508 194 489.5 142.5 Q471 91 439 57 Q407 23 364 6.5 Q321 -10 272 -10 Z M272 79 Q384 79 384 264 Q384 448 272 448 Q162 448 162 264 Q162 79 272 79 Z " />
<glyph glyph-name="ntilde" unicode="&#xf1;" horiz-adv-x="562" d="M300 433 Q282 433 265 427 Q248 421 233 412.5 Q218 404 205.5 393.5 Q193 383 184 374 L184 0 L65 0 L65 528 L140 528 Q164 528 171 517 Q178 506 178 492 L178 467 L182 467 Q190 475 204.5 487 Q219 499 239 510.5 Q259 522 284 530 Q309 538 338 538 Q384 538 415 525 Q446 512 465 490.5 Q484 469 492 440 Q500 411 500 378 L500 0 L381 0 L381 344 Q381 360 378.5 375.5 Q376 391 368 404 Q360 417 343.5 425 Q327 433 300 433 Z M449 723 L449 682 Q449 637 427.5 616 Q406 595 368 595 Q344 595 324 602 Q304 609 286 617.5 Q268 626 253 633 Q238 640 225 640 Q211 640 204.5 633 Q198 626 198 621 L198 585 L131 585 L131 623 Q131 674 153.5 695.5 Q176 717 212 717 Q235 717 255 709.5 Q275 702 292.5 692.5 Q310 683 326.5 675.5 Q343 668 358 668 Q374 668 379 677 Q384 686 384 691 L384 723 L449 723 Z " />
<glyph glyph-name="ograve" unicode="&#xf2;" horiz-adv-x="545" d="M508 264 Q508 195 489.5 143.5 Q471 92 439 58 Q407 24 364 7 Q321 -10 272 -10 Q224 -10 181 7 Q138 24 106.5 58 Q75 92 56.5 143.5 Q38 195 38 264 Q38 333 56.5 384.5 Q75 436 106.5 470 Q138 504 181 521 Q224 538 272 538 Q321 538 364 521 Q407 504 439 470 Q471 436 489.5 384.5 Q508 333 508 264 Z M384 264 Q384 446 272 446 Q162 446 162 264 Q162 82 272 82 Q384 82 384 264 Z M285 579 L268 579 L118 684 L173 751 L196 751 L317 615 L285 579 Z " />
<glyph glyph-name="oacute" unicode="&#xf3;" horiz-adv-x="545" d="M269 579 L236 615 L358 751 L380 751 L435 684 L286 579 L269 579 Z M508 264 Q508 195 489.5 143.5 Q471 92 439 58 Q407 24 364 7 Q321 -10 272 -10 Q224 -10 181 7 Q138 24 106.5 58 Q75 92 56.5 143.5 Q38 195 38 264 Q38 333 56.5 384.5 Q75 436 106.5 470 Q138 504 181 521 Q224 538 272 538 Q321 538 364 521 Q407 504 439 470 Q471 436 489.5 384.5 Q508 333 508 264 Z M384 264 Q384 446 272 446 Q162 446 162 264 Q162 82 272 82 Q384 82 384 264 Z " />
<glyph glyph-name="ocircumflex" unicode="&#xf4;" horiz-adv-x="545" d="M155 579 L130 609 L257 751 L296 751 L423 609 L398 579 L380 579 L276 659 L173 579 L155 579 Z M508 264 Q508 195 489.5 143.5 Q471 92 439 58 Q407 24 364 7 Q321 -10 272 -10 Q224 -10 181 7 Q138 24 106.5 58 Q75 92 56.5 143.5 Q38 195 38 264 Q38 333 56.5 384.5 Q75 436 106.5 470 Q138 504 181 521 Q224 538 272 538 Q321 538 364 521 Q407 504 439 470 Q471 436 489.5 384.5 Q508 333 508 264 Z M384 264 Q384 446 272 446 Q162 446 162 264 Q162 82 272 82 Q384 82 384 264 Z " />
<glyph glyph-name="otilde" unicode="&#xf5;" horiz-adv-x="545" d="M508 264 Q508 195 489.5 143.5 Q471 92 439 58 Q407 24 364 7 Q321 -10 272 -10 Q224 -10 181 7 Q138 24 106.5 58 Q75 92 56.5 143.5 Q38 195 38 264 Q38 333 56.5 384.5 Q75 436 106.5 470 Q138 504 181 521 Q224 538 272 538 Q321 538 364 521 Q407 504 439 470 Q471 436 489.5 384.5 Q508 333 508 264 Z M384 264 Q384 446 272 446 Q162 446 162 264 Q162 82 272 82 Q384 82 384 264 Z M435 723 L435 682 Q435 637 413.5 616 Q392 595 354 595 Q330 595 310 602 Q290 609 272 617.5 Q254 626 239 633 Q224 640 211 640 Q197 640 190.5 633 Q184 626 184 621 L184 585 L117 585 L117 623 Q117 674 139.5 695.5 Q162 717 198 717 Q221 717 241 709.5 Q261 702 278.5 692.5 Q296 683 312.5 675.5 Q329 668 344 668 Q360 668 365 677 Q370 686 370 691 L370 723 L435 723 Z " />
<glyph glyph-name="odieresis" unicode="&#xf6;" horiz-adv-x="545" d="M147 661 Q147 683 162 699 Q177 715 201 715 Q225 715 240 699 Q255 683 255 661 Q255 638 240 623 Q225 608 201 608 Q177 608 162 623 Q147 638 147 661 Z M296 661 Q296 683 311.5 699 Q327 715 350 715 Q374 715 389.5 699 Q405 683 405 661 Q405 638 389.5 623 Q374 608 350 608 Q327 608 311.5 623 Q296 638 296 661 Z M508 264 Q508 195 489.5 143.5 Q471 92 439 58 Q407 24 364 7 Q321 -10 272 -10 Q224 -10 181 7 Q138 24 106.5 58 Q75 92 56.5 143.5 Q38 195 38 264 Q38 333 56.5 384.5 Q75 436 106.5 470 Q138 504 181 521 Q224 538 272 538 Q321 538 364 521 Q407 504 439 470 Q471 436 489.5 384.5 Q508 333 508 264 Z M384 264 Q384 446 272 446 Q162 446 162 264 Q162 82 272 82 Q384 82 384 264 Z " />
<glyph glyph-name="divide" unicode="&#xf7;" horiz-adv-x="522" d="M54 373 L468 373 L468 297 L54 297 L54 373 Z M205 172 Q205 195 221.5 211.5 Q238 228 261 228 Q283 228 300 211.5 Q317 195 317 172 Q317 149 300 133 Q283 117 261 117 Q238 117 221.5 133 Q205 149 205 172 Z M205 497 Q205 520 221.5 536.5 Q238 553 261 553 Q283 553 300 536.5 Q317 520 317 497 Q317 474 300 458 Q283 442 261 442 Q238 442 221.5 458 Q205 474 205 497 Z " />
<glyph glyph-name="oslash" unicode="&#xf8;" horiz-adv-x="547" d="M35 -10 L95 72 Q69 106 54 153.5 Q39 201 39 264 Q39 333 57.5 384.5 Q76 436 107.5 470 Q139 504 182 521 Q225 538 273 538 Q310 538 344 528 Q378 518 407 498 L436 538 L511 538 L451 456 Q478 422 493.5 374.5 Q509 327 509 264 Q509 195 490.5 143.5 Q472 92 440 58 Q408 24 365 7 Q322 -10 273 -10 Q197 -10 140 29 L111 -10 L35 -10 Z M385 264 Q385 315 376 353 L200 112 Q227 82 273 82 Q385 82 385 264 Z M163 264 Q163 238 165 216.5 Q167 195 171 176 L346 415 Q319 446 273 446 Q163 446 163 264 Z " />
<glyph glyph-name="ugrave" unicode="&#xf9;" horiz-adv-x="549" d="M367 60 Q359 52 345 40 Q331 28 311.5 17 Q292 6 267.5 -2 Q243 -10 215 -10 Q171 -10 141.5 2.5 Q112 15 94 37 Q76 59 68.5 88 Q61 117 61 150 L61 528 L180 528 L180 183 Q180 167 182.5 151 Q185 135 192.5 122.5 Q200 110 215 102 Q230 94 255 94 Q273 94 290 99.5 Q307 105 321.5 113 Q336 121 347 130 Q358 139 365 146 L365 528 L484 528 L484 0 L409 0 Q385 0 378 11 Q371 22 371 36 L371 60 L367 60 Z M273 579 L256 579 L106 684 L161 751 L184 751 L305 615 L273 579 Z " />
<glyph glyph-name="uacute" unicode="&#xfa;" horiz-adv-x="549" d="M258 579 L225 615 L347 751 L369 751 L424 684 L275 579 L258 579 Z M367 60 Q359 52 345 40 Q331 28 311.5 17 Q292 6 267.5 -2 Q243 -10 215 -10 Q171 -10 141.5 2.5 Q112 15 94 37 Q76 59 68.5 88 Q61 117 61 150 L61 528 L180 528 L180 183 Q180 167 182.5 151 Q185 135 192.5 122.5 Q200 110 215 102 Q230 94 255 94 Q273 94 290 99.5 Q307 105 321.5 113 Q336 121 347 130 Q358 139 365 146 L365 528 L484 528 L484 0 L409 0 Q385 0 378 11 Q371 22 371 36 L371 60 L367 60 Z " />
<glyph glyph-name="ucircumflex" unicode="&#xfb;" horiz-adv-x="549" d="M143 579 L118 609 L245 751 L284 751 L411 609 L386 579 L368 579 L264 659 L161 579 L143 579 Z M367 60 Q359 52 345 40 Q331 28 311.5 17 Q292 6 267.5 -2 Q243 -10 215 -10 Q171 -10 141.5 2.5 Q112 15 94 37 Q76 59 68.5 88 Q61 117 61 150 L61 528 L180 528 L180 183 Q180 167 182.5 151 Q185 135 192.5 122.5 Q200 110 215 102 Q230 94 255 94 Q273 94 290 99.5 Q307 105 321.5 113 Q336 121 347 130 Q358 139 365 146 L365 528 L484 528 L484 0 L409 0 Q385 0 378 11 Q371 22 371 36 L371 60 L367 60 Z " />
<glyph glyph-name="udieresis" unicode="&#xfc;" horiz-adv-x="549" d="M136 661 Q136 683 151 699 Q166 715 190 715 Q214 715 229 699 Q244 683 244 661 Q244 638 229 623 Q214 608 190 608 Q166 608 151 623 Q136 638 136 661 Z M285 661 Q285 683 300.5 699 Q316 715 339 715 Q363 715 378.5 699 Q394 683 394 661 Q394 638 378.5 623 Q363 608 339 608 Q316 608 300.5 623 Q285 638 285 661 Z M367 60 Q359 52 345 40 Q331 28 311.5 17 Q292 6 267.5 -2 Q243 -10 215 -10 Q171 -10 141.5 2.5 Q112 15 94 37 Q76 59 68.5 88 Q61 117 61 150 L61 528 L180 528 L180 183 Q180 167 182.5 151 Q185 135 192.5 122.5 Q200 110 215 102 Q230 94 255 94 Q273 94 290 99.5 Q307 105 321.5 113 Q336 121 347 130 Q358 139 365 146 L365 528 L484 528 L484 0 L409 0 Q385 0 378 11 Q371 22 371 36 L371 60 L367 60 Z " />
<glyph glyph-name="yacute" unicode="&#xfd;" horiz-adv-x="515" d="M155 -170 L207 -12 L15 528 L146 528 L262 159 L383 528 L499 528 L256 -170 L155 -170 Z M257 579 L224 615 L346 751 L368 751 L423 684 L274 579 L257 579 Z " />
<glyph glyph-name="ygrave" unicode="&#x1ef3;" horiz-adv-x="515" d="M155 -170 L207 -12 L15 528 L146 528 L262 159 L383 528 L499 528 L256 -170 L155 -170 Z M275 579 L258 579 L108 684 L163 751 L186 751 L307 615 L275 579 Z " />
<glyph glyph-name="thorn" unicode="&#xfe;" horiz-adv-x="559" d="M290 89 Q337 89 366.5 130.5 Q396 172 396 269 Q396 317 388.5 349 Q381 381 367.5 400 Q354 419 335 427 Q316 435 293 435 Q263 435 234.5 418 Q206 401 184 375 L184 147 Q207 120 234 104.5 Q261 89 290 89 Z M309 -10 Q270 -10 238 5 Q206 20 184 40 L184 -170 L65 -170 L65 730 L184 730 L184 468 Q207 496 244 517 Q281 538 332 538 Q371 538 405.5 521.5 Q440 505 465.5 472 Q491 439 505.5 389 Q520 339 520 271 Q520 202 503 149.5 Q486 97 457.5 61.5 Q429 26 390.5 8 Q352 -10 309 -10 Z " />
<glyph glyph-name="ydieresis" unicode="&#xff;" horiz-adv-x="515" d="M155 -170 L207 -12 L15 528 L146 528 L262 159 L383 528 L499 528 L256 -170 L155 -170 Z M135 661 Q135 683 150 699 Q165 715 189 715 Q213 715 228 699 Q243 683 243 661 Q243 638 228 623 Q213 608 189 608 Q165 608 150 623 Q135 638 135 661 Z M284 661 Q284 683 299.5 699 Q315 715 338 715 Q362 715 377.5 699 Q393 683 393 661 Q393 638 377.5 623 Q362 608 338 608 Q315 608 299.5 623 Q284 638 284 661 Z " />
<glyph glyph-name="Amacron" unicode="&#x100;" horiz-adv-x="623" d="M427 154 L184 154 L134 0 L13 0 L247 702 L374 702 L612 0 L478 0 L427 154 Z M214 248 L398 248 L306 532 L214 248 Z M184 865 L443 865 L443 795 L184 795 L184 865 Z " />
<glyph glyph-name="amacron" unicode="&#x101;" horiz-adv-x="507" d="M223 87 Q241 87 257.5 93 Q274 99 287.5 107 Q301 115 311.5 124 Q322 133 328 139 L328 221 L232 221 Q193 221 170 205.5 Q147 190 147 155 Q147 87 223 87 Z M331 57 Q323 49 309 37.5 Q295 26 276.5 15.5 Q258 5 234.5 -2.5 Q211 -10 183 -10 Q144 -10 115 2 Q86 14 67 35 Q48 56 38.5 85 Q29 114 29 147 Q29 186 42 215.5 Q55 245 78 265 Q101 285 133 295 Q165 305 203 305 L328 305 L328 343 Q328 363 325 380.5 Q322 398 311 411 Q300 424 278.5 431.5 Q257 439 220 439 Q169 439 128.5 428.5 Q88 418 69 410 L69 506 Q101 517 149 527.5 Q197 538 258 538 Q312 538 348 524 Q384 510 406 485.5 Q428 461 437 428.5 Q446 396 446 360 L446 0 L372 0 Q348 0 341.5 11 Q335 22 335 36 L335 57 L331 57 Z M130 690 L389 690 L389 620 L130 620 L130 690 Z " />
<glyph glyph-name="Abreve" unicode="&#x102;" horiz-adv-x="623" d="M427 154 L184 154 L134 0 L13 0 L247 702 L374 702 L612 0 L478 0 L427 154 Z M214 248 L398 248 L306 532 L214 248 Z M445 887 Q441 862 431 839.5 Q421 817 405 800.5 Q389 784 366.5 774 Q344 764 314 764 Q284 764 261.5 774 Q239 784 223 800.5 Q207 817 197 839 Q187 861 183 886 L244 902 Q251 876 267.5 856 Q284 836 315 836 Q347 836 365 855.5 Q383 875 390 900 L445 887 L445 887 Z " />
<glyph glyph-name="abreve" unicode="&#x103;" horiz-adv-x="507" d="M223 87 Q241 87 257.5 93 Q274 99 287.5 107 Q301 115 311.5 124 Q322 133 328 139 L328 221 L232 221 Q193 221 170 205.5 Q147 190 147 155 Q147 87 223 87 Z M331 57 Q323 49 309 37.5 Q295 26 276.5 15.5 Q258 5 234.5 -2.5 Q211 -10 183 -10 Q144 -10 115 2 Q86 14 67 35 Q48 56 38.5 85 Q29 114 29 147 Q29 186 42 215.5 Q55 245 78 265 Q101 285 133 295 Q165 305 203 305 L328 305 L328 343 Q328 363 325 380.5 Q322 398 311 411 Q300 424 278.5 431.5 Q257 439 220 439 Q169 439 128.5 428.5 Q88 418 69 410 L69 506 Q101 517 149 527.5 Q197 538 258 538 Q312 538 348 524 Q384 510 406 485.5 Q428 461 437 428.5 Q446 396 446 360 L446 0 L372 0 Q348 0 341.5 11 Q335 22 335 36 L335 57 L331 57 Z M392 716 Q387 692 377 669.5 Q367 647 350.5 629.5 Q334 612 312 602 Q290 592 261 592 Q232 592 209.5 602 Q187 612 171 629 Q155 646 144.5 667.5 Q134 689 130 713 L191 729 Q198 701 214.5 680 Q231 659 262 659 Q294 659 311.5 680.5 Q329 702 337 729 L392 716 L392 716 Z " />
<glyph glyph-name="Aogonek" unicode="&#x104;" horiz-adv-x="622" d="M405 -98 Q405 -64 425.5 -38.5 Q446 -13 476 4 L427 154 L183 154 L134 0 L12 0 L247 702 L374 702 L611 0 L564 0 Q545 0 530.5 -7 Q516 -14 506.5 -24.5 Q497 -35 492 -48 Q487 -61 487 -73 Q487 -97 503 -108.5 Q519 -120 542 -120 Q557 -120 575.5 -114.5 Q594 -109 611 -98 L624 -149 Q604 -162 576 -171 Q548 -180 516 -180 Q467 -180 436 -160 Q405 -140 405 -98 Z M213 248 L397 248 L305 532 L213 248 Z " />
<glyph glyph-name="aogonek" unicode="&#x105;" horiz-adv-x="507" d="M331 57 Q323 49 309 37.5 Q295 26 276.5 15.5 Q258 5 234.5 -2.5 Q211 -10 183 -10 Q144 -10 115 2 Q86 14 67 35 Q48 56 38.5 85 Q29 114 29 147 Q29 186 42 215.5 Q55 245 78 265 Q101 285 133 295 Q165 305 203 305 L328 305 L328 343 Q328 363 325 380.5 Q322 398 311 411 Q300 424 278.5 431.5 Q257 439 220 439 Q169 439 128.5 428.5 Q88 418 69 410 L69 506 Q101 517 149 527.5 Q197 538 258 538 Q312 538 348 524 Q384 510 406 485.5 Q428 461 437 428.5 Q446 396 446 360 L446 0 L407 0 Q388 0 373.5 -7 Q359 -14 349.5 -24.5 Q340 -35 335 -48 Q330 -61 330 -73 Q330 -97 346 -108.5 Q362 -120 385 -120 Q400 -120 418.5 -114.5 Q437 -109 454 -98 L467 -149 Q447 -162 419 -171 Q391 -180 359 -180 Q310 -180 279 -160 Q248 -140 248 -98 Q248 -57 275 -29 Q302 -1 340 14 Q335 23 335 36 L335 57 L331 57 Z M223 87 Q241 87 257.5 93 Q274 99 287.5 107 Q301 115 311.5 124 Q322 133 328 139 L328 221 L232 221 Q193 221 170 205.5 Q147 190 147 155 Q147 87 223 87 Z " />
<glyph glyph-name="Cacute" unicode="&#x106;" horiz-adv-x="547" d="M513 19 Q485 8 446 -1 Q407 -10 346 -10 Q276 -10 220 11.5 Q164 33 125 76.5 Q86 120 65.5 187 Q45 254 45 345 Q45 437 68 505.5 Q91 574 133 619.5 Q175 665 233.5 687.5 Q292 710 362 710 Q420 710 458 702.5 Q496 695 503 691 L503 589 Q474 598 448 603 Q422 608 382 608 Q272 608 225 544 Q178 480 178 355 Q178 225 220.5 158.5 Q263 92 368 92 Q411 92 443 99.5 Q475 107 513 121 L513 19 Z M347 752 L314 788 L436 924 L458 924 L513 856 L364 752 L347 752 Z " />
<glyph glyph-name="cacute" unicode="&#x107;" horiz-adv-x="445" d="M277 579 L244 615 L366 751 L388 751 L443 684 L294 579 L277 579 Z M408 17 Q382 3 345.5 -3.5 Q309 -10 271 -10 Q224 -10 181.5 6 Q139 22 107 55 Q75 88 56.5 138 Q38 188 38 256 Q38 327 57.5 380 Q77 433 111 468 Q145 503 190 520.5 Q235 538 286 538 Q322 538 353 533.5 Q384 529 405 521 L405 423 Q380 431 358 435 Q336 439 303 439 Q162 439 162 261 Q162 172 200 130.5 Q238 89 304 89 Q333 89 360 95 Q387 101 408 109 L408 17 Z " />
<glyph glyph-name="Ccircumflex" unicode="&#x108;" horiz-adv-x="547" d="M513 19 Q485 8 446 -1 Q407 -10 346 -10 Q276 -10 220 11.5 Q164 33 125 76.5 Q86 120 65.5 187 Q45 254 45 345 Q45 437 68 505.5 Q91 574 133 619.5 Q175 665 233.5 687.5 Q292 710 362 710 Q420 710 458 702.5 Q496 695 503 691 L503 589 Q474 598 448 603 Q422 608 382 608 Q272 608 225 544 Q178 480 178 355 Q178 225 220.5 158.5 Q263 92 368 92 Q411 92 443 99.5 Q475 107 513 121 L513 19 Z M237 753 L211 783 L339 926 L380 926 L509 783 L482 753 L464 753 L359 830 L255 753 L237 753 Z " />
<glyph glyph-name="ccircumflex" unicode="&#x109;" horiz-adv-x="445" d="M167 579 L142 609 L269 751 L308 751 L435 609 L410 579 L392 579 L288 659 L185 579 L167 579 Z M408 17 Q382 3 345.5 -3.5 Q309 -10 271 -10 Q224 -10 181.5 6 Q139 22 107 55 Q75 88 56.5 138 Q38 188 38 256 Q38 327 57.5 380 Q77 433 111 468 Q145 503 190 520.5 Q235 538 286 538 Q322 538 353 533.5 Q384 529 405 521 L405 423 Q380 431 358 435 Q336 439 303 439 Q162 439 162 261 Q162 172 200 130.5 Q238 89 304 89 Q333 89 360 95 Q387 101 408 109 L408 17 Z " />
<glyph glyph-name="Cdotaccent" unicode="&#x10a;" horiz-adv-x="547" d="M289 829 Q289 855 310 875 Q331 895 360 895 Q374 895 387 889.5 Q400 884 409.5 875 Q419 866 425 854 Q431 842 431 829 Q431 801 410 781.5 Q389 762 360 762 Q331 762 310 781.5 Q289 801 289 829 Z M513 19 Q485 8 446 -1 Q407 -10 346 -10 Q276 -10 220 11.5 Q164 33 125 76.5 Q86 120 65.5 187 Q45 254 45 345 Q45 437 68 505.5 Q91 574 133 619.5 Q175 665 233.5 687.5 Q292 710 362 710 Q420 710 458 702.5 Q496 695 503 691 L503 589 Q474 598 448 603 Q422 608 382 608 Q272 608 225 544 Q178 480 178 355 Q178 225 220.5 158.5 Q263 92 368 92 Q411 92 443 99.5 Q475 107 513 121 L513 19 Z " />
<glyph glyph-name="cdotaccent" unicode="&#x10b;" horiz-adv-x="445" d="M408 17 Q382 3 345.5 -3.5 Q309 -10 271 -10 Q224 -10 181.5 6 Q139 22 107 55 Q75 88 56.5 138 Q38 188 38 256 Q38 327 57.5 380 Q77 433 111 468 Q145 503 190 520.5 Q235 538 286 538 Q322 538 353 533.5 Q384 529 405 521 L405 423 Q380 431 358 435 Q336 439 303 439 Q162 439 162 261 Q162 172 200 130.5 Q238 89 304 89 Q333 89 360 95 Q387 101 408 109 L408 17 Z M217 661 Q217 687 238 707.5 Q259 728 288 728 Q302 728 315 722.5 Q328 717 337.5 707.5 Q347 698 353 686 Q359 674 359 661 Q359 634 338 614 Q317 594 288 594 Q259 594 238 614 Q217 634 217 661 Z " />
<glyph glyph-name="Ccaron" unicode="&#x10c;" horiz-adv-x="547" d="M513 19 Q485 8 446 -1 Q407 -10 346 -10 Q276 -10 220 11.5 Q164 33 125 76.5 Q86 120 65.5 187 Q45 254 45 345 Q45 437 68 505.5 Q91 574 133 619.5 Q175 665 233.5 687.5 Q292 710 362 710 Q420 710 458 702.5 Q496 695 503 691 L503 589 Q474 598 448 603 Q422 608 382 608 Q272 608 225 544 Q178 480 178 355 Q178 225 220.5 158.5 Q263 92 368 92 Q411 92 443 99.5 Q475 107 513 121 L513 19 Z M483 925 L510 895 L381 752 L340 752 L211 895 L237 925 L256 925 L361 848 L465 925 L483 925 Z " />
<glyph glyph-name="ccaron" unicode="&#x10d;" horiz-adv-x="445" d="M411 753 L437 723 L308 579 L268 579 L139 723 L165 753 L184 753 L289 675 L392 753 L411 753 Z M408 17 Q382 3 345.5 -3.5 Q309 -10 271 -10 Q224 -10 181.5 6 Q139 22 107 55 Q75 88 56.5 138 Q38 188 38 256 Q38 327 57.5 380 Q77 433 111 468 Q145 503 190 520.5 Q235 538 286 538 Q322 538 353 533.5 Q384 529 405 521 L405 423 Q380 431 358 435 Q336 439 303 439 Q162 439 162 261 Q162 172 200 130.5 Q238 89 304 89 Q333 89 360 95 Q387 101 408 109 L408 17 Z " />
<glyph glyph-name="Dcaron" unicode="&#x10e;" horiz-adv-x="667" d="M77 700 L303 700 Q376 700 435 679.5 Q494 659 536 616 Q578 573 600.5 508 Q623 443 623 355 Q623 265 600.5 198 Q578 131 536 87 Q494 43 435 21.5 Q376 0 303 0 L77 0 L77 700 Z M203 98 L303 98 Q404 98 447 161 Q490 224 490 355 Q490 482 447 542 Q404 602 303 602 L203 602 L203 98 Z M433 925 L460 895 L331 752 L290 752 L161 895 L187 925 L206 925 L311 848 L415 925 L433 925 Z " />
<glyph glyph-name="dcaron" unicode="&#x10f;" horiz-adv-x="589" d="M567 582 L567 780 L653 780 L653 708 L639 582 L567 582 Z M266 93 Q296 93 325 110 Q354 127 376 152 L376 380 Q353 408 325.5 423 Q298 438 269 438 Q222 438 192.5 396.5 Q163 355 163 258 Q163 210 170.5 178 Q178 146 191.5 127 Q205 108 224 100.5 Q243 93 266 93 Z M376 60 Q353 32 316.5 11 Q280 -10 227 -10 Q188 -10 153.5 6.5 Q119 23 93.5 56 Q68 89 53.5 139 Q39 189 39 257 Q39 326 56 378.5 Q73 431 101.5 466.5 Q130 502 168.5 520 Q207 538 251 538 Q289 538 321.5 523 Q354 508 376 488 L376 730 L495 730 L495 0 L419 0 Q395 0 388.5 11 Q382 22 382 36 L382 60 L376 60 Z " />
<glyph glyph-name="Dcroat" unicode="&#x110;" horiz-adv-x="674" d="M83 0 L83 324 L16 324 L16 390 L83 390 L83 700 L310 700 Q383 700 442 679.5 Q501 659 542.5 616 Q584 573 606.5 508 Q629 443 629 355 Q629 265 606.5 198 Q584 131 542.5 87 Q501 43 442 21.5 Q383 0 310 0 L83 0 Z M310 98 Q411 98 453.5 161 Q496 224 496 355 Q496 482 453.5 542 Q411 602 310 602 L210 602 L210 390 L372 390 L372 324 L210 324 L210 98 L310 98 Z " />
<glyph glyph-name="dcroat" unicode="&#x111;" horiz-adv-x="559" d="M245 643 L376 643 L376 730 L495 730 L495 643 L556 643 L556 579 L495 579 L495 0 L419 0 Q395 0 388.5 11 Q382 22 382 36 L382 60 L376 60 Q353 32 316.5 11 Q280 -10 227 -10 Q188 -10 153.5 6.5 Q119 23 93.5 56 Q68 89 53.5 139 Q39 189 39 257 Q39 326 56 378.5 Q73 431 101.5 466.5 Q130 502 168.5 520 Q207 538 251 538 Q289 538 321.5 523 Q354 508 376 488 L376 579 L245 579 L245 643 Z M266 93 Q296 93 325 110 Q354 127 376 152 L376 380 Q353 408 325.5 423 Q298 438 269 438 Q222 438 192.5 396.5 Q163 355 163 258 Q163 210 170.5 178 Q178 146 191.5 127 Q205 108 224 100.5 Q243 93 266 93 Z " />
<glyph glyph-name="Emacron" unicode="&#x112;" horiz-adv-x="565" d="M203 602 L203 405 L475 405 L475 309 L203 309 L203 98 L524 98 L524 0 L77 0 L77 700 L518 700 L518 602 L203 602 Z M186 865 L445 865 L445 795 L186 795 L186 865 Z " />
<glyph glyph-name="emacron" unicode="&#x113;" horiz-adv-x="504" d="M262 450 Q215 450 190 415 Q165 380 160 306 L353 306 L353 337 Q353 450 262 450 Z M442 26 Q419 12 379 1 Q339 -10 278 -10 Q231 -10 187.5 5.5 Q144 21 111 53 Q78 85 58 135.5 Q38 186 38 256 Q38 325 55 378 Q72 431 102 466.5 Q132 502 173 520 Q214 538 263 538 Q358 538 413 479.5 Q468 421 468 317 L468 237 L452 222 L161 222 Q165 181 178 154.5 Q191 128 211.5 111.5 Q232 95 259 88.5 Q286 82 318 82 Q358 82 391.5 90.5 Q425 99 442 106 L442 26 Z M134 690 L393 690 L393 620 L134 620 L134 690 Z " />
<glyph glyph-name="Ebreve" unicode="&#x114;" horiz-adv-x="565" d="M203 602 L203 405 L475 405 L475 309 L203 309 L203 98 L524 98 L524 0 L77 0 L77 700 L518 700 L518 602 L203 602 Z M446 887 Q442 862 432 839.5 Q422 817 406 800.5 Q390 784 367.5 774 Q345 764 315 764 Q285 764 262.5 774 Q240 784 224 800.5 Q208 817 198 839 Q188 861 184 886 L245 902 Q252 876 268.5 856 Q285 836 316 836 Q348 836 366 855.5 Q384 875 391 900 L446 887 L446 887 Z " />
<glyph glyph-name="ebreve" unicode="&#x115;" horiz-adv-x="504" d="M262 450 Q215 450 190 415 Q165 380 160 306 L353 306 L353 337 Q353 450 262 450 Z M442 26 Q419 12 379 1 Q339 -10 278 -10 Q231 -10 187.5 5.5 Q144 21 111 53 Q78 85 58 135.5 Q38 186 38 256 Q38 325 55 378 Q72 431 102 466.5 Q132 502 173 520 Q214 538 263 538 Q358 538 413 479.5 Q468 421 468 317 L468 237 L452 222 L161 222 Q165 181 178 154.5 Q191 128 211.5 111.5 Q232 95 259 88.5 Q286 82 318 82 Q358 82 391.5 90.5 Q425 99 442 106 L442 26 Z M395 716 Q390 692 380 669.5 Q370 647 353.5 629.5 Q337 612 315 602 Q293 592 264 592 Q235 592 212.5 602 Q190 612 174 629 Q158 646 147.5 667.5 Q137 689 133 713 L194 729 Q201 701 217.5 680 Q234 659 265 659 Q297 659 314.5 680.5 Q332 702 340 729 L395 716 L395 716 Z " />
<glyph glyph-name="Edotaccent" unicode="&#x116;" horiz-adv-x="565" d="M245 829 Q245 855 266 875 Q287 895 316 895 Q330 895 343 889.5 Q356 884 365.5 875 Q375 866 381 854 Q387 842 387 829 Q387 801 366 781.5 Q345 762 316 762 Q287 762 266 781.5 Q245 801 245 829 Z M203 602 L203 405 L475 405 L475 309 L203 309 L203 98 L524 98 L524 0 L77 0 L77 700 L518 700 L518 602 L203 602 Z " />
<glyph glyph-name="edotaccent" unicode="&#x117;" horiz-adv-x="504" d="M262 450 Q215 450 190 415 Q165 380 160 306 L353 306 L353 337 Q353 450 262 450 Z M442 26 Q419 12 379 1 Q339 -10 278 -10 Q231 -10 187.5 5.5 Q144 21 111 53 Q78 85 58 135.5 Q38 186 38 256 Q38 325 55 378 Q72 431 102 466.5 Q132 502 173 520 Q214 538 263 538 Q358 538 413 479.5 Q468 421 468 317 L468 237 L452 222 L161 222 Q165 181 178 154.5 Q191 128 211.5 111.5 Q232 95 259 88.5 Q286 82 318 82 Q358 82 391.5 90.5 Q425 99 442 106 L442 26 Z M192 661 Q192 687 213 707.5 Q234 728 263 728 Q277 728 290 722.5 Q303 717 312.5 707.5 Q322 698 328 686 Q334 674 334 661 Q334 634 313 614 Q292 594 263 594 Q234 594 213 614 Q192 634 192 661 Z " />
<glyph glyph-name="Eogonek" unicode="&#x118;" horiz-adv-x="564" d="M202 602 L202 405 L474 405 L474 309 L202 309 L202 98 L523 98 L523 0 L463 0 Q444 0 430 -7 Q416 -14 406.5 -24.5 Q397 -35 392 -48 Q387 -61 387 -73 Q387 -97 402.5 -108.5 Q418 -120 442 -120 Q456 -120 474.5 -114.5 Q493 -109 510 -98 L524 -149 Q504 -162 475.5 -171 Q447 -180 415 -180 Q367 -180 336 -160 Q305 -140 305 -98 Q305 -66 322 -41.5 Q339 -17 367 0 L76 0 L76 700 L517 700 L517 602 L202 602 Z " />
<glyph glyph-name="eogonek" unicode="&#x119;" horiz-adv-x="504" d="M336 -180 Q288 -180 257 -160 Q226 -140 226 -98 Q226 -70 238.5 -48.5 Q251 -27 272 -10 Q225 -9 182.5 7 Q140 23 108 55.5 Q76 88 57 137.5 Q38 187 38 256 Q38 325 55 378 Q72 431 102 466.5 Q132 502 173 520 Q214 538 263 538 Q358 538 413 479.5 Q468 421 468 317 L468 237 L452 222 L161 222 Q165 181 178 154.5 Q191 128 211.5 111.5 Q232 95 259 88.5 Q286 82 318 82 Q358 82 391.5 90.5 Q425 99 442 106 L442 26 Q419 12 373 -1 Q341 -10 324.5 -29.5 Q308 -49 308 -73 Q308 -97 323.5 -108.5 Q339 -120 363 -120 Q377 -120 395.5 -114.5 Q414 -109 431 -98 L445 -149 Q425 -162 396.5 -171 Q368 -180 336 -180 Z M262 450 Q215 450 190 415 Q165 380 160 306 L353 306 L353 337 Q353 450 262 450 Z " />
<glyph glyph-name="Ecaron" unicode="&#x11a;" horiz-adv-x="565" d="M203 602 L203 405 L475 405 L475 309 L203 309 L203 98 L524 98 L524 0 L77 0 L77 700 L518 700 L518 602 L203 602 Z M439 925 L466 895 L337 752 L296 752 L167 895 L193 925 L212 925 L317 848 L421 925 L439 925 Z " />
<glyph glyph-name="ecaron" unicode="&#x11b;" horiz-adv-x="504" d="M386 753 L412 723 L283 579 L243 579 L114 723 L140 753 L159 753 L264 675 L367 753 L386 753 Z M262 450 Q215 450 190 415 Q165 380 160 306 L353 306 L353 337 Q353 450 262 450 Z M442 26 Q419 12 379 1 Q339 -10 278 -10 Q231 -10 187.5 5.5 Q144 21 111 53 Q78 85 58 135.5 Q38 186 38 256 Q38 325 55 378 Q72 431 102 466.5 Q132 502 173 520 Q214 538 263 538 Q358 538 413 479.5 Q468 421 468 317 L468 237 L452 222 L161 222 Q165 181 178 154.5 Q191 128 211.5 111.5 Q232 95 259 88.5 Q286 82 318 82 Q358 82 391.5 90.5 Q425 99 442 106 L442 26 Z " />
<glyph glyph-name="Gcircumflex" unicode="&#x11c;" horiz-adv-x="600" d="M248 753 L222 783 L350 926 L391 926 L520 783 L493 753 L475 753 L370 830 L266 753 L248 753 Z M548 29 Q516 15 469.5 2.5 Q423 -10 354 -10 Q282 -10 224.5 11 Q167 32 127 75.5 Q87 119 65.5 186 Q44 253 44 345 Q44 437 67 505.5 Q90 574 132.5 619.5 Q175 665 234.5 687.5 Q294 710 368 710 Q398 710 425 707.5 Q452 705 473 701 Q494 697 508 693.5 Q522 690 526 688 L526 587 Q494 595 457.5 602.5 Q421 610 378 610 Q324 610 285.5 593 Q247 576 223 543.5 Q199 511 188 463.5 Q177 416 177 356 Q177 224 223 156 Q269 88 376 88 Q411 88 435 98 L435 343 L548 343 L548 29 Z " />
<glyph glyph-name="gcircumflex" unicode="&#x11d;" horiz-adv-x="546" d="M140 579 L115 609 L242 751 L281 751 L408 609 L383 579 L365 579 L261 659 L158 579 L140 579 Z M351 369 Q351 417 326 440.5 Q301 464 259 464 Q218 464 193 440.5 Q168 417 168 369 Q168 321 193 296.5 Q218 272 259 272 Q301 272 326 296.5 Q351 321 351 369 Z M520 2 Q520 -45 498 -79 Q476 -113 438.5 -135.5 Q401 -158 350 -169 Q299 -180 242 -180 Q192 -180 151.5 -174 Q111 -168 83 -155 Q55 -142 40 -121 Q25 -100 25 -70 Q25 -49 32 -32.5 Q39 -16 50 -3.5 Q61 9 75 19 Q89 29 103 36 Q77 48 62 70 Q47 92 47 121 Q47 151 66.5 180 Q86 209 127 232 Q92 252 72 286 Q52 320 52 369 Q52 412 68.5 444 Q85 476 113.5 497 Q142 518 179.5 528 Q217 538 259 538 Q280 538 300 535.5 Q320 533 338 528 L515 528 L515 443 L457 443 L452 438 Q467 408 467 369 Q467 326 450 294 Q433 262 404.5 241 Q376 220 338.5 209.5 Q301 199 259 199 Q224 199 189 207 Q173 198 163.5 186.5 Q154 175 154 162 Q154 146 167 137.5 Q180 129 209 129 L349 129 Q386 129 417.5 122 Q449 115 472 99.5 Q495 84 507.5 60 Q520 36 520 2 Z M257 -101 Q287 -101 314 -96.5 Q341 -92 361 -83 Q381 -74 393 -60 Q405 -46 405 -26 Q405 2 385 13 Q365 24 323 24 L174 24 Q161 16 146 -1 Q131 -18 131 -44 Q131 -71 162 -86 Q193 -101 257 -101 Z " />
<glyph glyph-name="Gbreve" unicode="&#x11e;" horiz-adv-x="600" d="M548 29 Q516 15 469.5 2.5 Q423 -10 354 -10 Q282 -10 224.5 11 Q167 32 127 75.5 Q87 119 65.5 186 Q44 253 44 345 Q44 437 67 505.5 Q90 574 132.5 619.5 Q175 665 234.5 687.5 Q294 710 368 710 Q398 710 425 707.5 Q452 705 473 701 Q494 697 508 693.5 Q522 690 526 688 L526 587 Q494 595 457.5 602.5 Q421 610 378 610 Q324 610 285.5 593 Q247 576 223 543.5 Q199 511 188 463.5 Q177 416 177 356 Q177 224 223 156 Q269 88 376 88 Q411 88 435 98 L435 343 L548 343 L548 29 Z M501 887 Q497 862 487 839.5 Q477 817 461 800.5 Q445 784 422.5 774 Q400 764 370 764 Q340 764 317.5 774 Q295 784 279 800.5 Q263 817 253 839 Q243 861 239 886 L300 902 Q307 876 323.5 856 Q340 836 371 836 Q403 836 421 855.5 Q439 875 446 900 L501 887 L501 887 Z " />
<glyph glyph-name="gbreve" unicode="&#x11f;" horiz-adv-x="546" d="M351 369 Q351 417 326 440.5 Q301 464 259 464 Q218 464 193 440.5 Q168 417 168 369 Q168 321 193 296.5 Q218 272 259 272 Q301 272 326 296.5 Q351 321 351 369 Z M520 2 Q520 -45 498 -79 Q476 -113 438.5 -135.5 Q401 -158 350 -169 Q299 -180 242 -180 Q192 -180 151.5 -174 Q111 -168 83 -155 Q55 -142 40 -121 Q25 -100 25 -70 Q25 -49 32 -32.5 Q39 -16 50 -3.5 Q61 9 75 19 Q89 29 103 36 Q77 48 62 70 Q47 92 47 121 Q47 151 66.5 180 Q86 209 127 232 Q92 252 72 286 Q52 320 52 369 Q52 412 68.5 444 Q85 476 113.5 497 Q142 518 179.5 528 Q217 538 259 538 Q280 538 300 535.5 Q320 533 338 528 L515 528 L515 443 L457 443 L452 438 Q467 408 467 369 Q467 326 450 294 Q433 262 404.5 241 Q376 220 338.5 209.5 Q301 199 259 199 Q224 199 189 207 Q173 198 163.5 186.5 Q154 175 154 162 Q154 146 167 137.5 Q180 129 209 129 L349 129 Q386 129 417.5 122 Q449 115 472 99.5 Q495 84 507.5 60 Q520 36 520 2 Z M257 -101 Q287 -101 314 -96.5 Q341 -92 361 -83 Q381 -74 393 -60 Q405 -46 405 -26 Q405 2 385 13 Q365 24 323 24 L174 24 Q161 16 146 -1 Q131 -18 131 -44 Q131 -71 162 -86 Q193 -101 257 -101 Z M393 716 Q388 692 378 669.5 Q368 647 351.5 629.5 Q335 612 313 602 Q291 592 262 592 Q233 592 210.5 602 Q188 612 172 629 Q156 646 145.5 667.5 Q135 689 131 713 L192 729 Q199 701 215.5 680 Q232 659 263 659 Q295 659 312.5 680.5 Q330 702 338 729 L393 716 L393 716 Z " />
<glyph glyph-name="Gdotaccent" unicode="&#x120;" horiz-adv-x="600" d="M300 829 Q300 855 321 875 Q342 895 371 895 Q385 895 398 889.5 Q411 884 420.5 875 Q430 866 436 854 Q442 842 442 829 Q442 801 421 781.5 Q400 762 371 762 Q342 762 321 781.5 Q300 801 300 829 Z M548 29 Q516 15 469.5 2.5 Q423 -10 354 -10 Q282 -10 224.5 11 Q167 32 127 75.5 Q87 119 65.5 186 Q44 253 44 345 Q44 437 67 505.5 Q90 574 132.5 619.5 Q175 665 234.5 687.5 Q294 710 368 710 Q398 710 425 707.5 Q452 705 473 701 Q494 697 508 693.5 Q522 690 526 688 L526 587 Q494 595 457.5 602.5 Q421 610 378 610 Q324 610 285.5 593 Q247 576 223 543.5 Q199 511 188 463.5 Q177 416 177 356 Q177 224 223 156 Q269 88 376 88 Q411 88 435 98 L435 343 L548 343 L548 29 Z " />
<glyph glyph-name="gdotaccent" unicode="&#x121;" horiz-adv-x="546" d="M351 369 Q351 417 326 440.5 Q301 464 259 464 Q218 464 193 440.5 Q168 417 168 369 Q168 321 193 296.5 Q218 272 259 272 Q301 272 326 296.5 Q351 321 351 369 Z M520 2 Q520 -45 498 -79 Q476 -113 438.5 -135.5 Q401 -158 350 -169 Q299 -180 242 -180 Q192 -180 151.5 -174 Q111 -168 83 -155 Q55 -142 40 -121 Q25 -100 25 -70 Q25 -49 32 -32.5 Q39 -16 50 -3.5 Q61 9 75 19 Q89 29 103 36 Q77 48 62 70 Q47 92 47 121 Q47 151 66.5 180 Q86 209 127 232 Q92 252 72 286 Q52 320 52 369 Q52 412 68.5 444 Q85 476 113.5 497 Q142 518 179.5 528 Q217 538 259 538 Q280 538 300 535.5 Q320 533 338 528 L515 528 L515 443 L457 443 L452 438 Q467 408 467 369 Q467 326 450 294 Q433 262 404.5 241 Q376 220 338.5 209.5 Q301 199 259 199 Q224 199 189 207 Q173 198 163.5 186.5 Q154 175 154 162 Q154 146 167 137.5 Q180 129 209 129 L349 129 Q386 129 417.5 122 Q449 115 472 99.5 Q495 84 507.5 60 Q520 36 520 2 Z M257 -101 Q287 -101 314 -96.5 Q341 -92 361 -83 Q381 -74 393 -60 Q405 -46 405 -26 Q405 2 385 13 Q365 24 323 24 L174 24 Q161 16 146 -1 Q131 -18 131 -44 Q131 -71 162 -86 Q193 -101 257 -101 Z M190 661 Q190 687 211 707.5 Q232 728 261 728 Q275 728 288 722.5 Q301 717 310.5 707.5 Q320 698 326 686 Q332 674 332 661 Q332 634 311 614 Q290 594 261 594 Q232 594 211 614 Q190 634 190 661 Z " />
<glyph glyph-name="uni0122" unicode="&#x122;" horiz-adv-x="600" d="M299 -257 L331 -201 L324 -185 Q295 -171 295 -135 Q295 -74 355 -74 Q386 -74 401.5 -89.5 Q417 -105 417 -132 Q417 -143 413 -153.5 Q409 -164 404 -175 L346 -281 L299 -257 Z M548 29 Q516 15 469.5 2.5 Q423 -10 354 -10 Q282 -10 224.5 11 Q167 32 127 75.5 Q87 119 65.5 186 Q44 253 44 345 Q44 437 67 505.5 Q90 574 132.5 619.5 Q175 665 234.5 687.5 Q294 710 368 710 Q398 710 425 707.5 Q452 705 473 701 Q494 697 508 693.5 Q522 690 526 688 L526 587 Q494 595 457.5 602.5 Q421 610 378 610 Q324 610 285.5 593 Q247 576 223 543.5 Q199 511 188 463.5 Q177 416 177 356 Q177 224 223 156 Q269 88 376 88 Q411 88 435 98 L435 343 L548 343 L548 29 Z " />
<glyph glyph-name="uni0123" unicode="&#x123;" horiz-adv-x="546" d="M321 777 L290 722 L297 705 Q326 690 326 656 Q326 594 265 594 Q235 594 219 609.5 Q203 625 203 653 Q203 664 207.5 674 Q212 684 217 695 L275 802 L321 777 Z M351 369 Q351 417 326 440.5 Q301 464 259 464 Q218 464 193 440.5 Q168 417 168 369 Q168 321 193 296.5 Q218 272 259 272 Q301 272 326 296.5 Q351 321 351 369 Z M520 2 Q520 -45 498 -79 Q476 -113 438.5 -135.5 Q401 -158 350 -169 Q299 -180 242 -180 Q192 -180 151.5 -174 Q111 -168 83 -155 Q55 -142 40 -121 Q25 -100 25 -70 Q25 -49 32 -32.5 Q39 -16 50 -3.5 Q61 9 75 19 Q89 29 103 36 Q77 48 62 70 Q47 92 47 121 Q47 151 66.5 180 Q86 209 127 232 Q92 252 72 286 Q52 320 52 369 Q52 412 68.5 444 Q85 476 113.5 497 Q142 518 179.5 528 Q217 538 259 538 Q280 538 300 535.5 Q320 533 338 528 L515 528 L515 443 L457 443 L452 438 Q467 408 467 369 Q467 326 450 294 Q433 262 404.5 241 Q376 220 338.5 209.5 Q301 199 259 199 Q224 199 189 207 Q173 198 163.5 186.5 Q154 175 154 162 Q154 146 167 137.5 Q180 129 209 129 L349 129 Q386 129 417.5 122 Q449 115 472 99.5 Q495 84 507.5 60 Q520 36 520 2 Z M257 -101 Q287 -101 314 -96.5 Q341 -92 361 -83 Q381 -74 393 -60 Q405 -46 405 -26 Q405 2 385 13 Q365 24 323 24 L174 24 Q161 16 146 -1 Q131 -18 131 -44 Q131 -71 162 -86 Q193 -101 257 -101 Z " />
<glyph glyph-name="Hcircumflex" unicode="&#x124;" horiz-adv-x="666" d="M462 309 L203 309 L203 0 L77 0 L77 700 L203 700 L203 406 L462 406 L462 700 L589 700 L589 0 L462 0 L462 309 Z M206 753 L180 783 L308 926 L349 926 L478 783 L451 753 L433 753 L328 830 L224 753 L206 753 Z " />
<glyph glyph-name="hcircumflex" unicode="&#x125;" horiz-adv-x="562" d="M2 776 L-23 806 L104 948 L143 948 L270 806 L245 776 L227 776 L123 856 L20 776 L2 776 Z M300 434 Q282 434 265 428 Q248 422 233 413 Q218 404 205.5 393.5 Q193 383 184 374 L184 0 L65 0 L65 730 L184 730 L184 469 Q193 478 207.5 489.5 Q222 501 241.5 512 Q261 523 285.5 530.5 Q310 538 338 538 Q384 538 415 525 Q446 512 465 490.5 Q484 469 492 440 Q500 411 500 378 L500 0 L381 0 L381 344 Q381 360 378.5 376 Q376 392 368 405 Q360 418 343.5 426 Q327 434 300 434 Z " />
<glyph glyph-name="Hbar" unicode="&#x126;" horiz-adv-x="676" d="M16 571 L83 571 L83 700 L210 700 L210 571 L468 571 L468 700 L595 700 L595 571 L655 571 L655 505 L595 505 L595 0 L468 0 L468 309 L210 309 L210 0 L83 0 L83 505 L16 505 L16 571 Z M468 406 L468 505 L210 505 L210 406 L468 406 Z " />
<glyph glyph-name="hbar" unicode="&#x127;" horiz-adv-x="562" d="M17 643 L65 643 L65 731 L184 731 L184 643 L328 643 L328 579 L184 579 L184 470 Q193 479 207.5 490.5 Q222 502 241.5 513 Q261 524 285.5 531.5 Q310 539 338 539 Q384 539 415 526 Q446 513 465 491.5 Q484 470 492 441 Q500 412 500 379 L500 1 L381 1 L381 345 Q381 361 378.5 377 Q376 393 368 406 Q360 419 343.5 427 Q327 435 300 435 Q282 435 265 429 Q248 423 233 414 Q218 405 205.5 394.5 Q193 384 184 375 L184 1 L65 1 L65 579 L17 579 L17 643 Z " />
<glyph glyph-name="Itilde" unicode="&#x128;" horiz-adv-x="280" d="M77 700 L203 700 L203 0 L77 0 L77 700 Z M299 896 L299 854 Q299 809 277.5 788 Q256 767 218 767 Q194 767 174 774 Q154 781 136 789.5 Q118 798 103 805 Q88 812 75 812 Q61 812 54.5 805 Q48 798 48 793 L48 757 L-19 757 L-19 795 Q-19 847 3.5 868 Q26 889 62 889 Q85 889 105 881.5 Q125 874 142.5 865 Q160 856 176.5 848.5 Q193 841 208 841 Q224 841 229 849.5 Q234 858 234 863 L234 896 L299 896 Z " />
<glyph glyph-name="itilde" unicode="&#x129;" horiz-adv-x="248" d="M184 528 L184 0 L65 0 L65 528 L184 528 Z M284 723 L284 682 Q284 637 262.5 616 Q241 595 203 595 Q179 595 159 602 Q139 609 121 617.5 Q103 626 88 633 Q73 640 60 640 Q46 640 39.5 633 Q33 626 33 621 L33 585 L-34 585 L-34 623 Q-34 674 -11.5 695.5 Q11 717 47 717 Q70 717 90 709.5 Q110 702 127.5 692.5 Q145 683 161.5 675.5 Q178 668 193 668 Q209 668 214 677 Q219 686 219 691 L219 723 L284 723 Z " />
<glyph glyph-name="Imacron" unicode="&#x12a;" horiz-adv-x="280" d="M77 700 L203 700 L203 0 L77 0 L77 700 Z M10 865 L269 865 L269 795 L10 795 L10 865 Z " />
<glyph glyph-name="imacron" unicode="&#x12b;" horiz-adv-x="248" d="M184 528 L184 0 L65 0 L65 528 L184 528 Z M-5 690 L254 690 L254 620 L-5 620 L-5 690 Z " />
<glyph glyph-name="Iogonek" unicode="&#x12e;" horiz-adv-x="280" d="M77 700 L204 700 L204 0 L163 0 Q144 0 130 -7 Q116 -14 106.5 -24.5 Q97 -35 92 -48 Q87 -61 87 -73 Q87 -97 103 -108.5 Q119 -120 142 -120 Q156 -120 174.5 -114.5 Q193 -109 210 -98 L224 -149 Q204 -162 175.5 -171 Q147 -180 115 -180 Q67 -180 36 -160 Q5 -140 5 -98 Q5 -63 25.5 -37.5 Q46 -12 77 5 L77 700 Z " />
<glyph glyph-name="iogonek" unicode="&#x12f;" horiz-adv-x="249" d="M184 528 L184 0 L150 0 Q131 0 117 -7 Q103 -14 93.5 -24.5 Q84 -35 79 -48 Q74 -61 74 -73 Q74 -97 90 -108.5 Q106 -120 129 -120 Q143 -120 161.5 -114.5 Q180 -109 197 -98 L211 -149 Q191 -162 162.5 -171 Q134 -180 102 -180 Q54 -180 23 -160 Q-8 -140 -8 -98 Q-8 -63 13 -37 Q34 -11 65 5 L65 528 L184 528 Z M55 671 Q55 701 72.5 719 Q90 737 125 737 Q160 737 177 719 Q194 701 194 671 Q194 642 177 623.5 Q160 605 125 605 Q90 605 72.5 623.5 Q55 642 55 671 Z " />
<glyph glyph-name="Idotaccent" unicode="&#x130;" horiz-adv-x="280" d="M77 700 L203 700 L203 0 L77 0 L77 700 Z M70 829 Q70 855 91 875 Q112 895 141 895 Q155 895 168 889.5 Q181 884 190.5 875 Q200 866 206 854 Q212 842 212 829 Q212 801 191 781.5 Q170 762 141 762 Q112 762 91 781.5 Q70 801 70 829 Z " />
<glyph glyph-name="dotlessi" unicode="&#x131;" horiz-adv-x="248" d="M184 528 L184 0 L65 0 L65 528 L184 528 Z " />
<glyph glyph-name="IJ" unicode="&#x132;" horiz-adv-x="591" d="M392 700 L519 700 L519 228 Q519 111 455 50.5 Q391 -10 257 -10 Q190 -10 144.5 3.5 Q99 17 75 31 L75 128 Q114 111 155.5 101 Q197 91 242 91 Q280 91 308.5 97.5 Q337 104 355.5 119 Q374 134 383 159.5 Q392 185 392 224 L392 700 Z M74 700 L201 700 L201 221 L74 221 L74 700 Z " />
<glyph glyph-name="ij" unicode="&#x133;" horiz-adv-x="523" d="M184 528 L184 0 L65 0 L65 528 L184 528 Z M55 671 Q55 701 72 719 Q89 737 124 737 Q159 737 176.5 719 Q194 701 194 671 Q194 642 176.5 623.5 Q159 605 124 605 Q89 605 72 623.5 Q55 642 55 671 Z M209 -89 Q213 -90 223 -90.5 Q233 -91 243.5 -91 Q254 -91 262.5 -91 Q271 -91 273 -91 Q310 -91 325 -69 Q340 -47 340 -2 L340 528 L459 528 L459 5 Q459 -33 449.5 -66.5 Q440 -100 419 -125.5 Q398 -151 364 -165.5 Q330 -180 280 -180 Q258 -180 240 -177.5 Q222 -175 209 -172 L209 -89 Z M330 671 Q330 701 347 719 Q364 737 399 737 Q434 737 451.5 719 Q469 701 469 671 Q469 642 451.5 623.5 Q434 605 399 605 Q364 605 347 623.5 Q330 642 330 671 Z " />
<glyph glyph-name="Jcircumflex" unicode="&#x134;" horiz-adv-x="436" d="M237 700 L364 700 L364 215 Q364 106 312.5 48 Q261 -10 151 -10 Q103 -10 70 -1.5 Q37 7 20 17 L20 116 Q71 91 132 91 Q188 91 212.5 117 Q237 143 237 210 L237 700 Z M176 753 L150 783 L278 926 L319 926 L448 783 L421 753 L403 753 L298 830 L194 753 L176 753 Z " />
<glyph glyph-name="jcircumflex" unicode="&#x135;" horiz-adv-x="248" d="M-65 -92 Q-63 -92 -53.5 -92.5 Q-44 -93 -33 -93 Q-22 -93 -13 -93 Q-4 -93 -2 -93 Q35 -93 50 -70.5 Q65 -48 65 -2 L65 528 L184 528 L184 5 Q184 -33 174.5 -66.5 Q165 -100 144 -125.5 Q123 -151 89 -165.5 Q55 -180 5 -180 Q-17 -180 -34.5 -177.5 Q-52 -175 -65 -172 L-65 -92 Z M2 579 L-23 609 L104 751 L143 751 L270 609 L245 579 L227 579 L123 659 L20 579 L2 579 Z " />
<glyph glyph-name="uni0136" unicode="&#x136;" horiz-adv-x="620" d="M261 -257 L293 -201 L286 -185 Q257 -171 257 -135 Q257 -74 317 -74 Q348 -74 363.5 -89.5 Q379 -105 379 -132 Q379 -143 375 -153.5 Q371 -164 366 -175 L308 -281 L261 -257 Z M279 309 L203 309 L203 0 L77 0 L77 700 L203 700 L203 406 L277 406 L467 700 L600 700 L384 367 L616 0 L467 0 L279 309 Z " />
<glyph glyph-name="uni0137" unicode="&#x137;" horiz-adv-x="544" d="M221 -257 L253 -201 L246 -185 Q217 -171 217 -135 Q217 -74 277 -74 Q308 -74 323.5 -89.5 Q339 -105 339 -132 Q339 -143 335 -153.5 Q331 -164 326 -175 L268 -281 L221 -257 Z M242 240 L184 240 L184 0 L65 0 L65 730 L184 730 L184 329 L235 329 L398 528 L535 528 L342 298 L534 0 L395 0 L242 240 Z " />
<glyph glyph-name="kgreenlandic" unicode="&#x138;" horiz-adv-x="544" d="M242 240 L184 240 L184 0 L65 0 L65 528 L184 528 L184 329 L235 329 L398 528 L535 528 L342 298 L534 0 L395 0 L242 240 Z " />
<glyph glyph-name="Lacute" unicode="&#x139;" horiz-adv-x="537" d="M134 752 L101 788 L223 924 L245 924 L300 856 L151 752 L134 752 Z M203 98 L521 98 L521 0 L77 0 L77 700 L203 700 L203 98 Z " />
<glyph glyph-name="lacute" unicode="&#x13a;" horiz-adv-x="251" d="M123 781 L90 817 L212 953 L234 953 L289 886 L140 781 L123 781 Z M185 730 L185 0 L66 0 L66 730 L185 730 Z " />
<glyph glyph-name="uni013B" unicode="&#x13b;" horiz-adv-x="537" d="M240 -257 L272 -201 L265 -185 Q236 -171 236 -135 Q236 -74 296 -74 Q327 -74 342.5 -89.5 Q358 -105 358 -132 Q358 -143 354 -153.5 Q350 -164 345 -175 L287 -281 L240 -257 Z M203 98 L521 98 L521 0 L77 0 L77 700 L203 700 L203 98 Z " />
<glyph glyph-name="uni013C" unicode="&#x13c;" horiz-adv-x="251" d="M63 -257 L95 -201 L88 -185 Q59 -171 59 -135 Q59 -74 119 -74 Q150 -74 165.5 -89.5 Q181 -105 181 -132 Q181 -143 177 -153.5 Q173 -164 168 -175 L110 -281 L63 -257 Z M185 730 L185 0 L66 0 L66 730 L185 730 Z " />
<glyph glyph-name="Lcaron" unicode="&#x13d;" horiz-adv-x="545" d="M425 582 L425 780 L511 780 L511 708 L497 582 L425 582 Z M202 98 L520 98 L520 0 L76 0 L76 700 L202 700 L202 98 Z " />
<glyph glyph-name="lcaron" unicode="&#x13e;" horiz-adv-x="280" d="M258 582 L258 780 L344 780 L344 708 L330 582 L258 582 Z M185 730 L185 0 L66 0 L66 730 L185 730 Z " />
<glyph glyph-name="zero.denominator" unicode="&#xf655;" horiz-adv-x="325" d="M216 162 Q216 210 205 236 Q194 262 163 262 Q132 262 120.5 236 Q109 210 109 162 Q109 114 120.5 88 Q132 62 163 62 Q194 62 205 88 Q216 114 216 162 Z M296 162 Q296 75 260 35 Q224 -5 163 -5 Q102 -5 66 35 Q30 75 30 163 Q30 250 66 289.5 Q102 329 163 329 Q224 329 260 289 Q296 249 296 162 Z " />
<glyph glyph-name="fraction" unicode="&#x2044;" horiz-adv-x="90" d="M-239 0 L260 700 L330 700 L-168 0 L-239 0 Z " />
<glyph glyph-name="guilsinglright" unicode="&#x203a;" horiz-adv-x="308" d="M271 236 L135 46 L42 46 L177 256 L42 463 L135 463 L271 274 L271 236 Z " />
<glyph glyph-name="two.denominator" unicode="&#xf657;" horiz-adv-x="294" d="M32 0 L32 55 Q32 75 36 89.5 Q40 104 49.5 116.5 Q59 129 75.5 141 Q92 153 117 169 Q155 192 166.5 205 Q178 218 178 232 Q178 260 131 260 Q108 260 83.5 255 Q59 250 36 242 L36 307 Q50 313 67 318 Q81 322 100.5 325.5 Q120 329 143 329 Q174 329 196 321 Q218 313 231.5 299.5 Q245 286 251 269.5 Q257 253 257 235 Q257 217 252 202.5 Q247 188 235.5 174.5 Q224 161 206 147.5 Q188 134 162 119 Q136 102 126.5 94.5 Q117 87 117 76 L117 67 L265 67 L265 0 L32 0 Z " />
<glyph glyph-name="three.denominator" unicode="&#xf658;" horiz-adv-x="281" d="M36 317 Q48 320 63 323 Q76 325 92 327 Q108 329 128 329 Q160 329 182.5 321.5 Q205 314 219 302 Q233 290 239 275 Q245 260 245 245 Q245 210 228 192 Q211 174 185 166 L185 163 Q216 156 233.5 139 Q251 122 251 89 Q251 71 244.5 54 Q238 37 223 23.5 Q208 10 184 2 Q160 -6 126 -6 Q87 -6 64.5 -1.5 Q42 3 31 6 L31 72 Q51 67 72 63 Q93 59 118 59 Q171 59 171 97 Q171 133 122 133 L86 133 L86 194 L122 194 Q167 194 167 231 Q167 245 156.5 254.5 Q146 264 120 264 Q103 264 78.5 260.5 Q54 257 36 252 L36 317 Z " />
<glyph glyph-name="one.denominator" unicode="&#xf656;" horiz-adv-x="250" d="M33 0 L33 55 L90 55 L90 245 L33 245 L33 301 L82 301 Q98 301 109.5 309.5 Q121 318 123 327 L171 327 L171 55 L229 55 L229 0 L33 0 Z " />
<glyph glyph-name="four.denominator" unicode="&#xf659;" horiz-adv-x="309" d="M20 134 L173 329 L243 329 L243 134 L283 134 L283 70 L243 70 L243 0 L166 0 L166 70 L20 70 L20 134 Z M166 237 L82 134 L166 134 L166 237 Z " />
<glyph glyph-name="circumflex" unicode="&#x2c6;" horiz-adv-x="400" d="M77 579 L52 609 L179 751 L218 751 L345 609 L320 579 L302 579 L198 659 L95 579 L77 579 Z " />
<glyph glyph-name="tilde" unicode="&#x2dc;" horiz-adv-x="400" d="M359 723 L359 682 Q359 637 337.5 616 Q316 595 278 595 Q254 595 234 602 Q214 609 196 617.5 Q178 626 163 633 Q148 640 135 640 Q121 640 114.5 633 Q108 626 108 621 L108 585 L41 585 L41 623 Q41 674 63.5 695.5 Q86 717 122 717 Q145 717 165 709.5 Q185 702 202.5 692.5 Q220 683 236.5 675.5 Q253 668 268 668 Q284 668 289 677 Q294 686 294 691 L294 723 L359 723 Z " />
<glyph glyph-name="ring" unicode="&#x2da;" horiz-adv-x="399" d="M318 656 Q318 612 284 591 Q250 570 199 570 Q149 570 115 591 Q81 612 81 656 Q81 700 115 721 Q149 742 199 742 Q249 742 283.5 721 Q318 700 318 656 Z M252 656 Q252 698 199 698 Q147 698 147 656 Q147 636 160.5 625 Q174 614 199 614 Q225 614 238.5 625 Q252 636 252 656 Z " />
<glyph glyph-name="breve" unicode="&#x2d8;" horiz-adv-x="400" d="M332 716 Q327 692 317 669.5 Q307 647 290.5 629.5 Q274 612 252 602 Q230 592 201 592 Q172 592 149.5 602 Q127 612 111 629 Q95 646 84.5 667.5 Q74 689 70 713 L131 729 Q138 701 154.5 680 Q171 659 202 659 Q234 659 251.5 680.5 Q269 702 277 729 L332 716 L332 716 Z " />
<glyph glyph-name="dotaccent" unicode="&#x2d9;" horiz-adv-x="322" d="M90 661 Q90 687 111 707.5 Q132 728 161 728 Q175 728 188 722.5 Q201 717 210.5 707.5 Q220 698 226 686 Q232 674 232 661 Q232 634 211 614 Q190 594 161 594 Q132 594 111 614 Q90 634 90 661 Z " />
<glyph glyph-name="caron" unicode="&#x2c7;" horiz-adv-x="407" d="M324 753 L350 723 L221 579 L181 579 L52 723 L78 753 L97 753 L202 675 L305 753 L324 753 Z " />
<glyph glyph-name="commaaccent" unicode="&#xf6c3;" horiz-adv-x="236" d="M83 -257 L115 -201 L108 -185 Q79 -171 79 -135 Q79 -74 139 -74 Q170 -74 185.5 -89.5 Q201 -105 201 -132 Q201 -143 197 -153.5 Q193 -164 188 -175 L130 -281 L83 -257 Z " />
<glyph glyph-name="Ldot" unicode="&#x13f;" horiz-adv-x="558" d="M203 98 L521 98 L521 0 L77 0 L77 700 L203 700 L203 98 Z M354 373 Q354 399 374.5 419.5 Q395 440 424 440 Q453 440 474 419.5 Q495 399 495 373 Q495 346 474 326 Q453 306 424 306 Q395 306 374.5 326 Q354 346 354 373 Z " />
<glyph glyph-name="ldot" unicode="&#x140;" horiz-adv-x="414" d="M260 366 Q260 392 280.5 412.5 Q301 433 330 433 Q359 433 380 412.5 Q401 392 401 366 Q401 339 380 319 Q359 299 330 299 Q301 299 280.5 319 Q260 339 260 366 Z M185 730 L185 0 L66 0 L66 730 L185 730 Z " />
<glyph glyph-name="Lslash" unicode="&#x141;" horiz-adv-x="559" d="M226 418 L346 483 L346 406 L226 342 L226 98 L543 98 L543 0 L99 0 L99 278 L15 233 L15 310 L99 354 L99 700 L226 700 L226 418 Z " />
<glyph glyph-name="lslash" unicode="&#x142;" horiz-adv-x="328" d="M226 730 L226 428 L313 479 L313 408 L226 357 L226 0 L107 0 L107 290 L20 239 L20 310 L107 361 L107 730 L226 730 Z " />
<glyph glyph-name="Nacute" unicode="&#x143;" horiz-adv-x="665" d="M337 752 L304 788 L426 924 L448 924 L503 856 L354 752 L337 752 Z M497 -3 L186 486 L186 0 L76 0 L76 700 L186 700 L478 241 L478 700 L588 700 L588 -3 L497 -3 Z " />
<glyph glyph-name="nacute" unicode="&#x144;" horiz-adv-x="562" d="M283 579 L250 615 L372 751 L394 751 L449 684 L300 579 L283 579 Z M300 433 Q282 433 265 427 Q248 421 233 412.5 Q218 404 205.5 393.5 Q193 383 184 374 L184 0 L65 0 L65 528 L140 528 Q164 528 171 517 Q178 506 178 492 L178 467 L182 467 Q190 475 204.5 487 Q219 499 239 510.5 Q259 522 284 530 Q309 538 338 538 Q384 538 415 525 Q446 512 465 490.5 Q484 469 492 440 Q500 411 500 378 L500 0 L381 0 L381 344 Q381 360 378.5 375.5 Q376 391 368 404 Q360 417 343.5 425 Q327 433 300 433 Z " />
<glyph glyph-name="uni0145" unicode="&#x145;" horiz-adv-x="665" d="M274 -257 L306 -201 L299 -185 Q270 -171 270 -135 Q270 -74 330 -74 Q361 -74 376.5 -89.5 Q392 -105 392 -132 Q392 -143 388 -153.5 Q384 -164 379 -175 L321 -281 L274 -257 Z M497 -3 L186 486 L186 0 L76 0 L76 700 L186 700 L478 241 L478 700 L588 700 L588 -3 L497 -3 Z " />
<glyph glyph-name="uni0146" unicode="&#x146;" horiz-adv-x="562" d="M223 -257 L255 -201 L248 -185 Q219 -171 219 -135 Q219 -74 279 -74 Q310 -74 325.5 -89.5 Q341 -105 341 -132 Q341 -143 337 -153.5 Q333 -164 328 -175 L270 -281 L223 -257 Z M300 433 Q282 433 265 427 Q248 421 233 412.5 Q218 404 205.5 393.5 Q193 383 184 374 L184 0 L65 0 L65 528 L140 528 Q164 528 171 517 Q178 506 178 492 L178 467 L182 467 Q190 475 204.5 487 Q219 499 239 510.5 Q259 522 284 530 Q309 538 338 538 Q384 538 415 525 Q446 512 465 490.5 Q484 469 492 440 Q500 411 500 378 L500 0 L381 0 L381 344 Q381 360 378.5 375.5 Q376 391 368 404 Q360 417 343.5 425 Q327 433 300 433 Z " />
<glyph glyph-name="Ncaron" unicode="&#x147;" horiz-adv-x="665" d="M497 -3 L186 486 L186 0 L76 0 L76 700 L186 700 L478 241 L478 700 L588 700 L588 -3 L497 -3 Z M468 925 L495 895 L366 752 L325 752 L196 895 L222 925 L241 925 L346 848 L450 925 L468 925 Z " />
<glyph glyph-name="ncaron" unicode="&#x148;" horiz-adv-x="562" d="M411 753 L437 723 L308 579 L268 579 L139 723 L165 753 L184 753 L289 675 L392 753 L411 753 Z M300 433 Q282 433 265 427 Q248 421 233 412.5 Q218 404 205.5 393.5 Q193 383 184 374 L184 0 L65 0 L65 528 L140 528 Q164 528 171 517 Q178 506 178 492 L178 467 L182 467 Q190 475 204.5 487 Q219 499 239 510.5 Q259 522 284 530 Q309 538 338 538 Q384 538 415 525 Q446 512 465 490.5 Q484 469 492 440 Q500 411 500 378 L500 0 L381 0 L381 344 Q381 360 378.5 375.5 Q376 391 368 404 Q360 417 343.5 425 Q327 433 300 433 Z " />
<glyph glyph-name="napostrophe" unicode="&#x149;" horiz-adv-x="562" d="M37 600 L69 656 L62 672 Q33 686 33 722 Q33 783 93 783 Q124 783 139.5 767.5 Q155 752 155 725 Q155 714 151 703.5 Q147 693 142 682 L84 576 L37 600 Z M300 433 Q282 433 265 427 Q248 421 233 412.5 Q218 404 205.5 393.5 Q193 383 184 374 L184 0 L65 0 L65 528 L140 528 Q164 528 171 517 Q178 506 178 492 L178 467 L182 467 Q190 475 204.5 487 Q219 499 239 510.5 Q259 522 284 530 Q309 538 338 538 Q384 538 415 525 Q446 512 465 490.5 Q484 469 492 440 Q500 411 500 378 L500 0 L381 0 L381 344 Q381 360 378.5 375.5 Q376 391 368 404 Q360 417 343.5 425 Q327 433 300 433 Z " />
<glyph glyph-name="Omacron" unicode="&#x14c;" horiz-adv-x="673" d="M45 350 Q45 442 66.5 509.5 Q88 577 126.5 621.5 Q165 666 218.5 688 Q272 710 336 710 Q400 710 454 688 Q508 666 546.5 621.5 Q585 577 606.5 509.5 Q628 442 628 350 Q628 258 606.5 190.5 Q585 123 546.5 78.5 Q508 34 454 12 Q400 -10 336 -10 Q272 -10 218.5 12 Q165 34 126.5 78.5 Q88 123 66.5 190.5 Q45 258 45 350 Z M178 350 Q178 216 215.5 153 Q253 90 336 90 Q420 90 457.5 153 Q495 216 495 350 Q495 484 457.5 547 Q420 610 336 610 Q253 610 215.5 547 Q178 484 178 350 Z M210 865 L469 865 L469 795 L210 795 L210 865 Z " />
<glyph glyph-name="omacron" unicode="&#x14d;" horiz-adv-x="545" d="M145 690 L404 690 L404 620 L145 620 L145 690 Z M508 264 Q508 195 489.5 143.5 Q471 92 439 58 Q407 24 364 7 Q321 -10 272 -10 Q224 -10 181 7 Q138 24 106.5 58 Q75 92 56.5 143.5 Q38 195 38 264 Q38 333 56.5 384.5 Q75 436 106.5 470 Q138 504 181 521 Q224 538 272 538 Q321 538 364 521 Q407 504 439 470 Q471 436 489.5 384.5 Q508 333 508 264 Z M384 264 Q384 446 272 446 Q162 446 162 264 Q162 82 272 82 Q384 82 384 264 Z " />
<glyph glyph-name="Obreve" unicode="&#x14e;" horiz-adv-x="673" d="M45 350 Q45 442 66.5 509.5 Q88 577 126.5 621.5 Q165 666 218.5 688 Q272 710 336 710 Q400 710 454 688 Q508 666 546.5 621.5 Q585 577 606.5 509.5 Q628 442 628 350 Q628 258 606.5 190.5 Q585 123 546.5 78.5 Q508 34 454 12 Q400 -10 336 -10 Q272 -10 218.5 12 Q165 34 126.5 78.5 Q88 123 66.5 190.5 Q45 258 45 350 Z M178 350 Q178 216 215.5 153 Q253 90 336 90 Q420 90 457.5 153 Q495 216 495 350 Q495 484 457.5 547 Q420 610 336 610 Q253 610 215.5 547 Q178 484 178 350 Z M470 887 Q466 862 456 839.5 Q446 817 430 800.5 Q414 784 391.5 774 Q369 764 339 764 Q309 764 286.5 774 Q264 784 248 800.5 Q232 817 222 839 Q212 861 208 886 L269 902 Q276 876 292.5 856 Q309 836 340 836 Q372 836 390 855.5 Q408 875 415 900 L470 887 L470 887 Z " />
<glyph glyph-name="obreve" unicode="&#x14f;" horiz-adv-x="545" d="M508 264 Q508 195 489.5 143.5 Q471 92 439 58 Q407 24 364 7 Q321 -10 272 -10 Q224 -10 181 7 Q138 24 106.5 58 Q75 92 56.5 143.5 Q38 195 38 264 Q38 333 56.5 384.5 Q75 436 106.5 470 Q138 504 181 521 Q224 538 272 538 Q321 538 364 521 Q407 504 439 470 Q471 436 489.5 384.5 Q508 333 508 264 Z M384 264 Q384 446 272 446 Q162 446 162 264 Q162 82 272 82 Q384 82 384 264 Z M407 716 Q402 692 392 669.5 Q382 647 365.5 629.5 Q349 612 327 602 Q305 592 276 592 Q247 592 224.5 602 Q202 612 186 629 Q170 646 159.5 667.5 Q149 689 145 713 L206 729 Q213 701 229.5 680 Q246 659 277 659 Q309 659 326.5 680.5 Q344 702 352 729 L407 716 L407 716 Z " />
<glyph glyph-name="Ohungarumlaut" unicode="&#x150;" horiz-adv-x="673" d="M265 752 L237 783 L350 924 L372 924 L416 878 L282 752 L265 752 Z M390 752 L369 781 L491 905 L513 905 L560 852 L408 752 L390 752 Z M45 350 Q45 442 66.5 509.5 Q88 577 126.5 621.5 Q165 666 218.5 688 Q272 710 336 710 Q400 710 454 688 Q508 666 546.5 621.5 Q585 577 606.5 509.5 Q628 442 628 350 Q628 258 606.5 190.5 Q585 123 546.5 78.5 Q508 34 454 12 Q400 -10 336 -10 Q272 -10 218.5 12 Q165 34 126.5 78.5 Q88 123 66.5 190.5 Q45 258 45 350 Z M178 350 Q178 216 215.5 153 Q253 90 336 90 Q420 90 457.5 153 Q495 216 495 350 Q495 484 457.5 547 Q420 610 336 610 Q253 610 215.5 547 Q178 484 178 350 Z " />
<glyph glyph-name="ohungarumlaut" unicode="&#x151;" horiz-adv-x="545" d="M199 579 L171 611 L283 751 L305 751 L349 705 L215 579 L199 579 Z M324 579 L303 609 L424 732 L446 732 L493 680 L341 579 L324 579 Z M508 264 Q508 195 489.5 143.5 Q471 92 439 58 Q407 24 364 7 Q321 -10 272 -10 Q224 -10 181 7 Q138 24 106.5 58 Q75 92 56.5 143.5 Q38 195 38 264 Q38 333 56.5 384.5 Q75 436 106.5 470 Q138 504 181 521 Q224 538 272 538 Q321 538 364 521 Q407 504 439 470 Q471 436 489.5 384.5 Q508 333 508 264 Z M384 264 Q384 446 272 446 Q162 446 162 264 Q162 82 272 82 Q384 82 384 264 Z " />
<glyph glyph-name="hungarumlaut" unicode="&#x2dd;" horiz-adv-x="400" d="M68 579 L40 611 L152 751 L174 751 L218 705 L84 579 L68 579 Z M193 579 L172 609 L293 732 L315 732 L362 680 L210 579 L193 579 Z " />
<glyph glyph-name="OE" unicode="&#x152;" horiz-adv-x="951" d="M353 90 Q418 90 463 107 L463 591 Q443 600 415.5 605 Q388 610 353 610 Q256 610 217 546.5 Q178 483 178 350 Q178 217 217 153.5 Q256 90 353 90 Z M478 0 Q449 -5 417.5 -7.5 Q386 -10 351 -10 Q280 -10 223.5 11.5 Q167 33 127.5 77 Q88 121 66.5 189 Q45 257 45 350 Q45 443 66.5 511 Q88 579 127.5 623 Q167 667 223.5 688.5 Q280 710 351 710 Q388 710 420 707.5 Q452 705 481 700 L904 700 L904 602 L590 602 L590 405 L862 405 L862 309 L590 309 L590 98 L910 98 L910 0 L478 0 Z " />
<glyph glyph-name="oe" unicode="&#x153;" horiz-adv-x="844" d="M603 450 Q556 450 531 415 Q506 380 501 306 L694 306 L694 337 Q694 450 603 450 Z M384 264 Q384 448 272 448 Q162 448 162 264 Q162 173 188.5 126 Q215 79 272 79 Q329 79 356.5 126 Q384 173 384 264 Z M782 26 Q759 12 719 1 Q679 -10 619 -10 Q565 -10 517.5 14 Q470 38 441 90 Q412 39 368.5 14.5 Q325 -10 272 -10 Q224 -10 181 7 Q138 24 106.5 58 Q75 92 56.5 143.5 Q38 195 38 264 Q38 333 56.5 384.5 Q75 436 106.5 470 Q138 504 181 521 Q224 538 272 538 Q324 538 367.5 514 Q411 490 440 440 Q466 489 508 513.5 Q550 538 604 538 Q699 538 753.5 479.5 Q808 421 808 317 L808 238 L792 222 L501 222 Q505 181 518 154.5 Q531 128 551.5 111.5 Q572 95 599 88.5 Q626 82 658 82 Q698 82 731.5 90.5 Q765 99 782 106 L782 26 Z " />
<glyph glyph-name="Racute" unicode="&#x154;" horiz-adv-x="624" d="M77 700 L310 700 Q370 700 418 688.5 Q466 677 499.5 653 Q533 629 551 592 Q569 555 569 504 Q569 462 556 430 Q543 398 522 376.5 Q501 355 474 343 Q447 331 418 328 L418 326 Q439 323 454 313.5 Q469 304 481 288 Q493 272 503 250 Q513 228 523 200 L593 0 L452 0 L381 217 Q368 258 352.5 270.5 Q337 283 312 283 L203 283 L203 0 L77 0 L77 700 Z M203 607 L203 376 L306 376 Q374 376 406 405.5 Q438 435 438 497 Q438 551 406 579 Q374 607 307 607 L203 607 Z M304 752 L271 788 L393 924 L415 924 L470 856 L321 752 L304 752 Z " />
<glyph glyph-name="racute" unicode="&#x155;" horiz-adv-x="385" d="M218 579 L185 615 L307 751 L329 751 L384 684 L235 579 L218 579 Z M302 430 Q282 430 264.5 424 Q247 418 232 408.5 Q217 399 204.5 388 Q192 377 184 368 L184 0 L65 0 L65 528 L140 528 Q164 528 171 517 Q178 506 178 492 L178 459 L182 459 Q190 469 203.5 482.5 Q217 496 236 508.5 Q255 521 279.5 529.5 Q304 538 334 538 Q358 538 372 535 L372 421 L361 421 Q350 425 336 427.5 Q322 430 302 430 Z " />
<glyph glyph-name="uni0156" unicode="&#x156;" horiz-adv-x="624" d="M269 -257 L301 -201 L294 -185 Q265 -171 265 -135 Q265 -74 325 -74 Q356 -74 371.5 -89.5 Q387 -105 387 -132 Q387 -143 383 -153.5 Q379 -164 374 -175 L316 -281 L269 -257 Z M77 700 L310 700 Q370 700 418 688.5 Q466 677 499.5 653 Q533 629 551 592 Q569 555 569 504 Q569 462 556 430 Q543 398 522 376.5 Q501 355 474 343 Q447 331 418 328 L418 326 Q439 323 454 313.5 Q469 304 481 288 Q493 272 503 250 Q513 228 523 200 L593 0 L452 0 L381 217 Q368 258 352.5 270.5 Q337 283 312 283 L203 283 L203 0 L77 0 L77 700 Z M203 607 L203 376 L306 376 Q374 376 406 405.5 Q438 435 438 497 Q438 551 406 579 Q374 607 307 607 L203 607 Z " />
<glyph glyph-name="uni0157" unicode="&#x157;" horiz-adv-x="385" d="M71 -257 L103 -201 L96 -185 Q67 -171 67 -135 Q67 -74 127 -74 Q158 -74 173.5 -89.5 Q189 -105 189 -132 Q189 -143 185 -153.5 Q181 -164 176 -175 L118 -281 L71 -257 Z M302 430 Q282 430 264.5 424 Q247 418 232 408.5 Q217 399 204.5 388 Q192 377 184 368 L184 0 L65 0 L65 528 L140 528 Q164 528 171 517 Q178 506 178 492 L178 459 L182 459 Q190 469 203.5 482.5 Q217 496 236 508.5 Q255 521 279.5 529.5 Q304 538 334 538 Q358 538 372 535 L372 421 L361 421 Q350 425 336 427.5 Q322 430 302 430 Z " />
<glyph glyph-name="Rcaron" unicode="&#x158;" horiz-adv-x="624" d="M77 700 L310 700 Q370 700 418 688.5 Q466 677 499.5 653 Q533 629 551 592 Q569 555 569 504 Q569 462 556 430 Q543 398 522 376.5 Q501 355 474 343 Q447 331 418 328 L418 326 Q439 323 454 313.5 Q469 304 481 288 Q493 272 503 250 Q513 228 523 200 L593 0 L452 0 L381 217 Q368 258 352.5 270.5 Q337 283 312 283 L203 283 L203 0 L77 0 L77 700 Z M203 607 L203 376 L306 376 Q374 376 406 405.5 Q438 435 438 497 Q438 551 406 579 Q374 607 307 607 L203 607 Z M434 925 L461 895 L332 752 L291 752 L162 895 L188 925 L207 925 L312 848 L416 925 L434 925 Z " />
<glyph glyph-name="rcaron" unicode="&#x159;" horiz-adv-x="385" d="M346 753 L372 723 L243 579 L203 579 L74 723 L100 753 L119 753 L224 675 L327 753 L346 753 Z M302 430 Q282 430 264.5 424 Q247 418 232 408.5 Q217 399 204.5 388 Q192 377 184 368 L184 0 L65 0 L65 528 L140 528 Q164 528 171 517 Q178 506 178 492 L178 459 L182 459 Q190 469 203.5 482.5 Q217 496 236 508.5 Q255 521 279.5 529.5 Q304 538 334 538 Q358 538 372 535 L372 421 L361 421 Q350 425 336 427.5 Q322 430 302 430 Z " />
<glyph glyph-name="Sacute" unicode="&#x15a;" horiz-adv-x="532" d="M496 208 Q496 154 477 113.5 Q458 73 424 45.5 Q390 18 342.5 4 Q295 -10 238 -10 Q199 -10 165.5 -6 Q132 -2 106.5 3.5 Q81 9 65.5 13.5 Q50 18 46 19 L46 119 Q84 110 132 99.5 Q180 89 238 89 Q307 89 340.5 115.5 Q374 142 374 190 Q374 212 367 228 Q360 244 344.5 257 Q329 270 304 280 Q279 290 243 301 Q193 316 156.5 334.5 Q120 353 96 378.5 Q72 404 60.5 437 Q49 470 49 515 Q49 560 66.5 596.5 Q84 633 115.5 658 Q147 683 191 696.5 Q235 710 288 710 Q324 710 355 706 Q386 702 409.5 697 Q433 692 447 688 Q461 684 464 683 L464 582 Q430 593 387 602.5 Q344 612 296 612 Q233 612 199.5 588.5 Q166 565 166 524 Q166 506 171 491 Q176 476 189.5 462.5 Q203 449 228 436.5 Q253 424 293 412 Q342 397 379.5 379 Q417 361 443 337 Q469 313 482.5 281.5 Q496 250 496 208 Z M287 752 L254 788 L376 924 L398 924 L453 856 L304 752 L287 752 Z " />
<glyph glyph-name="sacute" unicode="&#x15b;" horiz-adv-x="456" d="M248 579 L215 615 L337 751 L359 751 L414 684 L265 579 L248 579 Z M424 159 Q424 118 408 86.5 Q392 55 363.5 33.5 Q335 12 295.5 1 Q256 -10 209 -10 Q170 -10 140 -6 Q110 -2 88 2.5 Q66 7 54 11 Q42 15 39 16 L39 111 Q70 100 107 90.5 Q144 81 193 81 Q306 81 306 145 Q306 170 284.5 187.5 Q263 205 202 219 Q155 229 124.5 246 Q94 263 76 284.5 Q58 306 51 331 Q44 356 44 383 Q44 417 58 445.5 Q72 474 99 494.5 Q126 515 164.5 526.5 Q203 538 251 538 Q281 538 307.5 535 Q334 532 354 528 Q377 524 397 519 L397 424 Q388 427 373 430.5 Q358 434 340 438 Q322 442 302 444.5 Q282 447 263 447 Q212 447 184.5 433 Q157 419 157 391 Q157 380 161 370 Q165 360 175 352 Q185 344 202 336.5 Q219 329 245 322 Q339 299 381.5 261.5 Q424 224 424 159 Z " />
<glyph glyph-name="Scircumflex" unicode="&#x15c;" horiz-adv-x="532" d="M496 208 Q496 154 477 113.5 Q458 73 424 45.5 Q390 18 342.5 4 Q295 -10 238 -10 Q199 -10 165.5 -6 Q132 -2 106.5 3.5 Q81 9 65.5 13.5 Q50 18 46 19 L46 119 Q84 110 132 99.5 Q180 89 238 89 Q307 89 340.5 115.5 Q374 142 374 190 Q374 212 367 228 Q360 244 344.5 257 Q329 270 304 280 Q279 290 243 301 Q193 316 156.5 334.5 Q120 353 96 378.5 Q72 404 60.5 437 Q49 470 49 515 Q49 560 66.5 596.5 Q84 633 115.5 658 Q147 683 191 696.5 Q235 710 288 710 Q324 710 355 706 Q386 702 409.5 697 Q433 692 447 688 Q461 684 464 683 L464 582 Q430 593 387 602.5 Q344 612 296 612 Q233 612 199.5 588.5 Q166 565 166 524 Q166 506 171 491 Q176 476 189.5 462.5 Q203 449 228 436.5 Q253 424 293 412 Q342 397 379.5 379 Q417 361 443 337 Q469 313 482.5 281.5 Q496 250 496 208 Z M171 753 L145 783 L273 926 L314 926 L443 783 L416 753 L398 753 L293 830 L189 753 L171 753 Z " />
<glyph glyph-name="scircumflex" unicode="&#x15d;" horiz-adv-x="456" d="M134 579 L109 609 L236 751 L275 751 L402 609 L377 579 L359 579 L255 659 L152 579 L134 579 Z M424 159 Q424 118 408 86.5 Q392 55 363.5 33.5 Q335 12 295.5 1 Q256 -10 209 -10 Q170 -10 140 -6 Q110 -2 88 2.5 Q66 7 54 11 Q42 15 39 16 L39 111 Q70 100 107 90.5 Q144 81 193 81 Q306 81 306 145 Q306 170 284.5 187.5 Q263 205 202 219 Q155 229 124.5 246 Q94 263 76 284.5 Q58 306 51 331 Q44 356 44 383 Q44 417 58 445.5 Q72 474 99 494.5 Q126 515 164.5 526.5 Q203 538 251 538 Q281 538 307.5 535 Q334 532 354 528 Q377 524 397 519 L397 424 Q388 427 373 430.5 Q358 434 340 438 Q322 442 302 444.5 Q282 447 263 447 Q212 447 184.5 433 Q157 419 157 391 Q157 380 161 370 Q165 360 175 352 Q185 344 202 336.5 Q219 329 245 322 Q339 299 381.5 261.5 Q424 224 424 159 Z " />
<glyph glyph-name="Scedilla" unicode="&#x15e;" horiz-adv-x="532" d="M227 -180 Q196 -180 168.5 -172 Q141 -164 124 -153 L141 -111 Q152 -117 174 -124 Q196 -131 218 -131 Q235 -131 247.5 -126 Q260 -121 260 -107 Q260 -90 235.5 -81 Q211 -72 171 -68 L171 -48 L203 -9 Q138 -5 95.5 6 Q53 17 46 19 L46 119 Q84 110 132 99.5 Q180 89 238 89 Q307 89 340.5 115.5 Q374 142 374 190 Q374 212 367 228 Q360 244 344.5 257 Q329 270 304 280 Q279 290 243 301 Q193 316 156.5 334.5 Q120 353 96 378.5 Q72 404 60.5 437 Q49 470 49 515 Q49 560 66.5 596.5 Q84 633 115.5 658 Q147 683 191 696.5 Q235 710 288 710 Q324 710 355 706 Q386 702 409.5 697 Q433 692 447 688 Q461 684 464 683 L464 582 Q430 593 387 602.5 Q344 612 296 612 Q233 612 199.5 588.5 Q166 565 166 524 Q166 506 171 491 Q176 476 189.5 462.5 Q203 449 228 436.5 Q253 424 293 412 Q342 397 379.5 379 Q417 361 443 337 Q469 313 482.5 281.5 Q496 250 496 208 Q496 158 479.5 119 Q463 80 433 52.5 Q403 25 360.5 9.5 Q318 -6 267 -9 L246 -35 Q291 -40 316 -56 Q341 -72 341 -104 Q341 -125 331 -139.5 Q321 -154 305 -163 Q289 -172 268.5 -176 Q248 -180 227 -180 Z " />
<glyph glyph-name="scedilla" unicode="&#x15f;" horiz-adv-x="455" d="M194 -180 Q163 -180 135.5 -172 Q108 -164 91 -153 L108 -111 Q119 -117 141 -124 Q163 -131 185 -131 Q202 -131 214.5 -126 Q227 -121 227 -107 Q227 -90 202.5 -81 Q178 -72 137 -68 L137 -48 L169 -9 Q109 -5 76.5 4.5 Q44 14 39 16 L39 111 Q70 100 107 90.5 Q144 81 193 81 Q306 81 306 145 Q306 170 284.5 187.5 Q263 205 202 219 Q155 229 124.5 246 Q94 263 76 284.5 Q58 306 51 331 Q44 356 44 383 Q44 417 58 445.5 Q72 474 99 494.5 Q126 515 164.5 526.5 Q203 538 251 538 Q281 538 307.5 535 Q334 532 354 528 Q377 524 397 519 L397 424 Q388 427 373 430.5 Q358 434 340 438 Q322 442 302 444.5 Q282 447 263 447 Q212 447 184.5 433 Q157 419 157 391 Q157 380 161 370 Q165 360 175 352 Q185 344 202 336.5 Q219 329 245 322 Q339 299 381.5 261.5 Q424 224 424 159 Q424 82 371 39.5 Q318 -3 234 -9 L213 -35 Q258 -40 283 -56 Q308 -72 308 -104 Q308 -125 298 -139.5 Q288 -154 272 -163 Q256 -172 235.5 -176 Q215 -180 194 -180 Z " />
<glyph glyph-name="Scaron" unicode="&#x160;" horiz-adv-x="532" d="M496 208 Q496 154 477 113.5 Q458 73 424 45.5 Q390 18 342.5 4 Q295 -10 238 -10 Q199 -10 165.5 -6 Q132 -2 106.5 3.5 Q81 9 65.5 13.5 Q50 18 46 19 L46 119 Q84 110 132 99.5 Q180 89 238 89 Q307 89 340.5 115.5 Q374 142 374 190 Q374 212 367 228 Q360 244 344.5 257 Q329 270 304 280 Q279 290 243 301 Q193 316 156.5 334.5 Q120 353 96 378.5 Q72 404 60.5 437 Q49 470 49 515 Q49 560 66.5 596.5 Q84 633 115.5 658 Q147 683 191 696.5 Q235 710 288 710 Q324 710 355 706 Q386 702 409.5 697 Q433 692 447 688 Q461 684 464 683 L464 582 Q430 593 387 602.5 Q344 612 296 612 Q233 612 199.5 588.5 Q166 565 166 524 Q166 506 171 491 Q176 476 189.5 462.5 Q203 449 228 436.5 Q253 424 293 412 Q342 397 379.5 379 Q417 361 443 337 Q469 313 482.5 281.5 Q496 250 496 208 Z M417 925 L444 895 L315 752 L274 752 L145 895 L171 925 L190 925 L295 848 L399 925 L417 925 Z " />
<glyph glyph-name="scaron" unicode="&#x161;" horiz-adv-x="456" d="M377 753 L403 723 L274 579 L234 579 L105 723 L131 753 L150 753 L255 675 L358 753 L377 753 Z M424 159 Q424 118 408 86.5 Q392 55 363.5 33.5 Q335 12 295.5 1 Q256 -10 209 -10 Q170 -10 140 -6 Q110 -2 88 2.5 Q66 7 54 11 Q42 15 39 16 L39 111 Q70 100 107 90.5 Q144 81 193 81 Q306 81 306 145 Q306 170 284.5 187.5 Q263 205 202 219 Q155 229 124.5 246 Q94 263 76 284.5 Q58 306 51 331 Q44 356 44 383 Q44 417 58 445.5 Q72 474 99 494.5 Q126 515 164.5 526.5 Q203 538 251 538 Q281 538 307.5 535 Q334 532 354 528 Q377 524 397 519 L397 424 Q388 427 373 430.5 Q358 434 340 438 Q322 442 302 444.5 Q282 447 263 447 Q212 447 184.5 433 Q157 419 157 391 Q157 380 161 370 Q165 360 175 352 Q185 344 202 336.5 Q219 329 245 322 Q339 299 381.5 261.5 Q424 224 424 159 Z " />
<glyph glyph-name="uni0162" unicode="&#x162;" horiz-adv-x="574" d="M18 700 L555 700 L555 602 L350 602 L350 0 L318 0 L289 -35 Q334 -40 359 -56 Q384 -72 384 -104 Q384 -125 374 -139.5 Q364 -154 348.5 -163 Q333 -172 312.5 -176 Q292 -180 271 -180 Q240 -180 212.5 -172 Q185 -164 168 -153 L185 -111 Q195 -117 217.5 -124 Q240 -131 261 -131 Q278 -131 291 -126 Q304 -121 304 -107 Q304 -90 279 -81 Q254 -72 214 -68 L214 -48 L253 0 L224 0 L224 602 L18 602 L18 700 Z " />
<glyph glyph-name="uni0163" unicode="&#x163;" horiz-adv-x="360" d="M203 -180 Q172 -180 144.5 -172 Q117 -164 100 -153 L117 -111 Q128 -117 150 -124 Q172 -131 194 -131 Q211 -131 223.5 -126 Q236 -121 236 -107 Q236 -90 211.5 -81 Q187 -72 146 -68 L146 -48 L178 -9 Q134 -4 112.5 19.5 Q91 43 91 94 L91 440 L21 440 L21 526 L85 526 L136 670 L210 670 L210 526 L331 526 L331 440 L210 440 L210 82 L343 82 L343 0 Q328 -1 311 -3 Q297 -5 279.5 -6 Q262 -7 244 -8 L222 -35 Q267 -40 292 -56 Q317 -72 317 -104 Q317 -125 307 -139.5 Q297 -154 281 -163 Q265 -172 244.5 -176 Q224 -180 203 -180 Z " />
<glyph glyph-name="Tcaron" unicode="&#x164;" horiz-adv-x="574" d="M18 700 L555 700 L555 602 L350 602 L350 0 L224 0 L224 602 L18 602 L18 700 Z M410 925 L437 895 L308 752 L267 752 L138 895 L164 925 L183 925 L288 848 L392 925 L410 925 Z " />
<glyph glyph-name="tcaron" unicode="&#x165;" horiz-adv-x="360" d="M284 582 L284 780 L370 780 L370 708 L356 582 L284 582 Z M200 -10 Q146 -10 118.5 13.5 Q91 37 91 94 L91 440 L21 440 L21 526 L85 526 L136 670 L210 670 L210 526 L331 526 L331 440 L210 440 L210 82 L343 82 L343 0 Q318 -3 292 -5 Q270 -7 245 -8.5 Q220 -10 200 -10 Z " />
<glyph glyph-name="Tbar" unicode="&#x166;" horiz-adv-x="582" d="M22 700 L559 700 L559 602 L354 602 L354 385 L462 385 L462 319 L354 319 L354 0 L228 0 L228 319 L119 319 L119 385 L228 385 L228 602 L22 602 L22 700 Z " />
<glyph glyph-name="tbar" unicode="&#x167;" horiz-adv-x="362" d="M28 327 L92 327 L92 440 L22 440 L22 526 L86 526 L137 670 L211 670 L211 526 L332 526 L332 440 L211 440 L211 327 L323 327 L323 263 L211 263 L211 82 L344 82 L344 0 Q319 -3 293 -5 Q271 -7 246 -8.5 Q221 -10 201 -10 Q147 -10 119.5 13.5 Q92 37 92 94 L92 263 L28 263 L28 327 Z " />
<glyph glyph-name="Utilde" unicode="&#x168;" horiz-adv-x="649" d="M460 700 L578 700 L578 236 Q578 173 560 126.5 Q542 80 508.5 50 Q475 20 427 5 Q379 -10 320 -10 Q206 -10 138.5 50 Q71 110 71 236 L71 700 L200 700 L200 235 Q200 163 230 127 Q260 91 328 91 Q402 91 431 127 Q460 163 460 235 L460 700 Z M487 896 L487 854 Q487 809 465.5 788 Q444 767 406 767 Q382 767 362 774 Q342 781 324 789.5 Q306 798 291 805 Q276 812 263 812 Q249 812 242.5 805 Q236 798 236 793 L236 757 L169 757 L169 795 Q169 847 191.5 868 Q214 889 250 889 Q273 889 293 881.5 Q313 874 330.5 865 Q348 856 364.5 848.5 Q381 841 396 841 Q412 841 417 849.5 Q422 858 422 863 L422 896 L487 896 Z " />
<glyph glyph-name="utilde" unicode="&#x169;" horiz-adv-x="549" d="M367 60 Q359 52 345 40 Q331 28 311.5 17 Q292 6 267.5 -2 Q243 -10 215 -10 Q171 -10 141.5 2.5 Q112 15 94 37 Q76 59 68.5 88 Q61 117 61 150 L61 528 L180 528 L180 183 Q180 167 182.5 151 Q185 135 192.5 122.5 Q200 110 215 102 Q230 94 255 94 Q273 94 290 99.5 Q307 105 321.5 113 Q336 121 347 130 Q358 139 365 146 L365 528 L484 528 L484 0 L409 0 Q385 0 378 11 Q371 22 371 36 L371 60 L367 60 Z M423 723 L423 682 Q423 637 401.5 616 Q380 595 342 595 Q318 595 298 602 Q278 609 260 617.5 Q242 626 227 633 Q212 640 199 640 Q185 640 178.5 633 Q172 626 172 621 L172 585 L105 585 L105 623 Q105 674 127.5 695.5 Q150 717 186 717 Q209 717 229 709.5 Q249 702 266.5 692.5 Q284 683 300.5 675.5 Q317 668 332 668 Q348 668 353 677 Q358 686 358 691 L358 723 L423 723 Z " />
<glyph glyph-name="Umacron" unicode="&#x16a;" horiz-adv-x="649" d="M460 700 L578 700 L578 236 Q578 173 560 126.5 Q542 80 508.5 50 Q475 20 427 5 Q379 -10 320 -10 Q206 -10 138.5 50 Q71 110 71 236 L71 700 L200 700 L200 235 Q200 163 230 127 Q260 91 328 91 Q402 91 431 127 Q460 163 460 235 L460 700 Z M199 865 L458 865 L458 795 L199 795 L199 865 Z " />
<glyph glyph-name="umacron" unicode="&#x16b;" horiz-adv-x="549" d="M367 60 Q359 52 345 40 Q331 28 311.5 17 Q292 6 267.5 -2 Q243 -10 215 -10 Q171 -10 141.5 2.5 Q112 15 94 37 Q76 59 68.5 88 Q61 117 61 150 L61 528 L180 528 L180 183 Q180 167 182.5 151 Q185 135 192.5 122.5 Q200 110 215 102 Q230 94 255 94 Q273 94 290 99.5 Q307 105 321.5 113 Q336 121 347 130 Q358 139 365 146 L365 528 L484 528 L484 0 L409 0 Q385 0 378 11 Q371 22 371 36 L371 60 L367 60 Z M134 690 L393 690 L393 620 L134 620 L134 690 Z " />
<glyph glyph-name="Ubreve" unicode="&#x16c;" horiz-adv-x="649" d="M460 700 L578 700 L578 236 Q578 173 560 126.5 Q542 80 508.5 50 Q475 20 427 5 Q379 -10 320 -10 Q206 -10 138.5 50 Q71 110 71 236 L71 700 L200 700 L200 235 Q200 163 230 127 Q260 91 328 91 Q402 91 431 127 Q460 163 460 235 L460 700 Z M459 887 Q455 862 445 839.5 Q435 817 419 800.5 Q403 784 380.5 774 Q358 764 328 764 Q298 764 275.5 774 Q253 784 237 800.5 Q221 817 211 839 Q201 861 197 886 L258 902 Q265 876 281.5 856 Q298 836 329 836 Q361 836 379 855.5 Q397 875 404 900 L459 887 L459 887 Z " />
<glyph glyph-name="ubreve" unicode="&#x16d;" horiz-adv-x="549" d="M367 60 Q359 52 345 40 Q331 28 311.5 17 Q292 6 267.5 -2 Q243 -10 215 -10 Q171 -10 141.5 2.5 Q112 15 94 37 Q76 59 68.5 88 Q61 117 61 150 L61 528 L180 528 L180 183 Q180 167 182.5 151 Q185 135 192.5 122.5 Q200 110 215 102 Q230 94 255 94 Q273 94 290 99.5 Q307 105 321.5 113 Q336 121 347 130 Q358 139 365 146 L365 528 L484 528 L484 0 L409 0 Q385 0 378 11 Q371 22 371 36 L371 60 L367 60 Z M396 716 Q391 692 381 669.5 Q371 647 354.5 629.5 Q338 612 316 602 Q294 592 265 592 Q236 592 213.5 602 Q191 612 175 629 Q159 646 148.5 667.5 Q138 689 134 713 L195 729 Q202 701 218.5 680 Q235 659 266 659 Q298 659 315.5 680.5 Q333 702 341 729 L396 716 L396 716 Z " />
<glyph glyph-name="Uring" unicode="&#x16e;" horiz-adv-x="649" d="M381 828 Q381 870 328 870 Q276 870 276 828 Q276 787 328 787 Q381 787 381 828 Z M447 828 Q447 784 412.5 763.5 Q378 743 328 743 Q278 743 244 763.5 Q210 784 210 828 Q210 872 244 893 Q278 914 328 914 Q378 914 412.5 893 Q447 872 447 828 Z M460 700 L578 700 L578 236 Q578 173 560 126.5 Q542 80 508.5 50 Q475 20 427 5 Q379 -10 320 -10 Q206 -10 138.5 50 Q71 110 71 236 L71 700 L200 700 L200 235 Q200 163 230 127 Q260 91 328 91 Q402 91 431 127 Q460 163 460 235 L460 700 Z " />
<glyph glyph-name="uring" unicode="&#x16f;" horiz-adv-x="549" d="M382 656 Q382 612 348 591 Q314 570 263 570 Q213 570 179 591 Q145 612 145 656 Q145 700 179 721 Q213 742 263 742 Q313 742 347.5 721 Q382 700 382 656 Z M316 656 Q316 698 263 698 Q211 698 211 656 Q211 636 224.5 625 Q238 614 263 614 Q289 614 302.5 625 Q316 636 316 656 Z M367 60 Q359 52 345 40 Q331 28 311.5 17 Q292 6 267.5 -2 Q243 -10 215 -10 Q171 -10 141.5 2.5 Q112 15 94 37 Q76 59 68.5 88 Q61 117 61 150 L61 528 L180 528 L180 183 Q180 167 182.5 151 Q185 135 192.5 122.5 Q200 110 215 102 Q230 94 255 94 Q273 94 290 99.5 Q307 105 321.5 113 Q336 121 347 130 Q358 139 365 146 L365 528 L484 528 L484 0 L409 0 Q385 0 378 11 Q371 22 371 36 L371 60 L367 60 Z " />
<glyph glyph-name="Uhungarumlaut" unicode="&#x170;" horiz-adv-x="649" d="M254 752 L226 783 L339 924 L361 924 L405 878 L271 752 L254 752 Z M379 752 L358 781 L480 905 L502 905 L549 852 L397 752 L379 752 Z M460 700 L578 700 L578 236 Q578 173 560 126.5 Q542 80 508.5 50 Q475 20 427 5 Q379 -10 320 -10 Q206 -10 138.5 50 Q71 110 71 236 L71 700 L200 700 L200 235 Q200 163 230 127 Q260 91 328 91 Q402 91 431 127 Q460 163 460 235 L460 700 Z " />
<glyph glyph-name="uhungarumlaut" unicode="&#x171;" horiz-adv-x="549" d="M367 60 Q359 52 345 40 Q331 28 311.5 17 Q292 6 267.5 -2 Q243 -10 215 -10 Q171 -10 141.5 2.5 Q112 15 94 37 Q76 59 68.5 88 Q61 117 61 150 L61 528 L180 528 L180 183 Q180 167 182.5 151 Q185 135 192.5 122.5 Q200 110 215 102 Q230 94 255 94 Q273 94 290 99.5 Q307 105 321.5 113 Q336 121 347 130 Q358 139 365 146 L365 528 L484 528 L484 0 L409 0 Q385 0 378 11 Q371 22 371 36 L371 60 L367 60 Z M188 579 L160 611 L272 751 L294 751 L338 705 L204 579 L188 579 Z M313 579 L292 609 L413 732 L435 732 L482 680 L330 579 L313 579 Z " />
<glyph glyph-name="Uogonek" unicode="&#x172;" horiz-adv-x="649" d="M376 -180 Q328 -180 297 -160 Q266 -140 266 -98 Q266 -71 278.5 -49 Q291 -27 311 -10 L310 -10 Q255 -9 211 6.5 Q167 22 136 52.5 Q105 83 88 128.5 Q71 174 71 236 L71 700 L200 700 L200 235 Q200 163 230 127 Q260 91 328 91 Q402 91 431 127 Q460 163 460 235 L460 700 L578 700 L578 236 Q578 138 536.5 82 Q495 26 417 2 Q390 -6 369 -25.5 Q348 -45 348 -73 Q348 -97 364 -108.5 Q380 -120 403 -120 Q418 -120 436 -114.5 Q454 -109 472 -98 L485 -149 Q465 -162 436.5 -171 Q408 -180 376 -180 Z " />
<glyph glyph-name="uogonek" unicode="&#x173;" horiz-adv-x="549" d="M367 60 Q359 52 345 40 Q331 28 311.5 17 Q292 6 267.5 -2 Q243 -10 215 -10 Q171 -10 141.5 2.5 Q112 15 94 37 Q76 59 68.5 88 Q61 117 61 150 L61 528 L180 528 L180 183 Q180 167 182.5 151 Q185 135 192.5 122.5 Q200 110 215 102 Q230 94 255 94 Q273 94 290 99.5 Q307 105 321.5 113 Q336 121 347 130 Q358 139 365 146 L365 528 L484 528 L484 0 L444 0 Q425 0 411 -7 Q397 -14 387.5 -24.5 Q378 -35 373 -48 Q368 -61 368 -73 Q368 -97 383.5 -108.5 Q399 -120 423 -120 Q437 -120 455.5 -114.5 Q474 -109 491 -98 L505 -149 Q485 -162 456.5 -171 Q428 -180 396 -180 Q348 -180 317 -160 Q286 -140 286 -98 Q286 -58 312 -29.5 Q338 -1 376 14 Q373 19 372 24.5 Q371 30 371 36 L371 60 L367 60 Z " />
<glyph glyph-name="Wcircumflex" unicode="&#x174;" horiz-adv-x="937" d="M350 753 L324 783 L452 926 L493 926 L622 783 L595 753 L577 753 L472 830 L368 753 L350 753 Z M468 485 L339 -2 L212 -2 L18 700 L150 700 L281 169 L411 700 L537 700 L669 169 L799 700 L917 700 L726 -2 L600 -2 L468 485 Z " />
<glyph glyph-name="wcircumflex" unicode="&#x175;" horiz-adv-x="783" d="M271 579 L246 609 L373 751 L412 751 L539 609 L514 579 L496 579 L392 659 L289 579 L271 579 Z M18 528 L141 528 L245 153 L348 528 L449 528 L552 151 L656 528 L764 528 L601 -2 L491 -2 L392 325 L294 -2 L184 -2 L18 528 Z " />
<glyph glyph-name="Ycircumflex" unicode="&#x176;" horiz-adv-x="603" d="M243 0 L243 271 L7 700 L151 700 L309 398 L460 700 L583 700 L370 285 L370 0 L243 0 Z M194 753 L168 783 L296 926 L337 926 L466 783 L439 753 L421 753 L316 830 L212 753 L194 753 Z " />
<glyph glyph-name="ycircumflex" unicode="&#x177;" horiz-adv-x="515" d="M155 -170 L207 -12 L15 528 L146 528 L262 159 L383 528 L499 528 L256 -170 L155 -170 Z M143 579 L118 609 L245 751 L284 751 L411 609 L386 579 L368 579 L264 659 L161 579 L143 579 Z " />
<glyph glyph-name="Ydieresis" unicode="&#x178;" horiz-adv-x="603" d="M243 0 L243 271 L7 700 L151 700 L309 398 L460 700 L583 700 L370 285 L370 0 L243 0 Z M189 836 Q189 858 204 874 Q219 890 243 890 Q267 890 282 874 Q297 858 297 836 Q297 813 282 798 Q267 783 243 783 Q219 783 204 798 Q189 813 189 836 Z M338 836 Q338 858 353.5 874 Q369 890 392 890 Q416 890 431.5 874 Q447 858 447 836 Q447 813 431.5 798 Q416 783 392 783 Q369 783 353.5 798 Q338 813 338 836 Z " />
<glyph glyph-name="Zacute" unicode="&#x179;" horiz-adv-x="573" d="M31 0 L31 67 L370 603 L46 603 L46 700 L526 700 L526 633 L189 98 L541 98 L541 0 L31 0 Z M282 752 L249 788 L371 924 L393 924 L448 856 L299 752 L282 752 Z " />
<glyph glyph-name="zacute" unicode="&#x17a;" horiz-adv-x="498" d="M244 579 L211 615 L333 751 L355 751 L410 684 L261 579 L244 579 Z M30 0 L30 54 L297 434 L42 434 L42 528 L454 528 L454 468 L191 93 L466 93 L466 0 L30 0 Z " />
<glyph glyph-name="Zdotaccent" unicode="&#x17b;" horiz-adv-x="573" d="M219 829 Q219 855 240 875 Q261 895 290 895 Q304 895 317 889.5 Q330 884 339.5 875 Q349 866 355 854 Q361 842 361 829 Q361 801 340 781.5 Q319 762 290 762 Q261 762 240 781.5 Q219 801 219 829 Z M31 0 L31 67 L370 603 L46 603 L46 700 L526 700 L526 633 L189 98 L541 98 L541 0 L31 0 Z " />
<glyph glyph-name="zdotaccent" unicode="&#x17c;" horiz-adv-x="498" d="M30 0 L30 54 L297 434 L42 434 L42 528 L454 528 L454 468 L191 93 L466 93 L466 0 L30 0 Z M179 661 Q179 687 200 707.5 Q221 728 250 728 Q264 728 277 722.5 Q290 717 299.5 707.5 Q309 698 315 686 Q321 674 321 661 Q321 634 300 614 Q279 594 250 594 Q221 594 200 614 Q179 634 179 661 Z " />
<glyph glyph-name="Zcaron" unicode="&#x17d;" horiz-adv-x="573" d="M31 0 L31 67 L370 603 L46 603 L46 700 L526 700 L526 633 L189 98 L541 98 L541 0 L31 0 Z M413 925 L440 895 L311 752 L270 752 L141 895 L167 925 L186 925 L291 848 L395 925 L413 925 Z " />
<glyph glyph-name="zcaron" unicode="&#x17e;" horiz-adv-x="498" d="M372 753 L398 723 L269 579 L229 579 L100 723 L126 753 L145 753 L250 675 L353 753 L372 753 Z M30 0 L30 54 L297 434 L42 434 L42 528 L454 528 L454 468 L191 93 L466 93 L466 0 L30 0 Z " />
<glyph glyph-name="longs" unicode="&#x17f;" horiz-adv-x="309" d="M215 0 L96 0 L96 440 L24 440 L24 526 L96 526 L96 560 Q96 599 105.5 632 Q115 665 136 689 Q157 713 191 726.5 Q225 740 275 740 Q298 740 320 737.5 Q342 735 354 733 L354 652 Q351 653 341 653.5 Q331 654 319.5 654.5 Q308 655 298.5 655 Q289 655 287 655 Q244 655 229.5 634.5 Q215 614 215 567 L215 0 Z " />
<glyph glyph-name="florin" unicode="&#x192;" horiz-adv-x="385" d="M9 -180 Q-34 -180 -59 -176 Q-84 -172 -89 -170 L-89 -92 Q-87 -93 -74 -93.5 Q-61 -94 -46.5 -94.5 Q-32 -95 -20 -95 Q-8 -95 -7 -95 Q19 -95 35.5 -90.5 Q52 -86 62 -75.5 Q72 -65 77 -48 Q82 -31 85 -7 L125 368 L24 368 L24 452 L134 452 L146 561 Q150 600 161.5 632.5 Q173 665 195.5 689 Q218 713 253.5 726.5 Q289 740 341 740 Q385 740 409 735.5 Q433 731 440 730 L440 652 Q437 653 424.5 653.5 Q412 654 397.5 654.5 Q383 655 371 655 Q359 655 358 655 Q332 655 315 650 Q298 645 287.5 634.5 Q277 624 272 607.5 Q267 591 265 567 L253 452 L369 452 L369 368 L244 368 L205 -1 Q201 -40 189.5 -73 Q178 -106 155 -130 Q132 -154 96.5 -167 Q61 -180 9 -180 Z " />
<glyph glyph-name="uni0218" unicode="&#x218;" horiz-adv-x="532" d="M180 -257 L212 -201 L205 -185 Q176 -171 176 -135 Q176 -74 236 -74 Q267 -74 282.5 -89.5 Q298 -105 298 -132 Q298 -143 294 -153.5 Q290 -164 285 -175 L227 -281 L180 -257 Z M496 208 Q496 154 477 113.5 Q458 73 424 45.5 Q390 18 342.5 4 Q295 -10 238 -10 Q199 -10 165.5 -6 Q132 -2 106.5 3.5 Q81 9 65.5 13.5 Q50 18 46 19 L46 119 Q84 110 132 99.5 Q180 89 238 89 Q307 89 340.5 115.5 Q374 142 374 190 Q374 212 367 228 Q360 244 344.5 257 Q329 270 304 280 Q279 290 243 301 Q193 316 156.5 334.5 Q120 353 96 378.5 Q72 404 60.5 437 Q49 470 49 515 Q49 560 66.5 596.5 Q84 633 115.5 658 Q147 683 191 696.5 Q235 710 288 710 Q324 710 355 706 Q386 702 409.5 697 Q433 692 447 688 Q461 684 464 683 L464 582 Q430 593 387 602.5 Q344 612 296 612 Q233 612 199.5 588.5 Q166 565 166 524 Q166 506 171 491 Q176 476 189.5 462.5 Q203 449 228 436.5 Q253 424 293 412 Q342 397 379.5 379 Q417 361 443 337 Q469 313 482.5 281.5 Q496 250 496 208 Z " />
<glyph glyph-name="uni0219" unicode="&#x219;" horiz-adv-x="456" d="M148 -257 L180 -201 L173 -185 Q144 -171 144 -135 Q144 -74 204 -74 Q235 -74 250.5 -89.5 Q266 -105 266 -132 Q266 -143 262 -153.5 Q258 -164 253 -175 L195 -281 L148 -257 Z M424 159 Q424 118 408 86.5 Q392 55 363.5 33.5 Q335 12 295.5 1 Q256 -10 209 -10 Q170 -10 140 -6 Q110 -2 88 2.5 Q66 7 54 11 Q42 15 39 16 L39 111 Q70 100 107 90.5 Q144 81 193 81 Q306 81 306 145 Q306 170 284.5 187.5 Q263 205 202 219 Q155 229 124.5 246 Q94 263 76 284.5 Q58 306 51 331 Q44 356 44 383 Q44 417 58 445.5 Q72 474 99 494.5 Q126 515 164.5 526.5 Q203 538 251 538 Q281 538 307.5 535 Q334 532 354 528 Q377 524 397 519 L397 424 Q388 427 373 430.5 Q358 434 340 438 Q322 442 302 444.5 Q282 447 263 447 Q212 447 184.5 433 Q157 419 157 391 Q157 380 161 370 Q165 360 175 352 Q185 344 202 336.5 Q219 329 245 322 Q339 299 381.5 261.5 Q424 224 424 159 Z " />
<glyph glyph-name="uni021A" unicode="&#x21a;" horiz-adv-x="574" d="M232 -257 L264 -201 L257 -185 Q228 -171 228 -135 Q228 -74 288 -74 Q319 -74 334.5 -89.5 Q350 -105 350 -132 Q350 -143 346 -153.5 Q342 -164 337 -175 L279 -281 L232 -257 Z M18 700 L555 700 L555 602 L350 602 L350 0 L224 0 L224 602 L18 602 L18 700 Z " />
<glyph glyph-name="uni021B" unicode="&#x21b;" horiz-adv-x="360" d="M145 -256 L177 -200 L170 -184 Q141 -170 141 -134 Q141 -73 201 -73 Q232 -73 247.5 -88.5 Q263 -104 263 -131 Q263 -142 259 -152.5 Q255 -163 250 -174 L192 -280 L145 -256 Z M200 -10 Q146 -10 118.5 13.5 Q91 37 91 94 L91 440 L21 440 L21 526 L85 526 L136 670 L210 670 L210 526 L331 526 L331 440 L210 440 L210 82 L343 82 L343 0 Q318 -3 292 -5 Q270 -7 245 -8.5 Q220 -10 200 -10 Z " />
<glyph glyph-name="uni0237" unicode="&#x237;" horiz-adv-x="248" d="M-66 -89 Q-62 -90 -52 -90.5 Q-42 -91 -31.5 -91 Q-21 -91 -12.5 -91 Q-4 -91 -2 -91 Q35 -91 50 -69 Q65 -47 65 -2 L65 528 L184 528 L184 5 Q184 -33 174.5 -66.5 Q165 -100 144 -125.5 Q123 -151 89 -165.5 Q55 -180 5 -180 Q-17 -180 -35 -177.5 Q-53 -175 -66 -172 L-66 -89 Z " />
<glyph glyph-name="uni02C9" unicode="&#x2c9;" horiz-adv-x="396" d="M68 697 L327 697 L327 627 L68 627 L68 697 Z " />
<glyph glyph-name="ogonek" unicode="&#x2db;" horiz-adv-x="400" d="M228 0 Q192 -11 172 -29.5 Q152 -48 152 -73 Q152 -97 167.5 -108.5 Q183 -120 207 -120 Q221 -120 239.5 -114.5 Q258 -109 275 -98 L289 -149 Q269 -162 240.5 -171 Q212 -180 180 -180 Q132 -180 101 -160 Q70 -140 70 -98 Q70 -70 84 -47 Q98 -24 120.5 -7.5 Q143 9 171 19 Q199 29 228 33 L228 0 Z " />
<glyph glyph-name="uni0394" unicode="&#x394;" horiz-adv-x="636" d="M15 0 L15 66 L271 702 L388 702 L621 66 L621 0 L15 0 Z M321 537 L153 104 L473 104 L321 537 Z " />
<glyph glyph-name="Delta" unicode="&#x2206;" horiz-adv-x="636" d="M15 0 L15 66 L271 702 L388 702 L621 66 L621 0 L15 0 Z M321 537 L153 104 L473 104 L321 537 Z " />
<glyph glyph-name="uni03A9" unicode="&#x3a9;" horiz-adv-x="697" d="M388 0 L388 169 Q435 194 463.5 218.5 Q492 243 507.5 270.5 Q523 298 528 331.5 Q533 365 533 408 Q533 517 485 564.5 Q437 612 348 612 Q259 612 211.5 564.5 Q164 517 164 408 Q164 365 169 331.5 Q174 298 189.5 270.5 Q205 243 233.5 218.5 Q262 194 309 169 L309 0 L46 0 L46 90 L232 90 L232 114 Q177 141 140 171.5 Q103 202 80.5 238 Q58 274 48 316 Q38 358 38 408 Q38 489 62 546.5 Q86 604 127.5 640.5 Q169 677 225.5 694.5 Q282 712 348 712 Q414 712 471 694.5 Q528 677 569.5 640.5 Q611 604 635 546.5 Q659 489 659 408 Q659 358 649 316 Q639 274 616.5 238 Q594 202 557 171.5 Q520 141 465 114 L465 90 L651 90 L651 0 L388 0 Z " />
<glyph glyph-name="Omega" unicode="&#x2126;" horiz-adv-x="697" d="M388 0 L388 169 Q435 194 463.5 218.5 Q492 243 507.5 270.5 Q523 298 528 331.5 Q533 365 533 408 Q533 517 485 564.5 Q437 612 348 612 Q259 612 211.5 564.5 Q164 517 164 408 Q164 365 169 331.5 Q174 298 189.5 270.5 Q205 243 233.5 218.5 Q262 194 309 169 L309 0 L46 0 L46 90 L232 90 L232 114 Q177 141 140 171.5 Q103 202 80.5 238 Q58 274 48 316 Q38 358 38 408 Q38 489 62 546.5 Q86 604 127.5 640.5 Q169 677 225.5 694.5 Q282 712 348 712 Q414 712 471 694.5 Q528 677 569.5 640.5 Q611 604 635 546.5 Q659 489 659 408 Q659 358 649 316 Q639 274 616.5 238 Q594 202 557 171.5 Q520 141 465 114 L465 90 L651 90 L651 0 L388 0 Z " />
<glyph glyph-name="uni03BC" unicode="&#x3bc;" horiz-adv-x="589" d="M573 8 Q555 0 531.5 -4 Q508 -8 491 -8 Q448 -8 425.5 14 Q403 36 395 72 Q380 34 350.5 11.5 Q321 -11 278 -11 Q243 -11 216.5 3.5 Q190 18 174 53 L185 -89 L185 -168 L69 -179 L69 521 L190 533 L190 202 Q190 140 216 116 Q242 92 283 92 Q293 92 305.5 95.5 Q318 99 330.5 106.5 Q343 114 354.5 125.5 Q366 137 374 153 L374 521 L493 533 L493 144 Q493 118 500.5 102.5 Q508 87 533 87 Q552 87 573 93 L573 8 Z " />
<glyph glyph-name="mu" unicode="&#xb5;" horiz-adv-x="589" d="M573 8 Q555 0 531.5 -4 Q508 -8 491 -8 Q448 -8 425.5 14 Q403 36 395 72 Q380 34 350.5 11.5 Q321 -11 278 -11 Q243 -11 216.5 3.5 Q190 18 174 53 L185 -89 L185 -168 L69 -179 L69 521 L190 533 L190 202 Q190 140 216 116 Q242 92 283 92 Q293 92 305.5 95.5 Q318 99 330.5 106.5 Q343 114 354.5 125.5 Q366 137 374 153 L374 521 L493 533 L493 144 Q493 118 500.5 102.5 Q508 87 533 87 Q552 87 573 93 L573 8 Z " />
<glyph glyph-name="Wgrave" unicode="&#x1e80;" horiz-adv-x="937" d="M482 752 L465 752 L315 856 L371 924 L392 924 L514 788 L482 752 Z M468 485 L339 -2 L212 -2 L18 700 L150 700 L281 169 L411 700 L537 700 L669 169 L799 700 L917 700 L726 -2 L600 -2 L468 485 Z " />
<glyph glyph-name="wgrave" unicode="&#x1e81;" horiz-adv-x="783" d="M18 528 L141 528 L245 153 L348 528 L449 528 L552 151 L656 528 L764 528 L601 -2 L491 -2 L392 325 L294 -2 L184 -2 L18 528 Z M401 579 L384 579 L234 684 L289 751 L312 751 L433 615 L401 579 Z " />
<glyph glyph-name="Wacute" unicode="&#x1e82;" horiz-adv-x="937" d="M465 752 L432 788 L554 924 L576 924 L631 856 L482 752 L465 752 Z M468 485 L339 -2 L212 -2 L18 700 L150 700 L281 169 L411 700 L537 700 L669 169 L799 700 L917 700 L726 -2 L600 -2 L468 485 Z " />
<glyph glyph-name="wacute" unicode="&#x1e83;" horiz-adv-x="783" d="M385 579 L352 615 L474 751 L496 751 L551 684 L402 579 L385 579 Z M18 528 L141 528 L245 153 L348 528 L449 528 L552 151 L656 528 L764 528 L601 -2 L491 -2 L392 325 L294 -2 L184 -2 L18 528 Z " />
<glyph glyph-name="Wdieresis" unicode="&#x1e84;" horiz-adv-x="937" d="M468 485 L339 -2 L212 -2 L18 700 L150 700 L281 169 L411 700 L537 700 L669 169 L799 700 L917 700 L726 -2 L600 -2 L468 485 Z M345 836 Q345 858 360 874 Q375 890 399 890 Q423 890 438 874 Q453 858 453 836 Q453 813 438 798 Q423 783 399 783 Q375 783 360 798 Q345 813 345 836 Z M494 836 Q494 858 509.5 874 Q525 890 548 890 Q572 890 587.5 874 Q603 858 603 836 Q603 813 587.5 798 Q572 783 548 783 Q525 783 509.5 798 Q494 813 494 836 Z " />
<glyph glyph-name="wdieresis" unicode="&#x1e85;" horiz-adv-x="783" d="M263 661 Q263 683 278 699 Q293 715 317 715 Q341 715 356 699 Q371 683 371 661 Q371 638 356 623 Q341 608 317 608 Q293 608 278 623 Q263 638 263 661 Z M412 661 Q412 683 427.5 699 Q443 715 466 715 Q490 715 505.5 699 Q521 683 521 661 Q521 638 505.5 623 Q490 608 466 608 Q443 608 427.5 623 Q412 638 412 661 Z M18 528 L141 528 L245 153 L348 528 L449 528 L552 151 L656 528 L764 528 L601 -2 L491 -2 L392 325 L294 -2 L184 -2 L18 528 Z " />
<glyph glyph-name="endash" unicode="&#x2013;" horiz-adv-x="549" d="M55 364 L493 364 L493 281 L55 281 L55 364 Z " />
<glyph glyph-name="emdash" unicode="&#x2014;" horiz-adv-x="838" d="M55 364 L782 364 L782 281 L55 281 L55 364 Z " />
<glyph glyph-name="quoteleft" unicode="&#x2018;" horiz-adv-x="225" d="M176.003 709.994 L138.005 635.999 L144.005 617 Q178.003 601.001 178.003 557.003 Q178.003 526.005 160.504 508.006 Q143.005 490.008 108.007 490.008 Q73.0093 490.008 55.0104 508.006 Q37.0115 526.005 37.0115 557.003 Q37.0115 570.003 42.0112 581.502 Q47.0109 593.001 52.0106 604.001 L124.006 737.992 L176.003 709.994 Z " />
<glyph glyph-name="quoteright" unicode="&#x2019;" horiz-adv-x="223" d="M52 491 L90 565 L84 584 Q50 600 50 644 Q50 675 67.5 693 Q85 711 120 711 Q155 711 173 693 Q191 675 191 644 Q191 631 186 619.5 Q181 608 176 597 L104 463 L52 491 Z " />
<glyph glyph-name="quotesinglbase" unicode="&#x201a;" horiz-adv-x="235" d="M49 -96 L87 -22 L81 -3 Q47 13 47 57 Q47 88 64.5 106 Q82 124 117 124 Q152 124 170 106 Q188 88 188 57 Q188 44 183 32.5 Q178 21 173 10 L101 -124 L49 -96 Z " />
<glyph glyph-name="quotedblleft" unicode="&#x201c;" horiz-adv-x="401" d="M353.003 709.994 L315.005 635.999 L321.005 617 Q355.003 601.001 355.003 557.003 Q355.003 526.005 337.504 508.006 Q320.005 490.008 285.007 490.008 Q250.009 490.008 232.01 508.006 Q214.011 526.005 214.011 557.003 Q214.011 570.003 219.011 581.502 Q224.011 593.001 229.011 604.001 L301.006 737.992 L353.003 709.994 Z M176.003 709.994 L138.005 635.999 L144.005 617 Q178.003 601.001 178.003 557.003 Q178.003 526.005 160.504 508.006 Q143.005 490.008 108.007 490.008 Q73.0093 490.008 55.0104 508.006 Q37.0115 526.005 37.0115 557.003 Q37.0115 570.003 42.0112 581.502 Q47.0109 593.001 52.0106 604.001 L124.006 737.992 L176.003 709.994 Z " />
<glyph glyph-name="quotedblright" unicode="&#x201d;" horiz-adv-x="398" d="M52 491 L90 565 L84 584 Q50 600 50 644 Q50 675 67.5 693 Q85 711 120 711 Q155 711 173 693 Q191 675 191 644 Q191 631 186 619.5 Q181 608 176 597 L104 463 L52 491 Z M227 491 L265 565 L259 584 Q225 600 225 644 Q225 675 242.5 693 Q260 711 295 711 Q330 711 348 693 Q366 675 366 644 Q366 631 361 619.5 Q356 608 351 597 L279 463 L227 491 Z " />
<glyph glyph-name="quotedblbase" unicode="&#x201e;" horiz-adv-x="411" d="M49 -96 L87 -22 L81 -3 Q47 13 47 57 Q47 88 64.5 106 Q82 124 117 124 Q152 124 170 106 Q188 88 188 57 Q188 44 183 32.5 Q178 21 173 10 L101 -124 L49 -96 Z M225 -96 L263 -22 L257 -3 Q223 13 223 57 Q223 88 240.5 106 Q258 124 293 124 Q328 124 346 106 Q364 88 364 57 Q364 44 359 32.5 Q354 21 349 10 L277 -124 L225 -96 Z " />
<glyph glyph-name="dagger" unicode="&#x2020;" horiz-adv-x="478" d="M277 0 L204 0 L183 340 L198 447 L167 447 L30 429 L30 525 L167 508 L200 508 L183 700 L298 700 L280 508 L311 508 L448 525 L448 429 L311 447 L284 447 L298 340 L277 0 Z " />
<glyph glyph-name="daggerdbl" unicode="&#x2021;" horiz-adv-x="523" d="M303 192 L321 0 L205 0 L222 192 L187 192 L52 174 L52 273 L187 254 L219 254 L205 350 L219 447 L187 447 L52 428 L52 526 L187 508 L222 508 L205 700 L321 700 L303 508 L335 508 L470 526 L470 428 L335 447 L307 447 L321 350 L307 254 L335 254 L470 273 L470 174 L335 192 L303 192 Z " />
<glyph glyph-name="bullet" unicode="&#x2022;" horiz-adv-x="358" d="M74.5 372.5 Q74.5 411.5 105.25 442.25 Q136 473 179.5 473 Q223 473 254.5 442.25 Q286 411.5 286 372.5 Q286 332 254.5 302 Q223 272 179.5 272 Q136 272 105.25 302 Q74.5 332 74.5 372.5 Z " />
<glyph glyph-name="ellipsis" unicode="&#x2026;" horiz-adv-x="671" d="M485 57 Q485 83 505.5 103.5 Q526 124 555 124 Q584 124 605 103.5 Q626 83 626 57 Q626 30 605 10 Q584 -10 555 -10 Q526 -10 505.5 10 Q485 30 485 57 Z M45 57 Q45 83 65.5 103.5 Q86 124 115 124 Q144 124 165 103.5 Q186 83 186 57 Q186 30 165 10 Q144 -10 115 -10 Q86 -10 65.5 10 Q45 30 45 57 Z M265 57 Q265 83 285.5 103.5 Q306 124 335 124 Q364 124 385 103.5 Q406 83 406 57 Q406 30 385 10 Q364 -10 335 -10 Q306 -10 285.5 10 Q265 30 265 57 Z " />
<glyph glyph-name="perthousand" unicode="&#x2030;" horiz-adv-x="988" d="M225 540 Q225 588 214 614 Q203 640 172 640 Q141 640 129.5 614 Q118 588 118 540 Q118 492 129.5 466 Q141 440 172 440 Q203 440 214 466 Q225 492 225 540 Z M305 540 Q305 453 269 413 Q233 373 172 373 Q111 373 75 413 Q39 453 39 541 Q39 628 75 667.5 Q111 707 172 707 Q233 707 269 667 Q305 627 305 540 Z M561 162 Q561 210 550 236 Q539 262 508 262 Q477 262 465.5 236 Q454 210 454 162 Q454 114 465.5 88 Q477 62 508 62 Q539 62 550 88 Q561 114 561 162 Z M641 162 Q641 75 605 35 Q569 -5 508 -5 Q447 -5 411 35 Q375 75 375 163 Q375 250 411 289.5 Q447 329 508 329 Q569 329 605 289 Q641 249 641 162 Z M878 161 Q878 209 867 235 Q856 261 825 261 Q794 261 782.5 235 Q771 209 771 161 Q771 113 782.5 87 Q794 61 825 61 Q856 61 867 87 Q878 113 878 161 Z M958 161 Q958 74 922 34 Q886 -6 825 -6 Q764 -6 728 34 Q692 74 692 162 Q692 249 728 288.5 Q764 328 825 328 Q886 328 922 288 Q958 248 958 161 Z M57 0 L556 700 L626 700 L128 0 L57 0 Z " />
<glyph glyph-name="guilsinglleft" unicode="&#x2039;" horiz-adv-x="308" d="M37.0165 236 L173.008 46 L266.003 46 L131.011 256 L266.003 463 L173.008 463 L37.0165 274 L37.0165 236 Z " />
<glyph glyph-name="franc" unicode="&#x20a3;" horiz-adv-x="598" d="M244 231 L244 0 L118 0 L118 231 L48 231 L48 302 L118 302 L118 355 L48 355 L48 425 L118 425 L118 700 L571 700 L571 602 L244 602 L244 425 L416 425 L416 355 L244 355 L244 302 L416 302 L416 231 L244 231 Z " />
<glyph glyph-name="lira" unicode="&#x20a4;" horiz-adv-x="591" d="M545 0 L52 0 L52 98 L122 98 L122 245 L52 245 L52 316 L122 316 L122 368 L52 368 L52 439 L122 439 L122 486 Q122 530 136 570.5 Q150 611 180 642 Q210 673 256.5 691.5 Q303 710 369 710 Q404 710 433.5 706.5 Q463 703 484.5 698.5 Q506 694 520 690 Q534 686 538 685 L538 588 Q500 602 459.5 609 Q419 616 383 616 Q313 616 281 587 Q249 558 249 486 L249 439 L403 439 L403 368 L249 368 L249 316 L403 316 L403 245 L249 245 L249 98 L545 98 L545 0 Z " />
<glyph glyph-name="peseta" unicode="&#x20a7;" horiz-adv-x="1439" d="M68 700 L304 700 Q428 700 498.5 647 Q569 594 569 481 Q569 422 550.5 378.5 Q532 335 497.5 306.5 Q463 278 413.5 264.5 Q364 251 302 251 L194 251 L194 0 L68 0 L68 700 Z M194 607 L194 344 L302 344 Q376 344 407 376 Q438 408 438 475 Q438 542 407 574.5 Q376 607 304 607 L194 607 Z M1398 159 Q1398 118 1382 86.5 Q1366 55 1337.5 33.5 Q1309 12 1269.5 1 Q1230 -10 1183 -10 Q1144 -10 1114 -6 Q1084 -2 1062 2.5 Q1040 7 1028 11 Q1016 15 1013 16 L1013 111 Q1044 100 1081 90.5 Q1118 81 1167 81 Q1280 81 1280 145 Q1280 170 1258.5 187.5 Q1237 205 1176 219 Q1129 229 1098.5 246 Q1068 263 1050 284.5 Q1032 306 1025 331 Q1018 356 1018 383 Q1018 417 1032 445.5 Q1046 474 1073 494.5 Q1100 515 1138.5 526.5 Q1177 538 1225 538 Q1255 538 1281.5 535 Q1308 532 1328 528 Q1351 524 1371 519 L1371 424 Q1362 427 1347 430.5 Q1332 434 1314 438 Q1296 442 1276 444.5 Q1256 447 1237 447 Q1186 447 1158.5 433 Q1131 419 1131 391 Q1131 380 1135 370 Q1139 360 1149 352 Q1159 344 1176 336.5 Q1193 329 1219 322 Q1313 299 1355.5 261.5 Q1398 224 1398 159 Z M803 -10 Q749 -10 721.5 13.5 Q694 37 694 94 L694 440 L624 440 L624 526 L688 526 L739 670 L813 670 L813 526 L934 526 L934 440 L813 440 L813 82 L946 82 L946 0 Q921 -3 895 -5 Q873 -7 848 -8.5 Q823 -10 803 -10 Z " />
<glyph glyph-name="Euro" unicode="&#x20ac;" horiz-adv-x="636" d="M589 17 Q562 7 524 -1.5 Q486 -10 425 -10 Q301 -10 223.5 53.5 Q146 117 126 253 L37 253 L37 323 L121 323 Q120 328 120 334 Q120 340 120 345 Q120 353 120 360.5 Q120 368 121 376 L37 376 L37 446 L129 446 Q141 513 168 562.5 Q195 612 235 645 Q275 678 326.5 694 Q378 710 439 710 Q497 710 535 703 Q573 696 580 693 L580 591 Q565 595 551.5 598 Q538 601 524.5 603.5 Q511 606 495.5 607.5 Q480 609 460 609 Q372 609 324.5 568 Q277 527 261 446 L443 446 L443 376 L254 376 Q253 371 253 365.5 Q253 360 253 355 Q253 347 253 339 Q253 331 254 323 L443 323 L443 253 L262 253 Q276 172 320 132 Q364 92 446 92 Q467 92 485 94 Q503 96 520 100 Q537 104 553.5 108.5 Q570 113 589 119 L589 17 L589 17 Z " />
<glyph glyph-name="uni2113" unicode="&#x2113;" horiz-adv-x="416" d="M390 28 Q379 21 363 14.5 Q347 8 329 2.5 Q311 -3 293.5 -6.5 Q276 -10 263 -10 Q186 -10 144.5 18 Q103 46 103 118 L53 66 L7 121 L103 227 L103 541 Q103 636 146.5 679 Q190 722 257 722 Q284 722 308.5 714.5 Q333 707 351 690.5 Q369 674 379.5 647.5 Q390 621 390 582 Q390 542 379.5 502.5 Q369 463 346.5 419.5 Q324 376 288.5 328 Q253 280 203 224 L203 129 Q203 95 218 82.5 Q233 70 265 70 Q290 70 319.5 77 Q349 84 367 94 L390 28 Z M203 341 Q255 412 273 469.5 Q291 527 291 579 Q291 617 280.5 633.5 Q270 650 250 650 Q230 650 216.5 618.5 Q203 587 203 524 L203 341 Z " />
<glyph glyph-name="trademark" unicode="&#x2122;" horiz-adv-x="770" d="M448 387 L385 387 L385 700 L469 700 L543 552 L612 700 L701 700 L701 387 L628 387 L628 603 L569 480 L506 480 L448 598 L448 387 Z M55 700 L322 700 L322 638 L226 638 L226 387 L152 387 L152 638 L55 638 L55 700 Z " />
<glyph glyph-name="estimated" unicode="&#x212e;" horiz-adv-x="793" d="M582 366 L592 379 L592 589 Q559 627 511 647.5 Q463 668 404 668 Q282 668 212 589 L212 379 L221 366 L582 366 Z M212 311 L212 130 Q247 80 299 54.5 Q351 29 414 29 Q487 29 545 56 Q603 83 643 135 L704 135 Q651 65 580 27.5 Q509 -10 414 -10 Q337 -10 270 18 Q203 46 153.5 95 Q104 144 75 209 Q46 274 46 349 Q46 424 74.5 489.5 Q103 555 152 603.5 Q201 652 266 679.5 Q331 707 404 707 Q476 707 539 680 Q602 653 650 606.5 Q698 560 728 498 Q758 436 763 366 L763 364 L731 324 L221 324 L212 311 Z " />
<glyph glyph-name="partialdiff" unicode="&#x2202;" horiz-adv-x="539" d="M374 264 Q374 449 263 449 Q206 449 179 403 Q152 357 152 264 Q152 171 179 125 Q206 79 263 79 Q374 79 374 264 Z M498 264 Q498 194 479.5 142.5 Q461 91 429 57 Q397 23 354 6.5 Q311 -10 263 -10 Q214 -10 171.5 6.5 Q129 23 97 57 Q65 91 46.5 142.5 Q28 194 28 264 Q28 334 46.5 385.5 Q65 437 97 471 Q129 505 171.5 521.5 Q214 538 263 538 Q295 538 323 521 Q292 572 249 615 Q206 658 158 687 L205 738 Q275 706 329.5 657.5 Q384 609 421.5 547.5 Q459 486 478.5 414 Q498 342 498 264 Z " />
<glyph glyph-name="product" unicode="&#x220f;" horiz-adv-x="719" d="M36 700 L683 700 L683 615 L610 615 L610 0 L483 0 L483 615 L235 615 L235 0 L108 0 L108 615 L36 615 L36 700 Z " />
<glyph glyph-name="summation" unicode="&#x2211;" horiz-adv-x="577" d="M531 0 L41 0 L41 74 L293 355 L41 637 L41 700 L527 700 L527 613 L199 613 L410 382 L410 345 L182 87 L531 87 L531 0 Z " />
<glyph glyph-name="minus" unicode="&#x2212;" horiz-adv-x="543" d="M64 375 L479 375 L479 300 L64 300 L64 375 Z " />
<glyph glyph-name="uni2215" unicode="&#x2215;" horiz-adv-x="534" d="M-17 0 L482 700 L552 700 L54 0 L-17 0 Z " />
<glyph glyph-name="uni2219" unicode="&#x2219;" horiz-adv-x="247" d="M53 375 Q53 401 73.5 421.5 Q94 442 123 442 Q152 442 173 421.5 Q194 401 194 375 Q194 348 173 328 Q152 308 123 308 Q94 308 73.5 328 Q53 348 53 375 Z " />
<glyph glyph-name="radical" unicode="&#x221a;" horiz-adv-x="575" d="M105 421 L26 387 L1 448 L184 535 L344 209 L494 958 L565 946 L361 -55 L105 421 Z " />
<glyph glyph-name="infinity" unicode="&#x221e;" horiz-adv-x="851" d="M620 429 Q598 429 578 420.5 Q558 412 539.5 398 Q521 384 504 366.5 Q487 349 472 331 Q487 314 504 297 Q521 280 539.5 266.5 Q558 253 578 244.5 Q598 236 620 236 Q668 236 694 262 Q720 288 720 332 Q720 377 694 403 Q668 429 620 429 Z M231 429 Q183 429 157 403 Q131 377 131 332 Q131 288 157 262 Q183 236 231 236 Q253 236 273.5 244.5 Q294 253 313 266.5 Q332 280 349 297 Q366 314 381 331 Q366 349 349 366.5 Q332 384 313 398 Q294 412 273.5 420.5 Q253 429 231 429 Z M46 332 Q46 367 58.5 398.5 Q71 430 95 453.5 Q119 477 153 490.5 Q187 504 230 504 Q262 504 289.5 494 Q317 484 341 468 Q365 452 386 432 Q407 412 426 392 Q444 412 464.5 432 Q485 452 509 468 Q533 484 561 494 Q589 504 622 504 Q665 504 698.5 490.5 Q732 477 755.5 453.5 Q779 430 791.5 398.5 Q804 367 804 332 Q804 297 793 266 Q782 235 759.5 211.5 Q737 188 702.5 174.5 Q668 161 622 161 Q591 161 563.5 171 Q536 181 511.5 196.5 Q487 212 466 231.5 Q445 251 427 270 Q408 250 387.5 230.5 Q367 211 343 195.5 Q319 180 291 170.5 Q263 161 230 161 Q183 161 148.5 174.5 Q114 188 91.5 211 Q69 234 57.5 265.5 Q46 297 46 332 Z " />
<glyph glyph-name="integral" unicode="&#x222b;" horiz-adv-x="587" d="M103 -136 Q75 -136 48 -132 Q21 -128 -1 -123 L14 -45 Q34 -49 56 -52 Q78 -55 94 -55 Q137 -55 165.5 -36.5 Q194 -18 199 36 L270 642 Q280 738 332 779.5 Q384 821 484 821 Q513 821 540.5 817 Q568 813 588 808 L572 730 Q553 734 531.5 737 Q510 740 493 740 Q451 740 423 721.5 Q395 703 389 649 L316 44 Q307 -53 256 -94.5 Q205 -136 103 -136 Z " />
<glyph glyph-name="approxequal" unicode="&#x2248;" horiz-adv-x="565" d="M59 219 Q83 267 117 296.5 Q151 326 196 326 Q227 326 252.5 314 Q278 302 299.5 288 Q321 274 340.5 262 Q360 250 380 250 Q394 250 405 261 L468 319 L509 284 Q484 236 450 207 Q416 178 371 178 Q341 178 315.5 189.5 Q290 201 267 215.5 Q244 230 223.5 241.5 Q203 253 182 253 Q169 253 158 243 L99 185 L59 219 Z M59 388 Q83 436 117 465 Q151 494 196 494 Q227 494 252.5 482.5 Q278 471 299.5 456.5 Q321 442 340.5 430.5 Q360 419 380 419 Q391 419 413 438 L468 487 L509 452 Q484 404 450 375.5 Q416 347 371 347 Q341 347 315.5 358.5 Q290 370 267.5 384.5 Q245 399 224.5 410.5 Q204 422 184 422 Q168 422 149 403 L99 354 L59 388 Z " />
<glyph glyph-name="notequal" unicode="&#x2260;" horiz-adv-x="535" d="M61 454 L292 454 L330 533 L393 533 L355 454 L475 454 L475 379 L320 379 L279 293 L475 293 L475 218 L244 218 L207 140 L143 140 L180 218 L61 218 L61 293 L215 293 L257 379 L61 379 L61 454 Z " />
<glyph glyph-name="lessequal" unicode="&#x2264;" horiz-adv-x="549" d="M62 161 L483 161 L483 86 L62 86 L62 161 Z M62 364 L62 420 L483 570 L483 492 L183 393 L483 290 L483 212 L62 364 Z " />
<glyph glyph-name="greaterequal" unicode="&#x2265;" horiz-adv-x="550" d="M66 86 L66 161 L486 161 L486 86 L66 86 Z M66 290 L366 392 L66 492 L66 570 L486 420 L486 364 L66 213 L66 290 Z " />
<glyph glyph-name="lozenge" unicode="&#x25ca;" horiz-adv-x="569" d="M229 -80 L25 343 L229 782 L341 782 L544 360 L340 -80 L229 -80 Z M448 349 L284 693 L121 353 L285 9 L448 349 Z " />
<glyph glyph-name="f_f" unicode="&#xfb00;" horiz-adv-x="707" d="M215 440 L215 0 L96 0 L96 440 L24 440 L24 526 L96 526 L96 560 Q96 599 105.5 632 Q115 665 136 689 Q157 713 191 726.5 Q225 740 275 740 Q298 740 320 737.5 Q342 735 354 733 L354 652 Q351 653 341 653.5 Q331 654 319.5 654.5 Q308 655 298.5 655 Q289 655 287 655 Q244 655 229.5 634.5 Q215 614 215 567 L215 526 L337 526 L337 440 L215 440 Z M573 440 L573 0 L454 0 L454 440 L382 440 L382 526 L454 526 L454 560 Q454 599 463.5 632 Q473 665 494 689 Q515 713 549 726.5 Q583 740 633 740 Q656 740 678 737.5 Q700 735 712 733 L712 652 Q709 653 699 653.5 Q689 654 677.5 654.5 Q666 655 656.5 655 Q647 655 645 655 Q602 655 587.5 634.5 Q573 614 573 567 L573 526 L695 526 L695 440 L573 440 Z " />
<glyph glyph-name="fi" unicode="&#xfb01;" horiz-adv-x="619" d="M555 528 L555 0 L436 0 L436 528 L555 528 Z M426 671 Q426 701 443 719 Q460 737 495 737 Q530 737 547.5 719 Q565 701 565 671 Q565 642 547.5 623.5 Q530 605 495 605 Q460 605 443 623.5 Q426 642 426 671 Z M215 440 L215 0 L96 0 L96 440 L24 440 L24 526 L96 526 L96 560 Q96 599 105.5 632 Q115 665 136 689 Q157 713 191 726.5 Q225 740 275 740 Q298 740 320 737.5 Q342 735 354 733 L354 652 Q351 653 341 653.5 Q331 654 319.5 654.5 Q308 655 298.5 655 Q289 655 287 655 Q244 655 229.5 634.5 Q215 614 215 567 L215 526 L337 526 L337 440 L215 440 Z " />
<glyph glyph-name="fl" unicode="&#xfb02;" horiz-adv-x="621" d="M556 730 L556 0 L437 0 L437 730 L556 730 Z M215 440 L215 0 L96 0 L96 440 L24 440 L24 526 L96 526 L96 560 Q96 599 105.5 632 Q115 665 136 689 Q157 713 191 726.5 Q225 740 275 740 Q298 740 320 737.5 Q342 735 354 733 L354 652 Q351 653 341 653.5 Q331 654 319.5 654.5 Q308 655 298.5 655 Q289 655 287 655 Q244 655 229.5 634.5 Q215 614 215 567 L215 526 L337 526 L337 440 L215 440 Z " />
<glyph glyph-name="f_f_i" unicode="&#xfb03;" horiz-adv-x="976" d="M913 528 L913 0 L794 0 L794 528 L913 528 Z M784 671 Q784 701 801 719 Q818 737 853 737 Q888 737 905.5 719 Q923 701 923 671 Q923 642 905.5 623.5 Q888 605 853 605 Q818 605 801 623.5 Q784 642 784 671 Z M215 440 L215 0 L96 0 L96 440 L24 440 L24 526 L96 526 L96 560 Q96 599 105.5 632 Q115 665 136 689 Q157 713 191 726.5 Q225 740 275 740 Q298 740 320 737.5 Q342 735 354 733 L354 652 Q351 653 341 653.5 Q331 654 319.5 654.5 Q308 655 298.5 655 Q289 655 287 655 Q244 655 229.5 634.5 Q215 614 215 567 L215 526 L337 526 L337 440 L215 440 Z M573 440 L573 0 L454 0 L454 440 L382 440 L382 526 L454 526 L454 560 Q454 599 463.5 632 Q473 665 494 689 Q515 713 549 726.5 Q583 740 633 740 Q656 740 678 737.5 Q700 735 712 733 L712 652 Q709 653 699 653.5 Q689 654 677.5 654.5 Q666 655 656.5 655 Q647 655 645 655 Q602 655 587.5 634.5 Q573 614 573 567 L573 526 L695 526 L695 440 L573 440 Z " />
<glyph glyph-name="f_f_l" unicode="&#xfb04;" horiz-adv-x="980" d="M915 730 L915 0 L796 0 L796 730 L915 730 Z M215 440 L215 0 L96 0 L96 440 L24 440 L24 526 L96 526 L96 560 Q96 599 105.5 632 Q115 665 136 689 Q157 713 191 726.5 Q225 740 275 740 Q298 740 320 737.5 Q342 735 354 733 L354 652 Q351 653 341 653.5 Q331 654 319.5 654.5 Q308 655 298.5 655 Q289 655 287 655 Q244 655 229.5 634.5 Q215 614 215 567 L215 526 L337 526 L337 440 L215 440 Z M573 440 L573 0 L454 0 L454 440 L382 440 L382 526 L454 526 L454 560 Q454 599 463.5 632 Q473 665 494 689 Q515 713 549 726.5 Q583 740 633 740 Q656 740 678 737.5 Q700 735 712 733 L712 652 Q709 653 699 653.5 Q689 654 677.5 654.5 Q666 655 656.5 655 Q647 655 645 655 Q602 655 587.5 634.5 Q573 614 573 567 L573 526 L695 526 L695 440 L573 440 Z " />
<glyph glyph-name="longs_t" unicode="&#xfb05;" horiz-adv-x="685" d="M215 0 L96 0 L96 440 L24 440 L24 526 L96 526 L96 560 Q96 599 105.5 632 Q115 665 136 689 Q157 713 191 726.5 Q225 740 275 740 Q298 740 320 737.5 Q342 735 354 733 L354 652 Q351 653 341 653.5 Q331 654 319.5 654.5 Q308 655 298.5 655 Q289 655 287 655 Q244 655 229.5 634.5 Q215 614 215 567 L215 0 Z M525 -10 Q471 -10 443.5 13.5 Q416 37 416 94 L416 440 L346 440 L346 526 L410 526 L461 670 L535 670 L535 526 L656 526 L656 440 L535 440 L535 82 L668 82 L668 0 Q643 -3 617 -5 Q595 -7 570 -8.5 Q545 -10 525 -10 Z " />
<glyph glyph-name="uniF8FF" unicode="&#xf8ff;" horiz-adv-x="1420" d="M378 488 Q389 488 389 477 L389 471 Q398 478 411.5 485 Q425 492 447 492 Q465 492 477.5 484.5 Q490 477 498 466 Q506 473 521 482.5 Q536 492 562 492 Q588 492 603.5 476.5 Q619 461 619 438 L619 306 Q619 295 607 295 L569 295 Q556 295 556 306 L556 422 Q556 431 553.5 434.5 Q551 438 542 438 Q531 438 520.5 433 Q510 428 504 423 L504 306 Q504 295 493 295 L455 295 Q443 295 443 306 L443 422 Q443 431 440.5 434.5 Q438 438 428 438 Q417 438 406.5 433 Q396 428 391 423 L391 306 Q391 295 381 295 L340 295 Q329 295 329 306 L329 477 Q329 488 340 488 L378 488 Z M1043 488 Q1055 488 1055 477 L1056 470 Q1064 477 1078 484.5 Q1092 492 1116 492 Q1145 492 1159 476 Q1173 460 1173 432 L1173 352 Q1173 323 1159 306.5 Q1145 290 1116 290 Q1093 290 1079.5 297.5 Q1066 305 1058 311 L1058 228 Q1058 217 1047 217 L1007 217 Q996 217 996 228 L996 477 Q996 488 1007 488 L1043 488 Z M296 388 Q296 377 284 377 L191 377 L191 354 Q191 336 214 336 Q239 336 239 354 L239 355 Q239 366 250 366 L282 366 Q294 366 294 355 L294 352 Q294 324 276.5 307 Q259 290 214 290 Q169 290 149 307 Q129 324 129 352 L129 431 Q129 460 149 476 Q169 492 214 492 Q259 492 277.5 476 Q296 460 296 431 L296 388 Z M1370 388 Q1370 377 1359 377 L1265 377 L1265 354 Q1265 336 1288 336 Q1312 336 1312 354 L1312 355 Q1312 366 1324 366 L1356 366 Q1367 366 1367 355 L1367 352 Q1367 324 1350 307 Q1333 290 1288 290 Q1243 290 1223.5 307 Q1204 324 1204 352 L1204 431 Q1204 460 1223.5 476 Q1243 492 1288 492 Q1333 492 1351.5 476 Q1370 460 1370 431 L1370 388 Z M872 407 Q876 393 877.5 382 Q879 371 879 370 Q880 371 883.5 383.5 Q887 396 889 405 L913 477 Q915 482 917 485 Q919 488 925 488 L962 488 Q976 488 973 477 L889 228 Q885 217 875 217 L847 217 Q833 217 836 228 L852 287 L787 477 Q783 488 798 488 L838 488 Q844 488 846 485 Q848 482 850 477 L872 407 Z M762 487 Q773 487 773 477 L773 450 Q773 439 762 439 L731 439 L731 362 Q731 344 755 344 L765 344 Q777 344 777 333 L777 306 Q777 295 765 295 L746 295 Q701 295 684.5 309.5 Q668 324 668 355 L668 439 L651 439 Q640 439 640 450 L640 475 Q640 483 651 486 L667 487 L668 487 L668 523 Q668 535 680 535 L719 535 Q731 535 731 523 L731 487 L762 487 Z M472 98 Q472 94 468 94 L354 94 L354 46 Q354 32 364.5 22.5 Q375 13 404 13 Q433 13 442.5 22.5 Q452 32 452 46 L452 54 Q452 58 458 58 L467 58 Q472 58 472 54 L472 45 Q472 24 457.5 10.5 Q443 -3 403 -3 Q364 -3 349 10.5 Q334 24 334 45 L334 147 Q334 168 349 181.5 Q364 195 404 195 Q443 195 457.5 181.5 Q472 168 472 147 L472 98 Z M154 188 L154 171 Q162 177 179.5 186 Q197 195 221 195 Q249 195 262 182 Q275 169 275 149 L275 5 Q275 0 271 0 L260 0 Q256 0 256 5 L256 145 Q256 159 246.5 167.5 Q237 176 217 176 Q194 176 177.5 167.5 Q161 159 155 153 L155 5 Q155 0 151 0 L140 0 Q135 0 135 5 L135 188 Q135 192 140 192 L149 192 Q154 192 154 188 Z M603 191 Q607 191 607 187 L607 179 Q607 174 603 174 L556 174 L556 50 Q556 36 567 26.5 Q578 17 606 17 L612 17 Q617 17 617 12 L617 5 Q617 0 612 0 L603 0 Q564 0 550.5 12.5 Q537 25 537 48 L537 174 L512 174 Q508 174 508 179 L508 186 Q508 190 512 191 L537 191 L537 232 Q537 237 541 237 L552 237 Q556 237 556 232 L556 191 L603 191 Z M354 110 L452 110 L452 146 Q452 160 442 169 Q432 178 404 178 Q375 178 364.5 169 Q354 160 354 146 L354 110 Z M1112 423 Q1112 428 1109.5 433 Q1107 438 1095 438 Q1084 438 1074 432.5 Q1064 427 1058 423 L1058 360 Q1064 356 1074 350 Q1084 344 1095 344 Q1107 344 1109.5 350 Q1112 356 1112 361 L1112 423 Z M191 417 L239 417 L239 428 Q239 446 214 446 Q191 446 191 428 L191 417 Z M1265 417 L1312 417 L1312 428 Q1312 446 1288 446 Q1265 446 1265 428 L1265 417 Z M70 5 Q70 0 65 0 L54 0 Q50 0 50 5 L50 35 Q50 40 54 40 L65 40 Q70 40 70 35 L70 5 Z " />
<glyph glyph-name="zero.tab" unicode="&#xff10;" horiz-adv-x="600" d="M568 350 Q568 258 548.5 190.5 Q529 123 493.5 78.5 Q458 34 408.5 12 Q359 -10 300 -10 Q240 -10 190.5 12 Q141 34 105.5 78.5 Q70 123 50.5 190.5 Q31 258 31 350 Q31 442 50.5 509.5 Q70 577 105.5 621.5 Q141 666 190.5 688 Q240 710 300 710 Q359 710 408.5 688 Q458 666 493.5 621.5 Q529 577 548.5 509.5 Q568 442 568 350 Z M435 350 Q435 483 404 547.5 Q373 612 300 612 Q226 612 195 547.5 Q164 483 164 350 Q164 218 195 153 Q226 88 300 88 Q373 88 404 153 Q435 218 435 350 Z " />
<glyph glyph-name="one.tab" unicode="&#xff11;" horiz-adv-x="600" d="M215 664 Q232 664 248.5 668.5 Q265 673 278.5 679.5 Q292 686 301 694 Q310 702 313 710 L377 710 L377 84 L512 84 L512 0 L116 0 L116 84 L250 84 L250 579 L116 579 L116 664 L215 664 Z " />
<glyph glyph-name="two.tab" unicode="&#xff12;" horiz-adv-x="600" d="M76 662 Q80 664 98.5 671.5 Q117 679 146.5 687.5 Q176 696 214 703 Q252 710 296 710 Q359 710 402.5 694.5 Q446 679 473.5 653.5 Q501 628 513.5 594.5 Q526 561 526 525 Q526 487 514.5 456.5 Q503 426 479 397.5 Q455 369 417.5 339.5 Q380 310 329 276 Q287 250 261 231 Q235 212 220 195.5 Q205 179 200 163.5 Q195 148 195 129 L195 104 L536 104 L536 0 L67 0 L67 123 Q67 154 76 180.5 Q85 207 106.5 234 Q128 261 164 290 Q200 319 253 354 Q294 381 321 401.5 Q348 422 364.5 441 Q381 460 388 478.5 Q395 497 395 520 Q395 559 368 584.5 Q341 610 278 610 Q220 610 171.5 598 Q123 586 76 566 L76 662 Z " />
<glyph glyph-name="three.tab" unicode="&#xff13;" horiz-adv-x="600" d="M84 676 Q110 685 140 693 Q166 699 200 704.5 Q234 710 274 710 Q339 710 384.5 694.5 Q430 679 458.5 654 Q487 629 499.5 596.5 Q512 564 512 530 Q512 491 502.5 462.5 Q493 434 476 413.5 Q459 393 435.5 379.5 Q412 366 384 359 L384 356 Q449 341 486 302 Q523 263 523 188 Q523 151 509.5 115.5 Q496 80 466 52 Q436 24 388 7 Q340 -10 271 -10 Q189 -10 140.5 1 Q92 12 74 18 L74 115 Q115 101 159.5 93 Q204 85 258 85 Q328 85 360.5 118 Q393 151 393 198 Q393 230 383 252.5 Q373 275 355.5 288.5 Q338 302 313.5 308 Q289 314 261 314 L194 314 L194 405 L263 405 Q288 405 309.5 410.5 Q331 416 347.5 429 Q364 442 373.5 463 Q383 484 383 514 Q383 558 355.5 586.5 Q328 615 260 615 Q210 615 167 607 Q124 599 84 585 L84 676 Z " />
<glyph glyph-name="four.tab" unicode="&#xff14;" horiz-adv-x="600" d="M26 271 L360 710 L478 710 L478 271 L568 271 L568 174 L478 174 L478 0 L351 0 L351 174 L26 174 L26 271 Z M351 552 L135 271 L351 271 L351 552 Z " />
<glyph glyph-name="five.tab" unicode="&#xff15;" horiz-adv-x="600" d="M504 596 L196 596 L196 430 L276 430 Q401 430 471 377.5 Q541 325 541 217 Q541 176 526.5 135.5 Q512 95 480.5 62.5 Q449 30 399 9.5 Q349 -11 278 -11 Q235 -11 200 -7 Q165 -3 138.5 3 Q112 9 95 14.5 Q78 20 71 23 L71 125 Q114 110 159.5 99 Q205 88 268 88 Q306 88 333.5 98 Q361 108 378.5 124 Q396 140 404 161 Q412 182 412 205 Q412 241 400.5 265.5 Q389 290 368.5 304 Q348 318 320 324 Q292 330 258 330 L92 330 L92 700 L504 700 L504 596 Z " />
<glyph glyph-name="six.tab" unicode="&#xff16;" horiz-adv-x="600" d="M556 218 Q556 160 536.5 117.5 Q517 75 483.5 46.5 Q450 18 406 4 Q362 -10 313 -10 Q254 -10 207 8.5 Q160 27 127 65.5 Q94 104 76 163.5 Q58 223 58 305 Q58 387 73.5 460.5 Q89 534 125 589.5 Q161 645 220.5 677.5 Q280 710 368 710 Q417 710 453 703 Q489 696 496 692 L496 595 Q469 606 441.5 610.5 Q414 615 382 615 Q327 615 290.5 597 Q254 579 231 546 Q208 513 197.5 466.5 Q187 420 184 362 Q213 388 255 406.5 Q297 425 347 425 Q388 425 426 412.5 Q464 400 493 374.5 Q522 349 539 310 Q556 271 556 218 Z M316 81 Q371 81 403 113.5 Q435 146 435 212 Q435 273 403.5 304 Q372 335 318 335 Q279 335 244 316.5 Q209 298 184 274 Q189 173 221.5 127 Q254 81 316 81 Z " />
<glyph glyph-name="seven.tab" unicode="&#xff17;" horiz-adv-x="600" d="M161 0 L395 594 L70 594 L70 700 L535 700 L535 635 L294 0 L161 0 Z " />
<glyph glyph-name="eight.tab" unicode="&#xff18;" horiz-adv-x="600" d="M295 -10 Q226 -10 179.5 5 Q133 20 104 45 Q75 70 62.5 101 Q50 132 50 165 Q50 209 64 240.5 Q78 272 98 293.5 Q118 315 141.5 328.5 Q165 342 184 350 Q160 363 140 379 Q120 395 105 415.5 Q90 436 81.5 460.5 Q73 485 73 516 Q73 560 89.5 596 Q106 632 137 657.5 Q168 683 211 696.5 Q254 710 308 710 Q371 710 413 694.5 Q455 679 480.5 654.5 Q506 630 516.5 600.5 Q527 571 527 543 Q527 485 496.5 445 Q466 405 422 381 Q479 355 514 314.5 Q549 274 549 203 Q549 151 530.5 111 Q512 71 478.5 44 Q445 17 398 3.5 Q351 -10 295 -10 Z M181 537 Q181 517 188.5 500.5 Q196 484 214 469.5 Q232 455 262.5 441 Q293 427 339 412 Q372 429 398 457 Q424 485 424 524 Q424 567 393.5 594.5 Q363 622 301 622 Q245 622 213 598.5 Q181 575 181 537 Z M297 78 Q361 78 394.5 107.5 Q428 137 428 181 Q428 208 417 228 Q406 248 384.5 263.5 Q363 279 332.5 291.5 Q302 304 263 316 Q253 311 235 301 Q217 291 200 274.5 Q183 258 170 235.5 Q157 213 157 184 Q157 163 164 144 Q171 125 187.5 110.5 Q204 96 231 87 Q258 78 297 78 Z " />
<glyph glyph-name="nine.tab" unicode="&#xff19;" horiz-adv-x="600" d="M283 365 Q321 365 356.5 383.5 Q392 402 417 426 Q412 526 380 572 Q348 618 285 618 Q229 618 197.5 586 Q166 554 166 488 Q166 427 197.5 396 Q229 365 283 365 Z M233 -10 Q184 -10 148 -3 Q112 4 105 8 L105 105 Q132 94 159.5 89.5 Q187 85 219 85 Q274 85 310.5 103 Q347 121 370 154 Q393 187 403.5 233.5 Q414 280 417 337 Q388 311 346 293 Q304 275 254 275 Q213 275 175 287.5 Q137 300 108 325.5 Q79 351 62 390 Q45 429 45 482 Q45 539 64.5 582 Q84 625 117.5 653.5 Q151 682 195 696 Q239 710 288 710 Q406 710 474.5 634 Q543 558 543 395 Q543 313 527.5 239.5 Q512 166 476 110.5 Q440 55 380.5 22.5 Q321 -10 233 -10 Z " />
<glyph glyph-name="uni215F" unicode="&#x215f;" horiz-adv-x="357" d="M79 376 L79 431 L136 431 L136 621 L79 621 L79 677 L128 677 Q144 677 155.5 685.5 Q167 694 169 703 L217 703 L217 431 L275 431 L275 376 L79 376 Z M46 0 L545 700 L615 700 L117 0 L46 0 Z " />
<glyph glyph-name="uni2153" unicode="&#x2153;" horiz-adv-x="642" d="M63 376 L63 431 L120 431 L120 621 L63 621 L63 677 L112 677 Q128 677 139.5 685.5 Q151 694 153 703 L201 703 L201 431 L259 431 L259 376 L63 376 Z M32 0 L531 700 L601 700 L103 0 L32 0 Z M379 317 Q391 320 406 323 Q419 325 435 327 Q451 329 471 329 Q503 329 525.5 321.5 Q548 314 562 302 Q576 290 582 275 Q588 260 588 245 Q588 210 571 192 Q554 174 528 166 L528 163 Q559 156 576.5 139 Q594 122 594 89 Q594 71 587.5 54 Q581 37 566 23.5 Q551 10 527 2 Q503 -6 469 -6 Q430 -6 407.5 -1.5 Q385 3 374 6 L374 72 Q394 67 415 63 Q436 59 461 59 Q514 59 514 97 Q514 133 465 133 L429 133 L429 194 L465 194 Q510 194 510 231 Q510 245 499.5 254.5 Q489 264 463 264 Q446 264 421.5 260.5 Q397 257 379 252 L379 317 Z " />
<glyph glyph-name="uni2154" unicode="&#x2154;" horiz-adv-x="673" d="M49 376 L49 431 Q49 451 53 465.5 Q57 480 66.5 492.5 Q76 505 92.5 517 Q109 529 134 545 Q172 568 183.5 581 Q195 594 195 608 Q195 636 148 636 Q125 636 100.5 631 Q76 626 53 618 L53 683 Q67 689 84 694 Q98 698 117.5 701.5 Q137 705 160 705 Q191 705 213 697 Q235 689 248.5 675.5 Q262 662 268 645.5 Q274 629 274 611 Q274 593 269 578.5 Q264 564 252.5 550.5 Q241 537 223 523.5 Q205 510 179 495 Q153 478 143.5 470.5 Q134 463 134 452 L134 443 L282 443 L282 376 L49 376 Z M63 0 L562 700 L632 700 L134 0 L63 0 Z M410 317 Q422 320 437 323 Q450 325 466 327 Q482 329 502 329 Q534 329 556.5 321.5 Q579 314 593 302 Q607 290 613 275 Q619 260 619 245 Q619 210 602 192 Q585 174 559 166 L559 163 Q590 156 607.5 139 Q625 122 625 89 Q625 71 618.5 54 Q612 37 597 23.5 Q582 10 558 2 Q534 -6 500 -6 Q461 -6 438.5 -1.5 Q416 3 405 6 L405 72 Q425 67 446 63 Q467 59 492 59 Q545 59 545 97 Q545 133 496 133 L460 133 L460 194 L496 194 Q541 194 541 231 Q541 245 530.5 254.5 Q520 264 494 264 Q477 264 452.5 260.5 Q428 257 410 252 L410 317 Z " />
<glyph glyph-name="uni2155" unicode="&#x2155;" horiz-adv-x="652" d="M32 0 L531 700 L601 700 L103 0 L32 0 Z M63 376 L63 431 L120 431 L120 621 L63 621 L63 677 L112 677 Q128 677 139.5 685.5 Q151 694 153 703 L201 703 L201 431 L259 431 L259 376 L63 376 Z M448 258 L448 205 L480 205 Q540 205 573.5 179 Q607 153 607 107 Q607 87 599.5 67 Q592 47 576.5 31 Q561 15 536 5 Q511 -5 475 -5 Q433 -5 408 2 Q383 9 375 12 L375 79 Q397 72 417.5 67.5 Q438 63 469 63 Q500 63 513 75.5 Q526 88 526 105 Q526 126 510.5 134 Q495 142 468 142 L385 142 L385 324 L593 324 L593 258 L448 258 Z " />
<glyph glyph-name="five.denominator" unicode="&#xf65a;" horiz-adv-x="291" d="M105 258 L105 205 L137 205 Q197 205 230.5 179 Q264 153 264 107 Q264 87 256.5 67 Q249 47 233.5 31 Q218 15 193 5 Q168 -5 132 -5 Q90 -5 65 2 Q40 9 32 12 L32 79 Q54 72 74.5 67.5 Q95 63 126 63 Q157 63 170 75.5 Q183 88 183 105 Q183 126 167.5 134 Q152 142 125 142 L42 142 L42 324 L250 324 L250 258 L105 258 Z " />
<glyph glyph-name="uni2156" unicode="&#x2156;" horiz-adv-x="685" d="M49 376 L49 431 Q49 451 53 465.5 Q57 480 66.5 492.5 Q76 505 92.5 517 Q109 529 134 545 Q172 568 183.5 581 Q195 594 195 608 Q195 636 148 636 Q125 636 100.5 631 Q76 626 53 618 L53 683 Q67 689 84 694 Q98 698 117.5 701.5 Q137 705 160 705 Q191 705 213 697 Q235 689 248.5 675.5 Q262 662 268 645.5 Q274 629 274 611 Q274 593 269 578.5 Q264 564 252.5 550.5 Q241 537 223 523.5 Q205 510 179 495 Q153 478 143.5 470.5 Q134 463 134 452 L134 443 L282 443 L282 376 L49 376 Z M481 258 L481 205 L513 205 Q573 205 606.5 179 Q640 153 640 107 Q640 87 632.5 67 Q625 47 609.5 31 Q594 15 569 5 Q544 -5 508 -5 Q466 -5 441 2 Q416 9 408 12 L408 79 Q430 72 450.5 67.5 Q471 63 502 63 Q533 63 546 75.5 Q559 88 559 105 Q559 126 543.5 134 Q528 142 501 142 L418 142 L418 324 L626 324 L626 258 L481 258 Z M65 0 L564 700 L634 700 L136 0 L65 0 Z " />
<glyph glyph-name="uni2157" unicode="&#x2157;" horiz-adv-x="660" d="M456 258 L456 205 L488 205 Q548 205 581.5 179 Q615 153 615 107 Q615 87 607.5 67 Q600 47 584.5 31 Q569 15 544 5 Q519 -5 483 -5 Q441 -5 416 2 Q391 9 383 12 L383 79 Q405 72 425.5 67.5 Q446 63 477 63 Q508 63 521 75.5 Q534 88 534 105 Q534 126 518.5 134 Q503 142 476 142 L393 142 L393 324 L601 324 L601 258 L456 258 Z M40 0 L539 700 L609 700 L111 0 L40 0 Z M61 693 Q73 696 88 699 Q101 701 117 703 Q133 705 153 705 Q185 705 207.5 697.5 Q230 690 244 678 Q258 666 264 651 Q270 636 270 621 Q270 586 253 568 Q236 550 210 542 L210 539 Q241 532 258.5 515 Q276 498 276 465 Q276 447 269.5 430 Q263 413 248 399.5 Q233 386 209 378 Q185 370 151 370 Q112 370 89.5 374.5 Q67 379 56 382 L56 448 Q76 443 97 439 Q118 435 143 435 Q196 435 196 473 Q196 509 147 509 L111 509 L111 570 L147 570 Q192 570 192 607 Q192 621 181.5 630.5 Q171 640 145 640 Q128 640 103.5 636.5 Q79 633 61 628 L61 693 Z " />
<glyph glyph-name="uni2158" unicode="&#x2158;" horiz-adv-x="688" d="M35 510 L188 705 L258 705 L258 510 L298 510 L298 446 L258 446 L258 376 L181 376 L181 446 L35 446 L35 510 Z M181 613 L97 510 L181 510 L181 613 Z M483 258 L483 205 L515 205 Q575 205 608.5 179 Q642 153 642 107 Q642 87 634.5 67 Q627 47 611.5 31 Q596 15 571 5 Q546 -5 510 -5 Q468 -5 443 2 Q418 9 410 12 L410 79 Q432 72 452.5 67.5 Q473 63 504 63 Q535 63 548 75.5 Q561 88 561 105 Q561 126 545.5 134 Q530 142 503 142 L420 142 L420 324 L628 324 L628 258 L483 258 Z M67 0 L566 700 L636 700 L138 0 L67 0 Z " />
<glyph glyph-name="uni2159" unicode="&#x2159;" horiz-adv-x="640" d="M593 104 Q593 76 583 55.5 Q573 35 556.5 21.5 Q540 8 518 1.5 Q496 -5 472 -5 Q415 -5 382 30 Q349 65 349 142 Q349 175 356.5 208 Q364 241 381 268 Q398 295 427 312 Q456 329 500 329 Q523 329 539 325.5 Q555 322 571 317 L571 253 Q544 264 514 264 Q491 264 475.5 257.5 Q460 251 450 239.5 Q440 228 435 212.5 Q430 197 428 180 Q441 191 457.5 197.5 Q474 204 495 204 Q514 204 532 198 Q550 192 563.5 179.5 Q577 167 585 148 Q593 129 593 104 Z M481 57 Q502 57 514 68.5 Q526 80 526 101 Q526 121 514 133.5 Q502 146 479 146 Q465 146 451.5 140.5 Q438 135 426 127 Q429 90 442 73.5 Q455 57 481 57 Z M62 376 L62 431 L119 431 L119 621 L62 621 L62 677 L111 677 Q127 677 138.5 685.5 Q150 694 152 703 L200 703 L200 431 L258 431 L258 376 L62 376 Z M34 0 L533 700 L603 700 L105 0 L34 0 Z " />
<glyph glyph-name="six.denominator" unicode="&#xf65b;" horiz-adv-x="299" d="M273 104 Q273 76 263 55.5 Q253 35 236.5 21.5 Q220 8 198 1.5 Q176 -5 152 -5 Q95 -5 62 30 Q29 65 29 142 Q29 175 36.5 208 Q44 241 61 268 Q78 295 107 312 Q136 329 180 329 Q203 329 219 325.5 Q235 322 251 317 L251 253 Q224 264 194 264 Q171 264 155.5 257.5 Q140 251 130 239.5 Q120 228 115 212.5 Q110 197 108 180 Q121 191 137.5 197.5 Q154 204 175 204 Q194 204 212 198 Q230 192 243.5 179.5 Q257 167 265 148 Q273 129 273 104 Z M161 57 Q182 57 194 68.5 Q206 80 206 101 Q206 121 194 133.5 Q182 146 159 146 Q145 146 131.5 140.5 Q118 135 106 127 Q109 90 122 73.5 Q135 57 161 57 Z " />
<glyph glyph-name="uni215A" unicode="&#x215a;" horiz-adv-x="654" d="M605 104 Q605 76 595 55.5 Q585 35 568.5 21.5 Q552 8 530 1.5 Q508 -5 484 -5 Q427 -5 394 30 Q361 65 361 142 Q361 175 368.5 208 Q376 241 393 268 Q410 295 439 312 Q468 329 512 329 Q535 329 551 325.5 Q567 322 583 317 L583 253 Q556 264 526 264 Q503 264 487.5 257.5 Q472 251 462 239.5 Q452 228 447 212.5 Q442 197 440 180 Q453 191 469.5 197.5 Q486 204 507 204 Q526 204 544 198 Q562 192 575.5 179.5 Q589 167 597 148 Q605 129 605 104 Z M493 57 Q514 57 526 68.5 Q538 80 538 101 Q538 121 526 133.5 Q514 146 491 146 Q477 146 463.5 140.5 Q450 135 438 127 Q441 90 454 73.5 Q467 57 493 57 Z M124 634 L124 581 L156 581 Q216 581 249.5 555 Q283 529 283 483 Q283 463 275.5 443 Q268 423 252.5 407 Q237 391 212 381 Q187 371 151 371 Q109 371 84 378 Q59 385 51 388 L51 455 Q73 448 93.5 443.5 Q114 439 145 439 Q176 439 189 451.5 Q202 464 202 481 Q202 502 186.5 510 Q171 518 144 518 L61 518 L61 700 L269 700 L269 634 L124 634 Z M47 0 L546 700 L616 700 L118 0 L47 0 Z " />
<glyph glyph-name="uni215B" unicode="&#x215b;" horiz-adv-x="647" d="M34 0 L533 700 L603 700 L105 0 L34 0 Z M62 376 L62 431 L119 431 L119 621 L62 621 L62 677 L111 677 Q127 677 138.5 685.5 Q150 694 152 703 L200 703 L200 431 L258 431 L258 376 L62 376 Z M474 -5 Q440 -5 417 2 Q394 9 379.5 20.5 Q365 32 359 46.5 Q353 61 353 76 Q353 95 359 108.5 Q365 122 374.5 131.5 Q384 141 394.5 146 Q405 151 414 154 Q391 167 376.5 184.5 Q362 202 362 230 Q362 275 394.5 302 Q427 329 481 329 Q512 329 533 321 Q554 313 567 301 Q580 289 585 274.5 Q590 260 590 247 Q590 221 577.5 204.5 Q565 188 545 177 Q571 163 586 144 Q601 125 601 97 Q601 49 565.5 22 Q530 -5 474 -5 Z M433 242 Q433 224 452 214.5 Q471 205 499 196 Q510 202 517.5 212 Q525 222 525 236 Q525 253 513.5 263.5 Q502 274 479 274 Q458 274 445.5 265 Q433 256 433 242 Z M475 46 Q499 46 511.5 57 Q524 68 524 85 Q524 107 505 117 Q486 127 460 135 Q451 130 437 118.5 Q423 107 423 87 Q423 71 434 58.5 Q445 46 475 46 Z " />
<glyph glyph-name="eight.denominator" unicode="&#xf65d;" horiz-adv-x="306" d="M150 -5 Q116 -5 93 2 Q70 9 55.5 20.5 Q41 32 35 46.5 Q29 61 29 76 Q29 95 35 108.5 Q41 122 50.5 131.5 Q60 141 70.5 146 Q81 151 90 154 Q67 167 52.5 184.5 Q38 202 38 230 Q38 275 70.5 302 Q103 329 157 329 Q188 329 209 321 Q230 313 243 301 Q256 289 261 274.5 Q266 260 266 247 Q266 221 253.5 204.5 Q241 188 221 177 Q247 163 262 144 Q277 125 277 97 Q277 49 241.5 22 Q206 -5 150 -5 Z M109 242 Q109 224 128 214.5 Q147 205 175 196 Q186 202 193.5 212 Q201 222 201 236 Q201 253 189.5 263.5 Q178 274 155 274 Q134 274 121.5 265 Q109 256 109 242 Z M151 46 Q175 46 187.5 57 Q200 68 200 85 Q200 107 181 117 Q162 127 136 135 Q127 130 113 118.5 Q99 107 99 87 Q99 71 110 58.5 Q121 46 151 46 Z " />
</font>
</svg>
