<?xml version="1.0" encoding="UTF-8"?>
<svg xmlns="http://www.w3.org/2000/svg" xmlns:xlink="http://www.w3.org/1999/xlink" version="1.2" >
<font id="Catalana Sans Regular Italic">
<font-face  font-family="Catalana Sans" units-per-em="1000" ascent="1000" descent="-300" font-style="normal" font-weight="400" font-stretch="normal" slope="-12" cap-height="700" x-height="530" underline-position="-75" underline-thickness="50" />
<missing-glyph  horiz-adv-x="883" d="M328 516 Q343 524 374 537 Q405 550 443 550 Q480 550 505 541 Q530 532 545.5 517 Q561 502 568 483 Q575 464 575 445 Q575 408 558 383.5 Q541 359 501 339 Q473 325 463.5 315 Q454 305 452 291 L449 236 L404 236 L399 291 Q395 320 413 337 Q431 354 463 370 Q495 387 504 403 Q513 419 513 439 Q513 462 496.5 481 Q480 500 437 500 Q410 500 384.5 493 Q359 486 328 469 L328 516 Z M389 149 Q389 164 399.5 174.5 Q410 185 427 185 Q444 185 454 174.5 Q464 164 464 149 Q464 135 454 124.5 Q444 114 427 114 Q410 114 399.5 124.5 Q389 135 389 149 Z M80 349 Q80 424 108.5 490 Q137 556 186 604.5 Q235 653 301 681.5 Q367 710 442 710 Q517 710 583 681.5 Q649 653 697.5 604.5 Q746 556 774.5 490 Q803 424 803 349 Q803 274 774.5 209 Q746 144 696.5 95 Q647 46 581.5 18 Q516 -10 441 -10 Q366 -10 300 18 Q234 46 185.5 95 Q137 144 108.5 209 Q80 274 80 349 Z M126 349 Q126 284 150.5 226.5 Q175 169 218 126 Q261 83 318 58.5 Q375 34 441 34 Q507 34 564.5 58.5 Q622 83 664.5 126 Q707 169 732 226.5 Q757 284 757 349 Q757 415 732.5 473 Q708 531 665 573.5 Q622 616 565 641 Q508 666 442 666 Q376 666 318.5 641 Q261 616 218.5 573.5 Q176 531 151 473 Q126 415 126 349 Z " />
<glyph glyph-name="NULL" d="" />
<glyph glyph-name="nonmarkingreturn" unicode="&#xd;" d="" />
<glyph glyph-name="space" unicode="&#x20;" horiz-adv-x="235" d="" />
<glyph glyph-name="exclam" unicode="&#x21;" horiz-adv-x="243" d="M8 39 Q8 65 29 85 Q50 105 80 105 Q101 105 114.5 90.5 Q128 76 128 57 Q128 31 107.5 10.5 Q87 -10 56 -10 Q36 -10 22 4.5 Q8 19 8 39 Z M63 189 L110 493 L154 700 L259 700 L214 493 L133 189 L63 189 Z " />
<glyph glyph-name="quotedbl" unicode="&#x22;" horiz-adv-x="345" d="M247 461 L266 614 L286 700 L367 700 L347 614 L304 461 L247 461 Z M105 461 L124 614 L144 700 L225 700 L205 614 L162 461 L105 461 Z " />
<glyph glyph-name="numbersign" unicode="&#x23;" horiz-adv-x="539" d="M459 158 L349 158 L297 0 L238 0 L290 158 L165 158 L113 0 L54 0 L106 158 L24 158 L24 207 L122 207 L160 321 L64 321 L64 370 L176 370 L227 526 L286 526 L235 370 L360 370 L411 526 L470 526 L419 370 L499 370 L499 321 L403 321 L365 207 L459 207 L459 158 Z M181 207 L306 207 L344 321 L219 321 L181 207 Z " />
<glyph glyph-name="dollar" unicode="&#x24;" horiz-adv-x="553" d="M489 214 Q489 164 471 124.5 Q453 85 419.5 56.5 Q386 28 339 11.5 Q292 -5 235 -8 L215 -102 L172 -102 L191 -10 Q152 -9 120 -4 Q88 1 64.5 7.5 Q41 14 26 20 Q11 26 6 29 L22 106 Q67 89 110.5 78 Q154 67 207 66 L260 315 Q223 331 193 349 Q163 367 142 389.5 Q121 412 109.5 439.5 Q98 467 98 502 Q98 551 116 588.5 Q134 626 166.5 652 Q199 678 244 692 Q289 706 344 709 L361 787 L404 787 L387 710 Q452 708 493.5 696.5 Q535 685 546 681 L530 602 Q487 617 449 625.5 Q411 634 371 635 L320 396 Q360 379 391 361 Q422 343 444 321.5 Q466 300 477.5 274 Q489 248 489 214 Z M391 194 Q391 232 369.5 254.5 Q348 277 300 299 L251 70 Q320 78 355.5 111.5 Q391 145 391 194 Z M191 522 Q191 487 209.5 462 Q228 437 281 412 L328 633 Q262 626 226.5 598 Q191 570 191 522 Z " />
<glyph glyph-name="percent" unicode="&#x25;" horiz-adv-x="700" d="M145 488 Q145 459 156.5 443.5 Q168 428 195 428 Q219 428 236.5 445 Q254 462 265.5 486.5 Q277 511 282 539 Q287 567 287 589 Q287 648 238 648 Q213 648 195.5 631.5 Q178 615 166.5 591 Q155 567 150 539 Q145 511 145 488 Z M352 590 Q352 552 342 513 Q332 474 312 442.5 Q292 411 261.5 390.5 Q231 370 189 370 Q135 370 107.5 401.5 Q80 433 80 486 Q80 523 89.5 562.5 Q99 602 119.5 633.5 Q140 665 171 685.5 Q202 706 244 706 Q298 706 325 675 Q352 644 352 590 Z M434 112 Q434 83 445.5 67.5 Q457 52 484 52 Q508 52 525.5 69 Q543 86 554.5 110.5 Q566 135 571 163 Q576 191 576 213 Q576 272 527 272 Q502 272 484.5 255.5 Q467 239 455.5 215 Q444 191 439 163 Q434 135 434 112 Z M641 214 Q641 176 631 137 Q621 98 601 66.5 Q581 35 550.5 14.5 Q520 -6 478 -6 Q424 -6 396.5 25.5 Q369 57 369 110 Q369 147 378.5 186.5 Q388 226 408.5 257.5 Q429 289 460 309.5 Q491 330 533 330 Q587 330 614 299 Q641 268 641 214 Z M603 700 L665 700 L125 0 L64 0 L603 700 Z " />
<glyph glyph-name="ampersand" unicode="&#x26;" horiz-adv-x="695" d="M290 536 Q290 512 298.5 485 Q307 458 331 418 Q356 430 382 445 Q408 460 430 479.5 Q452 499 466 524.5 Q480 550 480 583 Q480 615 460 634.5 Q440 654 401 654 Q375 654 354 644.5 Q333 635 319 619 Q305 603 297.5 581.5 Q290 560 290 536 Z M242 60 Q282 60 321 77.5 Q360 95 398 127 L270 333 Q254 327 227 316 Q200 305 174.5 285.5 Q149 266 130 237 Q111 208 111 167 Q111 146 119 127 Q127 108 143 93 Q159 78 183.5 69 Q208 60 242 60 Z M433 71 Q385 34 329 12 Q273 -10 207 -10 Q157 -10 120.5 4 Q84 18 61 40.5 Q38 63 27 91.5 Q16 120 16 150 Q16 212 42 253 Q68 294 104 319 Q140 344 178.5 357 Q217 370 242 377 Q218 419 211.5 456 Q205 493 205 513 Q205 556 219 592 Q233 628 258.5 654 Q284 680 321 695 Q358 710 404 710 Q442 710 469.5 700 Q497 690 515 673.5 Q533 657 541.5 634.5 Q550 612 550 588 Q550 546 534 513.5 Q518 481 491 455 Q464 429 429.5 408.5 Q395 388 359 372 L467 199 Q497 237 523.5 281.5 Q550 326 570 376 L639 376 Q615 314 582 252.5 Q549 191 504 140 L541 79 Q549 65 566 65 L639 65 L625 0 L520 0 Q490 0 475 13 Q460 26 450 43 L433 71 Z " />
<glyph glyph-name="quotesingle" unicode="&#x27;" horiz-adv-x="203" d="M105 461 L124 614 L144 700 L225 700 L205 614 L162 461 L105 461 Z " />
<glyph glyph-name="parenleft" unicode="&#x28;" horiz-adv-x="325" d="M188 -114 Q119 -63 76.5 8.5 Q34 80 34 170 Q34 189 36.5 209 Q39 229 43 249 L81 436 Q95 505 122.5 558.5 Q150 612 188.5 654.5 Q227 697 275 731 Q323 765 378 797 L404 753 Q359 721 320.5 687.5 Q282 654 251 615.5 Q220 577 198 532.5 Q176 488 166 436 L128 249 Q123 224 120.5 201 Q118 178 118 155 Q118 86 149.5 32 Q181 -22 231 -72 L188 -114 L188 -114 Z " />
<glyph glyph-name="parenright" unicode="&#x29;" horiz-adv-x="325" d="M154.011 794.993 Q223.007 743.996 265.505 672.501 Q308.002 601.005 308.002 511.01 Q308.002 492.012 305.502 472.013 Q303.002 452.014 299.003 432.015 L261.005 245.027 Q247.006 176.031 219.507 122.534 Q192.009 69.0374 153.512 26.5399 Q115.014 -15.9575 67.0168 -49.9554 Q19.0197 -83.9533 -35.9769 -115.951 L-61.9753 -71.954 Q-16.9781 -39.956 21.5196 -6.45804 Q60.0172 27.0399 91.0153 65.5376 Q122.013 104.035 144.012 148.533 Q166.011 193.03 176.01 245.027 L214.008 432.015 Q219.008 457.014 221.507 480.012 Q224.007 503.011 224.007 526.009 Q224.007 595.005 192.509 649.002 Q161.011 702.999 111.014 752.996 L154.011 794.993 L154.011 794.993 Z " />
<glyph glyph-name="asterisk" unicode="&#x2a;" horiz-adv-x="452" d="M291 547 L372 605 L423 631 L453 571 L402 545 L300 514 L374 443 L409 397 L355 357 L320 403 L273 492 L225 403 L190 357 L137 397 L171 443 L245 514 L143 545 L92 571 L122 631 L174 605 L254 547 L240 643 L240 700 L306 700 L306 643 L291 547 Z " />
<glyph glyph-name="plus" unicode="&#x2b;" horiz-adv-x="496" d="M53 362 L224 362 L224 533 L285 533 L285 362 L456 362 L456 303 L285 303 L285 130 L224 130 L224 303 L53 303 L53 362 Z " />
<glyph glyph-name="comma" unicode="&#x2c;" horiz-adv-x="219" d="M5 -118 Q4 -118 -2 -114.5 Q-8 -111 -16 -106 L-36 -94 L22 -16 L16 4 Q7 14 4 21 Q1 28 1 36 Q1 60 18 80.5 Q35 101 66 101 Q89 101 103.5 87.5 Q118 74 118 54 Q118 38 110.5 26 Q103 14 95 3 L5 -118 L5 -118 Z " />
<glyph glyph-name="hyphen" unicode="&#x2d;" horiz-adv-x="370" d="M74 333 L310 333 L296 269 L60 269 L74 333 Z " />
<glyph glyph-name="period" unicode="&#x2e;" horiz-adv-x="218" d="M0 36 Q0 61 18.5 81 Q37 101 68 101 Q91 101 104 87 Q117 73 117 54 Q117 28 98 9 Q79 -10 48 -10 Q26 -10 13 3.5 Q0 17 0 36 Z " />
<glyph glyph-name="slash" unicode="&#x2f;" horiz-adv-x="441" d="M-61 -102 L453 787 L521 787 L7 -102 L-61 -102 Z " />
<glyph glyph-name="zero" unicode="0" horiz-adv-x="637" d="M276 -10 Q220 -10 178.5 8 Q137 26 109.5 58.5 Q82 91 68.5 135.5 Q55 180 55 234 Q55 285 63 340 Q71 395 88.5 448 Q106 501 132.5 548.5 Q159 596 195.5 632 Q232 668 279 689 Q326 710 384 710 Q440 710 481.5 692 Q523 674 550.5 642 Q578 610 591.5 565 Q605 520 605 466 Q605 390 586 306.5 Q567 223 527 152.5 Q487 82 425 36 Q363 -10 276 -10 Z M280 66 Q321 66 354 86.5 Q387 107 412 140.5 Q437 174 455.5 217.5 Q474 261 485.5 307 Q497 353 502.5 399 Q508 445 508 483 Q508 555 477 595 Q446 635 379 635 Q338 635 305 614.5 Q272 594 246.5 560.5 Q221 527 203 483.5 Q185 440 173.5 394 Q162 348 156.5 302 Q151 256 151 218 Q151 144 181 105 Q211 66 280 66 Z " />
<glyph glyph-name="one" unicode="1" horiz-adv-x="430" d="M-15 0 L-1 65 L129 65 L243 601 L113 601 L126 667 L223 667 Q293 667 312 710 L362 710 L225 65 L355 65 L342 0 L-15 0 Z " />
<glyph glyph-name="two" unicode="2" horiz-adv-x="560" d="M137 665 Q142 667 160.5 674.5 Q179 682 207.5 690 Q236 698 273 704 Q310 710 352 710 Q407 710 445 696.5 Q483 683 507 661 Q531 639 542 610.5 Q553 582 553 552 Q553 510 539 475.5 Q525 441 494.5 410 Q464 379 416 348.5 Q368 318 301 284 Q248 257 213.5 236 Q179 215 158 195.5 Q137 176 126 156 Q115 136 110 112 L103 82 L467 82 L451 0 L-8 0 L15 113 Q22 147 36.5 176 Q51 205 78.5 233 Q106 261 149 289 Q192 317 256 350 Q307 376 344.5 398.5 Q382 421 406 443.5 Q430 466 441.5 489.5 Q453 513 453 541 Q453 582 425 607 Q397 632 331 632 Q283 632 228.5 620 Q174 608 122 584 L137 665 Z " />
<glyph glyph-name="three" unicode="3" horiz-adv-x="541" d="M136 677 Q144 681 161.5 686.5 Q179 692 203.5 697 Q228 702 259 706 Q290 710 324 710 Q379 710 417 697 Q455 684 479 662.5 Q503 641 513.5 614 Q524 587 524 559 Q524 470 478 422 Q432 374 359 360 L358 357 Q404 343 435 312.5 Q466 282 466 224 Q466 180 450.5 138 Q435 96 401 63 Q367 30 314.5 10 Q262 -10 187 -10 Q149 -10 116 -5.5 Q83 -1 57 5 Q31 11 14 17 Q-3 23 -10 26 L5 96 Q54 78 97 71 Q140 64 179 64 Q228 64 264 77.5 Q300 91 323.5 113.5 Q347 136 358 165 Q369 194 369 225 Q369 282 335.5 303.5 Q302 325 244 325 L179 325 L192 396 L261 396 Q294 396 324.5 403.5 Q355 411 377.5 428 Q400 445 413.5 472 Q427 499 427 538 Q427 557 421 575 Q415 593 400 606.5 Q385 620 360.5 628 Q336 636 300 636 Q258 636 216.5 628 Q175 620 123 600 L136 677 Z " />
<glyph glyph-name="four" unicode="4" horiz-adv-x="590" d="M428 583 L116 260 L360 260 L428 583 Z M437 184 L399 0 L305 0 L343 184 L6 184 L21 260 L456 710 L549 710 L454 260 L549 260 L534 184 L437 184 Z " />
<glyph glyph-name="five" unicode="5" horiz-adv-x="554" d="M201 -10 Q156 -10 119.5 -4 Q83 2 56 10 Q24 19 -1 31 L15 106 Q60 86 104 76 Q148 66 202 66 Q253 66 289 80.5 Q325 95 348.5 118 Q372 141 383 171 Q394 201 394 232 Q394 265 383.5 286 Q373 307 354 319.5 Q335 332 308.5 337 Q282 342 251 342 L86 342 L162 700 L554 700 L537 618 L226 618 L183 419 L277 419 Q322 419 361 409.5 Q400 400 429.5 379 Q459 358 475.5 324 Q492 290 492 240 Q492 195 475 150.5 Q458 106 423 70 Q388 34 332.5 12 Q277 -10 201 -10 Z " />
<glyph glyph-name="six" unicode="6" horiz-adv-x="588" d="M531 257 Q531 191 508.5 141 Q486 91 448.5 57.5 Q411 24 362 7 Q313 -10 260 -10 Q161 -10 106 46 Q51 102 51 217 Q51 272 60 330 Q69 388 88 442.5 Q107 497 137 546 Q167 595 210 631.5 Q253 668 308.5 689 Q364 710 435 710 Q484 710 520.5 701.5 Q557 693 577 683 L560 608 Q525 623 492.5 629.5 Q460 636 430 636 Q374 636 329 615.5 Q284 595 249.5 557 Q215 519 191 466 Q167 413 155 349 Q171 362 192 375.5 Q213 389 238 399.5 Q263 410 292 417 Q321 424 353 424 Q389 424 421 414 Q453 404 477.5 383.5 Q502 363 516.5 331.5 Q531 300 531 257 Z M270 62 Q303 62 333.5 73.5 Q364 85 387.5 107.5 Q411 130 425.5 164.5 Q440 199 440 245 Q440 299 408.5 324.5 Q377 350 326 350 Q299 350 273 342.5 Q247 335 223.5 323 Q200 311 180 296.5 Q160 282 144 268 Q143 251 142.5 235 Q142 219 142 202 Q142 136 173 99 Q204 62 270 62 Z " />
<glyph glyph-name="seven" unicode="7" horiz-adv-x="493" d="M60 0 L436 618 L88 618 L105 700 L553 700 L542 649 L165 0 L60 0 Z " />
<glyph glyph-name="eight" unicode="8" horiz-adv-x="589" d="M241 -10 Q178 -10 136 3.5 Q94 17 69.5 38.5 Q45 60 34.5 88 Q24 116 24 145 Q24 198 43 235.5 Q62 273 90 298.5 Q118 324 149.5 339.5 Q181 355 207 363 Q169 386 144 419.5 Q119 453 119 504 Q119 549 137.5 587 Q156 625 189.5 652.5 Q223 680 269 695 Q315 710 371 710 Q426 710 463.5 697 Q501 684 524 664 Q547 644 556.5 619 Q566 594 566 570 Q566 532 553.5 501.5 Q541 471 520 446.5 Q499 422 470.5 404 Q442 386 411 373 Q459 348 487.5 312.5 Q516 277 516 217 Q516 163 495 120.5 Q474 78 437.5 49 Q401 20 350.5 5 Q300 -10 241 -10 Z M205 525 Q205 484 239.5 456 Q274 428 338 403 Q365 413 391.5 427.5 Q418 442 439 461 Q460 480 473 503 Q486 526 486 554 Q486 571 478.5 587 Q471 603 455.5 615 Q440 627 416 634.5 Q392 642 359 642 Q325 642 296.5 633.5 Q268 625 248 609 Q228 593 216.5 571.5 Q205 550 205 525 Z M249 59 Q288 59 320.5 69.5 Q353 80 375.5 99 Q398 118 410.5 143.5 Q423 169 423 199 Q423 226 413 245 Q403 264 384.5 278.5 Q366 293 339.5 305 Q313 317 279 329 Q264 323 235 311.5 Q206 300 178 280 Q150 260 129 230.5 Q108 201 108 159 Q108 140 115.5 122 Q123 104 139.5 90 Q156 76 183 67.5 Q210 59 249 59 Z " />
<glyph glyph-name="nine" unicode="9" horiz-adv-x="588" d="M284 350 Q311 350 337 357.5 Q363 365 386.5 377 Q410 389 430 403.5 Q450 418 466 432 Q468 449 468 465 Q468 481 468 498 Q468 564 437 601 Q406 638 340 638 Q307 638 276.5 626.5 Q246 615 222 592.5 Q198 570 183.5 535.5 Q169 501 169 455 Q169 401 201 375.5 Q233 350 284 350 Z M175 -10 Q126 -10 89 -1.5 Q52 7 32 18 L50 92 Q85 77 117.5 70.5 Q150 64 180 64 Q235 64 280.5 84.5 Q326 105 360.5 143 Q395 181 418.5 233.5 Q442 286 455 351 Q439 338 418 324.5 Q397 311 372 300.5 Q347 290 318 283 Q289 276 257 276 Q221 276 189 286 Q157 296 132.5 316.5 Q108 337 93.5 368.5 Q79 400 79 443 Q79 509 101.5 559 Q124 609 161.5 642.5 Q199 676 248 693 Q297 710 350 710 Q449 710 504 654 Q559 598 559 483 Q559 428 550 370.5 Q541 313 522 258 Q503 203 472.5 154.5 Q442 106 399.5 69.5 Q357 33 301 11.5 Q245 -10 175 -10 Z " />
<glyph glyph-name="colon" unicode="&#x3a;" horiz-adv-x="249" d="M12 36 Q12 61 30.5 81 Q49 101 80 101 Q102 101 115 87 Q128 73 128 54 Q128 28 109 9 Q90 -10 59 -10 Q38 -10 25 3.5 Q12 17 12 36 Z M104 471 Q104 497 122 516.5 Q140 536 172 536 Q194 536 207 522 Q220 508 220 489 Q220 463 201 444.5 Q182 426 151 426 Q129 426 116.5 439 Q104 452 104 471 Z " />
<glyph glyph-name="semicolon" unicode="&#x3b;" horiz-adv-x="260" d="M19 36 Q19 60 36 80.5 Q53 101 84 101 Q107 101 121 87.5 Q135 74 135 54 Q135 38 128 26 Q121 14 113 3 L22 -118 L-18 -94 L39 -16 L33 4 Q25 14 22 21 Q19 28 19 36 Z M112 471 Q112 497 130.5 516.5 Q149 536 180 536 Q202 536 215 522 Q228 508 228 489 Q228 463 209 444.5 Q190 426 159 426 Q137 426 124.5 439 Q112 452 112 471 Z " />
<glyph glyph-name="less" unicode="&#x3c;" horiz-adv-x="542" d="M49 316 L49 360 L464 535 L464 471 L142 338 L464 203 L464 139 L49 316 Z " />
<glyph glyph-name="equal" unicode="&#x3d;" horiz-adv-x="586" d="M98 441 L501 441 L501 382 L98 382 L98 441 Z M94 283 L497 283 L497 224 L94 224 L94 283 Z " />
<glyph glyph-name="greater" unicode="&#x3e;" horiz-adv-x="530" d="M79 203 L401 338 L79 471 L79 535 L493 360 L493 316 L79 139 L79 203 Z " />
<glyph glyph-name="question" unicode="&#x3f;" horiz-adv-x="471" d="M82 39 Q82 65 102 85.5 Q122 106 154 106 Q175 106 190 92 Q205 78 205 58 Q205 31 184.5 10.5 Q164 -10 132 -10 Q111 -10 96.5 4.5 Q82 19 82 39 Z M107 662 Q119 668 138 676 Q157 684 182 691.5 Q207 699 236.5 704.5 Q266 710 298 710 Q349 710 385.5 698 Q422 686 445.5 666.5 Q469 647 479.5 622 Q490 597 490 570 Q490 532 481 502 Q472 472 452 447.5 Q432 423 401 402.5 Q370 382 327 363 Q276 340 256 322.5 Q236 305 230 281 L208 189 L135 189 L149 286 Q152 310 162 327.5 Q172 345 188.5 359 Q205 373 227.5 385 Q250 397 279 411 Q337 439 364 469.5 Q391 500 391 547 Q391 583 363.5 607 Q336 631 270 631 Q229 631 180 618.5 Q131 606 91 586 L107 662 Z " />
<glyph glyph-name="at" unicode="&#x40;" horiz-adv-x="854" d="M239 248 Q239 308 255 359 Q271 410 299 447.5 Q327 485 364.5 506.5 Q402 528 446 528 Q478 528 501 516.5 Q524 505 537 487 L540 487 L542 499 Q544 507 550 514 Q556 521 571 521 L620 521 L562 254 Q560 245 559 237 Q558 229 558 220 Q558 192 574.5 170.5 Q591 149 633 149 Q656 149 680.5 162 Q705 175 725 202.5 Q745 230 757.5 274 Q770 318 770 380 Q770 436 752 487.5 Q734 539 699 578 Q664 617 611 640.5 Q558 664 488 664 Q403 664 333.5 634 Q264 604 214.5 550.5 Q165 497 137.5 423.5 Q110 350 110 263 Q110 192 129 141 Q148 90 178 55 Q208 20 245.5 -0.5 Q283 -21 319.5 -32 Q356 -43 388.5 -46 Q421 -49 442 -49 Q505 -49 555 -39.5 Q605 -30 645 -15 L650 -51 Q609 -70 555.5 -82.5 Q502 -95 437 -95 Q412 -95 374.5 -91 Q337 -87 294 -74.5 Q251 -62 208 -38.5 Q165 -15 130.5 25 Q96 65 74.5 123 Q53 181 53 263 Q53 359 84.5 441 Q116 523 173 583 Q230 643 310 676.5 Q390 710 488 710 Q572 710 635.5 683 Q699 656 741.5 610 Q784 564 805 504.5 Q826 445 826 380 Q826 302 805 248.5 Q784 195 752 162 Q720 129 681.5 114.5 Q643 100 607 100 Q558 100 523.5 120.5 Q489 141 480 179 Q461 149 427.5 126 Q394 103 355 103 Q301 103 270 141 Q239 179 239 248 Z M379 164 Q393 164 407.5 171 Q422 178 436 189 Q450 200 462 214 Q474 228 484 243 L524 432 Q510 449 491 459 Q472 469 452 469 Q425 469 401 453 Q377 437 359 409 Q341 381 330.5 342.5 Q320 304 320 258 Q320 214 335.5 189 Q351 164 379 164 Z " />
<glyph glyph-name="A" unicode="A" horiz-adv-x="606" d="M404 174 L150 174 L60 0 L-40 0 L335 702 L434 702 L526 0 L424 0 L404 174 Z M188 247 L395 247 L359 573 L188 247 Z " />
<glyph glyph-name="B" unicode="B" horiz-adv-x="615" d="M171 700 L378 700 Q479 700 534 663.5 Q589 627 589 550 Q589 477 548.5 432 Q508 387 437 367 L437 365 Q491 349 520 315.5 Q549 282 549 222 Q549 167 529 125.5 Q509 84 471.5 56 Q434 28 380.5 14 Q327 0 260 0 L21 0 L171 700 Z M131 72 L268 72 Q362 72 406.5 113 Q451 154 451 226 Q451 279 418.5 303 Q386 327 322 327 L186 327 L131 72 Z M202 399 L310 399 Q402 399 447 435 Q492 471 492 536 Q492 584 458.5 606 Q425 628 359 628 L250 628 L202 399 Z " />
<glyph glyph-name="C" unicode="C" horiz-adv-x="553" d="M462 17 Q431 6 391.5 -2 Q352 -10 301 -10 Q182 -10 117 54.5 Q52 119 52 240 Q52 348 79.5 435 Q107 522 158 583 Q209 644 282 677 Q355 710 446 710 Q494 710 531 701.5 Q568 693 591 683 L574 606 Q509 630 443 630 Q376 630 322.5 605.5 Q269 581 231.5 533 Q194 485 173.5 413.5 Q153 342 153 248 Q153 163 194.5 116 Q236 69 326 69 Q365 69 401 75.5 Q437 82 475 96 L462 17 Z " />
<glyph glyph-name="D" unicode="D" horiz-adv-x="662" d="M171 700 L372 700 Q491 700 559.5 638.5 Q628 577 628 452 Q628 345 601.5 261 Q575 177 525 119 Q475 61 404 30.5 Q333 0 243 0 L22 0 L171 700 Z M133 75 L260 75 Q318 75 367.5 99.5 Q417 124 452.5 172 Q488 220 508 290 Q528 360 528 451 Q528 539 486 582.5 Q444 626 356 626 L250 626 L133 75 Z " />
<glyph glyph-name="E" unicode="E" horiz-adv-x="564" d="M251 625 L203 395 L474 395 L458 320 L185 320 L133 75 L476 75 L460 0 L22 0 L171 700 L600 700 L584 625 L251 625 Z " />
<glyph glyph-name="F" unicode="F" horiz-adv-x="557" d="M250 625 L197 376 L478 376 L462 300 L181 300 L117 0 L22 0 L170 700 L610 700 L594 625 L250 625 Z " />
<glyph glyph-name="G" unicode="G" horiz-adv-x="607" d="M488 24 Q456 10 412 0 Q368 -10 308 -10 Q246 -10 198.5 7.5 Q151 25 118.5 57.5 Q86 90 69.5 136 Q53 182 53 239 Q53 349 80.5 436.5 Q108 524 159.5 584.5 Q211 645 284 677.5 Q357 710 448 710 Q503 710 544 701.5 Q585 693 614 682 L597 603 Q559 618 522 626 Q485 634 446 634 Q308 634 231 536.5 Q154 439 154 247 Q154 162 197.5 113.5 Q241 65 328 65 Q354 65 375 68.5 Q396 72 415 80 L470 343 L555 343 L488 24 L488 24 Z " />
<glyph glyph-name="H" unicode="H" horiz-adv-x="654" d="M476 320 L185 320 L117 0 L22 0 L170 700 L265 700 L201 396 L492 396 L557 700 L652 700 L505 0 L410 0 L476 320 Z " />
<glyph glyph-name="I" unicode="I" horiz-adv-x="266" d="M170 700 L265 700 L117 0 L22 0 L170 700 Z " />
<glyph glyph-name="J" unicode="J" horiz-adv-x="445" d="M355 700 L450 700 L341 190 Q321 93 261 41.5 Q201 -10 101 -10 Q53 -10 19.5 -1.5 Q-14 7 -37 20 L-22 93 Q8 77 41.5 72.5 Q75 68 96 68 Q222 68 247 195 L355 700 Z " />
<glyph glyph-name="K" unicode="K" horiz-adv-x="611" d="M170 700 L265 700 L202 396 L301 396 L569 700 L673 700 L377 365 L535 0 L427 0 L294 320 L185 320 L117 0 L22 0 L170 700 Z " />
<glyph glyph-name="L" unicode="L" horiz-adv-x="529" d="M133 75 L468 75 L452 0 L22 0 L171 700 L266 700 L133 75 Z " />
<glyph glyph-name="M" unicode="M" horiz-adv-x="750" d="M224 539 L109 0 L22 0 L171 700 L266 700 L385 346 L650 700 L749 700 L600 0 L509 0 L623 538 L389 229 L333 229 L224 539 Z " />
<glyph glyph-name="N" unicode="N" horiz-adv-x="654" d="M437 -2 L216 539 L102 0 L18 0 L167 700 L250 700 L459 183 L569 700 L653 700 L505 -2 L437 -2 Z " />
<glyph glyph-name="O" unicode="O" horiz-adv-x="673" d="M406 710 Q466 710 510.5 692 Q555 674 584.5 641 Q614 608 629 562.5 Q644 517 644 463 Q644 412 635 357.5 Q626 303 607.5 250.5 Q589 198 560.5 150.5 Q532 103 492.5 67.5 Q453 32 402 11 Q351 -10 289 -10 Q229 -10 184.5 8 Q140 26 110.5 59 Q81 92 66 137.5 Q51 183 51 237 Q51 288 60 342.5 Q69 397 87.5 449.5 Q106 502 134.5 549.5 Q163 597 202.5 632.5 Q242 668 293 689 Q344 710 406 710 Z M400 633 Q355 633 319.5 613 Q284 593 256.5 560 Q229 527 209 484.5 Q189 442 176.5 396 Q164 350 158 304.5 Q152 259 152 221 Q152 146 186 107 Q220 68 295 68 Q339 68 375 87.5 Q411 107 438.5 140 Q466 173 486 215.5 Q506 258 519 303.5 Q532 349 538 394.5 Q544 440 544 478 Q544 554 509.5 593.5 Q475 633 400 633 Z " />
<glyph glyph-name="P" unicode="P" horiz-adv-x="604" d="M171 700 L389 700 Q494 700 552 657 Q610 614 610 523 Q610 390 529 325 Q448 260 306 260 L173 260 L117 0 L22 0 L171 700 Z M250 628 L188 332 L321 332 Q411 332 461.5 378 Q512 424 512 518 Q512 574 479 601 Q446 628 374 628 L250 628 Z " />
<glyph glyph-name="Q" unicode="Q" horiz-adv-x="673" d="M406 710 Q466 710 510.5 692 Q555 674 584.5 641 Q614 608 629 562.5 Q644 517 644 463 Q644 397 629 325.5 Q614 254 582.5 190.5 Q551 127 502 77 Q453 27 386 5 L438 -63 L465 -75 L540 -75 L526 -142 L415 -142 Q390 -142 376 -134 Q362 -126 353 -112 L286 -10 Q227 -9 183 9.5 Q139 28 109.5 60.5 Q80 93 65.5 138 Q51 183 51 237 Q51 288 60 342.5 Q69 397 87.5 449.5 Q106 502 134.5 549.5 Q163 597 202.5 632.5 Q242 668 292.5 689 Q343 710 406 710 Z M400 633 Q355 633 319.5 613 Q284 593 256.5 560 Q229 527 209 484.5 Q189 442 176.5 396 Q164 350 158 304.5 Q152 259 152 221 Q152 146 186 107 Q220 68 295 68 Q339 68 375 87.5 Q411 107 438.5 140 Q466 173 486 215.5 Q506 258 519 303.5 Q532 349 538 394 Q544 439 544 478 Q544 554 509.5 593.5 Q475 633 400 633 Z " />
<glyph glyph-name="R" unicode="R" horiz-adv-x="615" d="M252 628 L196 366 L318 366 Q406 366 454.5 408 Q503 450 503 528 Q503 579 472 603.5 Q441 628 374 628 L252 628 Z M22 0 L171 700 L391 700 Q492 700 547 661 Q602 622 602 541 Q602 491 586.5 453.5 Q571 416 545 390 Q519 364 484 349 Q449 334 410 330 L410 327 Q429 322 441 313.5 Q453 305 460 291.5 Q467 278 471 259.5 Q475 241 479 217 L511 0 L406 0 L379 221 Q376 245 370.5 259.5 Q365 274 356.5 281.5 Q348 289 337 291.5 Q326 294 313 294 L182 294 L117 0 L22 0 Z " />
<glyph glyph-name="S" unicode="S" horiz-adv-x="545" d="M484 214 Q484 161 463.5 119 Q443 77 405.5 48.5 Q368 20 315 5 Q262 -10 197 -10 Q156 -10 122.5 -5 Q89 0 64.5 6.5 Q40 13 24 19.5 Q8 26 3 29 L19 106 Q70 85 113.5 75.5 Q157 66 200 66 Q291 66 338.5 101.5 Q386 137 386 194 Q386 216 379 232.5 Q372 249 356.5 262.5 Q341 276 317 288 Q293 300 259 314 Q182 346 138.5 389 Q95 432 95 502 Q95 553 114.5 592 Q134 631 170 657.5 Q206 684 255.5 697 Q305 710 365 710 Q437 710 483 698 Q529 686 540 681 L524 602 Q479 617 440 626 Q401 635 359 635 Q277 635 232 605.5 Q187 576 187 522 Q187 502 193 485.5 Q199 469 213.5 454 Q228 439 252.5 425 Q277 411 315 396 Q356 379 387.5 361 Q419 343 440.5 321.5 Q462 300 473 273.5 Q484 247 484 214 Z " />
<glyph glyph-name="T" unicode="T" horiz-adv-x="549" d="M613 700 L597 625 L390 625 L258 0 L163 0 L295 625 L87 625 L104 700 L613 700 Z " />
<glyph glyph-name="U" unicode="U" horiz-adv-x="643" d="M557 700 L648 700 L550 235 Q522 104 450 47 Q378 -10 272 -10 Q171 -10 115 31.5 Q59 73 59 161 Q59 178 61.5 201 Q64 224 69 244 L165 700 L263 700 L167 246 Q163 226 161 209.5 Q159 193 159 177 Q159 126 189.5 97 Q220 68 285 68 Q358 68 400 111.5 Q442 155 461 246 L557 700 Z " />
<glyph glyph-name="V" unicode="V" horiz-adv-x="592" d="M189 -2 L105 700 L208 700 L264 143 L557 700 L655 700 L276 -2 L189 -2 Z " />
<glyph glyph-name="W" unicode="W" horiz-adv-x="907" d="M502 533 L248 -2 L152 -2 L110 700 L209 700 L233 141 L490 700 L591 700 L613 145 L869 700 L964 700 L627 -2 L529 -2 L502 533 Z " />
<glyph glyph-name="X" unicode="X" horiz-adv-x="599" d="M295 284 L55 0 L-55 0 L259 359 L117 700 L222 700 L330 428 L559 700 L668 700 L368 354 L515 0 L409 0 L295 284 Z " />
<glyph glyph-name="Y" unicode="Y" horiz-adv-x="595" d="M190 0 L250 282 L102 700 L201 700 L315 375 L551 700 L651 700 L347 289 L285 0 L190 0 Z " />
<glyph glyph-name="Z" unicode="Z" horiz-adv-x="562" d="M-30 0 L-18 53 L461 625 L116 625 L132 700 L598 700 L588 646 L113 76 L482 76 L466 0 L-30 0 Z " />
<glyph glyph-name="bracketleft" unicode="&#x5b;" horiz-adv-x="298" d="M184 -102 L-16 -102 L174 786 L373 786 L360 722 L243 722 L83 -38 L197 -38 L184 -102 Z " />
<glyph glyph-name="backslash" unicode="&#x5c;" horiz-adv-x="425" d="M124 787 L185 787 L317 -102 L256 -102 L124 787 Z " />
<glyph glyph-name="bracketright" unicode="&#x5d;" horiz-adv-x="299" d="M132.011 785.994 L331.999 785.994 L142.011 -101.952 L-56.9772 -101.952 L-43.978 -37.9559 L73.0148 -37.9559 L233.005 721.998 L119.012 721.998 L132.011 785.994 Z " />
<glyph glyph-name="asciicircum" unicode="&#x5e;" horiz-adv-x="433" d="M347 383 L240 633 L136 383 L74 383 L210 700 L271 700 L410 383 L347 383 Z " />
<glyph glyph-name="underscore" unicode="&#x5f;" horiz-adv-x="482" d="M-81 -80 L401 -80 L390 -129 L-92 -129 L-81 -80 Z " />
<glyph glyph-name="grave" unicode="&#x60;" horiz-adv-x="352" d="M178 697 L230 747 L247 747 L330 609 L300 582 L287 582 L178 697 Z " />
<glyph glyph-name="a" unicode="a" horiz-adv-x="542" d="M206 69 Q227 69 247 79.5 Q267 90 286.5 106 Q306 122 323 142 Q340 162 355 182 L403 409 Q366 462 302 462 Q264 462 230.5 440.5 Q197 419 172.5 381.5 Q148 344 134 293.5 Q120 243 120 184 Q120 130 142.5 99.5 Q165 69 206 69 Z M333 79 Q319 62 302.5 46.5 Q286 31 266.5 18 Q247 5 225 -2.5 Q203 -10 178 -10 Q109 -10 68 37.5 Q27 85 27 171 Q27 247 47.5 313.5 Q68 380 104 429.5 Q140 479 189.5 507.5 Q239 536 296 536 Q338 536 369.5 521.5 Q401 507 419 483 L423 483 L426 497 Q428 508 436 517 Q444 526 462 526 L517 526 L406 0 L349 0 Q330 0 327 9 Q324 18 326 30 L336 79 L333 79 Z " />
<glyph glyph-name="b" unicode="b" horiz-adv-x="542" d="M229 -10 Q187 -10 155.5 4.5 Q124 19 105 42 L101 42 L98 28 Q95 17 88 8.5 Q81 0 62 0 L8 0 L162 730 L252 730 L194 456 Q220 489 260.5 512.5 Q301 536 347 536 Q419 536 458 487 Q497 438 497 350 Q497 273 476.5 207 Q456 141 420 93 Q384 45 335 17.5 Q286 -10 229 -10 Z M222 67 Q260 67 293.5 87 Q327 107 351.5 143 Q376 179 390.5 228.5 Q405 278 405 337 Q405 394 382.5 425.5 Q360 457 318 457 Q297 457 276 447.5 Q255 438 236 423 Q217 408 200.5 389 Q184 370 172 351 L122 116 Q159 67 222 67 Z " />
<glyph glyph-name="c" unicode="c" horiz-adv-x="465" d="M396 59 Q369 33 325.5 11.5 Q282 -10 226 -10 Q186 -10 150 2 Q114 14 87 38.5 Q60 63 44.5 101 Q29 139 29 192 Q29 274 53.5 338 Q78 402 120 446 Q162 490 217 513 Q272 536 333 536 Q369 536 399 529 Q429 522 451 514 L435 440 Q407 449 383.5 453.5 Q360 458 328 458 Q284 458 246 440 Q208 422 180 389.5 Q152 357 136.5 311 Q121 265 121 209 Q121 136 152.5 101.5 Q184 67 235 67 Q271 67 302.5 79 Q334 91 363 113 L396 59 Z " />
<glyph glyph-name="d" unicode="d" horiz-adv-x="543" d="M207 69 Q228 69 248.5 78 Q269 87 287.5 101.5 Q306 116 323 134.5 Q340 153 353 172 L403 410 Q385 433 360 446 Q335 459 303 459 Q265 459 231.5 438.5 Q198 418 173.5 382 Q149 346 135 296.5 Q121 247 121 189 Q121 132 143.5 100.5 Q166 69 207 69 Z M332 69 Q305 36 265 13 Q225 -10 178 -10 Q107 -10 67.5 39 Q28 88 28 176 Q28 253 48.5 319 Q69 385 105 433 Q141 481 190.5 508.5 Q240 536 297 536 Q338 536 369.5 521.5 Q401 507 419 484 L472 730 L562 730 L407 0 L351 0 Q331 0 328.5 9 Q326 18 328 30 L336 69 L332 69 Z " />
<glyph glyph-name="e" unicode="e" horiz-adv-x="495" d="M226 -10 Q185 -10 149 1.5 Q113 13 86.5 38 Q60 63 45 100.5 Q30 138 30 191 Q30 273 53 337.5 Q76 402 115 446 Q154 490 205 513 Q256 536 311 536 Q344 536 373 528 Q402 520 423 504 Q444 488 456.5 464 Q469 440 469 409 Q469 368 452 338 Q435 308 406.5 285.5 Q378 263 342 247.5 Q306 232 267.5 222 Q229 212 191 206 Q153 200 122 197 Q121 133 155 100 Q189 67 249 67 Q283 67 314.5 80.5 Q346 94 379 117 L411 62 Q381 34 335.5 12 Q290 -10 226 -10 Z M301 465 Q273 465 245 453 Q217 441 193.5 416.5 Q170 392 152.5 354.5 Q135 317 128 266 Q162 271 206.5 278.5 Q251 286 290.5 300 Q330 314 357.5 337 Q385 360 385 396 Q385 431 360 448 Q335 465 301 465 Z " />
<glyph glyph-name="f" unicode="f" horiz-adv-x="334" d="M126 -2 Q107 -92 61 -136 Q15 -180 -74 -180 Q-102 -180 -119.5 -176 Q-137 -172 -143 -170 L-131 -105 Q-115 -108 -98.5 -110 Q-82 -112 -68 -112 Q-23 -112 0 -88.5 Q23 -65 35 -6 L133 455 L54 455 L67 524 L148 524 L155 562 Q172 652 219 696 Q266 740 356 740 Q381 740 402 737.5 Q423 735 436 732 L423 666 Q417 667 406 668 Q395 669 383.5 670 Q372 671 362.5 671 Q353 671 350 671 Q305 671 281.5 648 Q258 625 246 566 L237 524 L366 524 L352 455 L223 455 L126 -2 L126 -2 Z " />
<glyph glyph-name="g" unicode="g" horiz-adv-x="536" d="M150 348 Q150 303 178.5 281 Q207 259 254 259 Q280 259 303 268 Q326 277 343.5 293.5 Q361 310 371 333.5 Q381 357 381 386 Q381 431 353.5 452 Q326 473 277 473 Q251 473 228 464.5 Q205 456 187.5 439.5 Q170 423 160 400 Q150 377 150 348 Z M458 0 Q458 -46 436 -80 Q414 -114 375.5 -136 Q337 -158 286 -169 Q235 -180 177 -180 Q84 -180 28 -155 Q-28 -130 -28 -70 Q-28 -44 -19.5 -23.5 Q-11 -3 2 12.5 Q15 28 31 38.5 Q47 49 62 56 Q28 78 28 123 Q28 159 50 187 Q72 215 119 232 Q94 250 80 278 Q66 306 66 345 Q66 391 84 426.5 Q102 462 132 486.5 Q162 511 201.5 523.5 Q241 536 284 536 Q326 536 360 526 L544 526 L530 455 L460 455 L453 450 Q458 438 461.5 424.5 Q465 411 465 394 Q465 346 447 309 Q429 272 399 247.5 Q369 223 329 210 Q289 197 245 197 Q227 197 210 198.5 Q193 200 178 204 Q151 197 132 183 Q113 169 113 152 Q113 133 127.5 125.5 Q142 118 171 118 L308 118 Q380 118 419 88 Q458 58 458 0 Z M189 -115 Q226 -115 258.5 -108.5 Q291 -102 315.5 -89.5 Q340 -77 354 -58.5 Q368 -40 368 -16 Q368 10 347.5 22.5 Q327 35 276 35 L145 35 Q140 35 134.5 35 Q129 35 124 36 Q113 31 101.5 22.5 Q90 14 79.5 2.5 Q69 -9 62.5 -23.5 Q56 -38 56 -56 Q56 -85 87.5 -100 Q119 -115 189 -115 Z " />
<glyph glyph-name="h" unicode="h" horiz-adv-x="551" d="M337 457 Q311 457 285.5 444 Q260 431 237.5 413 Q215 395 197.5 376 Q180 357 171 345 L98 0 L8 0 L163 730 L253 730 L193 447 Q208 463 226.5 479 Q245 495 266 508 Q287 521 311 528.5 Q335 536 362 536 Q427 536 464 499 Q501 462 501 404 Q501 394 500 384 Q499 374 496 363 L419 0 L329 0 L404 351 Q407 372 407 388 Q407 457 337 457 Z " />
<glyph glyph-name="i" unicode="i" horiz-adv-x="235" d="M120 526 L210 526 L99 0 L9 0 L120 526 Z M136 665 Q136 694 152.5 712 Q169 730 201 730 Q224 730 236.5 718 Q249 706 249 687 Q249 658 232.5 640.5 Q216 623 183 623 Q160 623 148 635.5 Q136 648 136 665 Z " />
<glyph glyph-name="j" unicode="j" horiz-adv-x="235" d="M132 666 Q132 695 148.5 713 Q165 731 198 731 Q221 731 233.5 718.5 Q246 706 246 688 Q246 659 229.5 641.5 Q213 624 180 624 Q157 624 144.5 636 Q132 648 132 666 Z M120 526 L211 526 L99 0 Q90 -44 75 -77.5 Q60 -111 37 -134 Q14 -157 -18.5 -168.5 Q-51 -180 -97 -180 Q-124 -180 -140.5 -177 Q-157 -174 -161 -173 L-148 -107 Q-135 -107 -118 -107.5 Q-101 -108 -87 -108 Q-14 -108 7 -4 L120 526 Z " />
<glyph glyph-name="k" unicode="k" horiz-adv-x="529" d="M98 0 L8 0 L163 730 L253 730 L166 322 L242 322 L455 526 L563 526 L319 297 L450 0 L353 0 L244 252 L151 252 L98 0 Z " />
<glyph glyph-name="l" unicode="l" horiz-adv-x="237" d="M166 730 L255 730 L100 0 L11 0 L166 730 Z " />
<glyph glyph-name="m" unicode="m" horiz-adv-x="867" d="M336 457 Q311 457 285.5 444 Q260 431 238 413 Q216 395 199 376 Q182 357 173 345 L98 0 L9 0 L119 526 L176 526 Q195 526 198.5 517 Q202 508 199 497 L189 446 L193 446 Q208 462 226 478.5 Q244 495 265.5 507.5 Q287 520 311 528 Q335 536 362 536 Q414 536 448 510.5 Q482 485 493 443 Q507 459 526.5 476 Q546 493 570 506 Q594 519 621.5 527.5 Q649 536 681 536 Q745 536 781.5 499 Q818 462 817 404 Q817 382 813 363 L735 0 L645 0 L720 351 Q724 370 724 388 Q724 457 655 457 Q631 457 606.5 447 Q582 437 560.5 422.5 Q539 408 521.5 392 Q504 376 494 365 L494 363 L416 0 L326 0 L401 351 Q405 370 405 388 Q405 457 336 457 Z " />
<glyph glyph-name="n" unicode="n" horiz-adv-x="552" d="M338 457 Q312 457 286.5 444 Q261 431 239 413 Q217 395 199.5 376 Q182 357 173 345 L98 0 L9 0 L119 526 L176 526 Q195 526 198.5 517 Q202 508 199 497 L189 446 L193 446 Q208 462 226.5 478.5 Q245 495 266.5 507.5 Q288 520 312 528 Q336 536 363 536 Q428 536 465 499 Q502 462 502 404 Q502 382 498 363 L420 0 L330 0 L405 351 Q409 370 409 388 Q409 457 338 457 Z " />
<glyph glyph-name="o" unicode="o" horiz-adv-x="547" d="M31 195 Q31 280 54.5 343.5 Q78 407 116.5 450 Q155 493 204.5 514.5 Q254 536 306 536 Q347 536 382.5 523.5 Q418 511 444.5 486 Q471 461 486 423.5 Q501 386 501 336 Q501 250 477.5 185.5 Q454 121 415 77.5 Q376 34 326.5 12 Q277 -10 226 -10 Q185 -10 149.5 2.5 Q114 15 87.5 40.5 Q61 66 46 104.5 Q31 143 31 195 Z M124 194 Q124 64 231 64 Q270 64 302.5 86.5 Q335 109 358.5 147.5 Q382 186 395 236 Q408 286 408 340 Q408 399 381 430 Q354 461 301 461 Q262 461 229.5 438.5 Q197 416 173.5 379 Q150 342 137 293.5 Q124 245 124 194 Z " />
<glyph glyph-name="p" unicode="p" horiz-adv-x="542" d="M222 67 Q260 67 293.5 87 Q327 107 351.5 143 Q376 179 390.5 228.5 Q405 278 405 337 Q405 394 382.5 425.5 Q360 457 318 457 Q298 457 277.5 448 Q257 439 238.5 424.5 Q220 410 203.5 391 Q187 372 174 353 L123 116 Q158 67 222 67 Z M229 -10 Q187 -10 156 4.5 Q125 19 107 42 L61 -170 L-29 -170 L120 526 L176 526 Q195 526 198 517 Q201 508 199 497 L191 459 L196 459 Q222 491 262 513.5 Q302 536 347 536 Q419 536 458 487 Q497 438 497 350 Q497 273 476.5 207 Q456 141 420 93 Q384 45 335 17.5 Q286 -10 229 -10 Z " />
<glyph glyph-name="q" unicode="q" horiz-adv-x="543" d="M280 -170 L332 69 Q306 37 265.5 13.5 Q225 -10 178 -10 Q107 -10 67.5 39 Q28 88 28 176 Q28 253 48.5 319 Q69 385 105 433 Q141 481 190.5 508.5 Q240 536 297 536 Q339 536 371 521 Q403 506 421 482 L425 482 L428 497 Q430 508 437.5 517 Q445 526 464 526 L519 526 L370 -170 L280 -170 Z M207 69 Q228 69 249 78.5 Q270 88 289 103 Q308 118 324.5 136.5 Q341 155 353 174 L404 409 Q386 433 360.5 446 Q335 459 303 459 Q265 459 231.5 438.5 Q198 418 173.5 382 Q149 346 135 296.5 Q121 247 121 189 Q121 132 143.5 100.5 Q166 69 207 69 Z " />
<glyph glyph-name="r" unicode="r" horiz-adv-x="372" d="M338 446 Q296 446 250.5 415 Q205 384 170 335 L98 0 L8 0 L119 526 L176 526 Q195 526 198.5 517 Q202 508 199 497 L188 438 L191 438 Q204 454 221.5 471.5 Q239 489 261.5 503.5 Q284 518 311.5 527 Q339 536 372 536 Q383 536 391 535 Q399 534 405 533 L386 442 L381 442 Q372 444 359.5 445 Q347 446 338 446 Z " />
<glyph glyph-name="s" unicode="s" horiz-adv-x="444" d="M378 163 Q378 122 360.5 89.5 Q343 57 312 35 Q281 13 239.5 1.5 Q198 -10 150 -10 Q116 -10 88 -5 Q60 0 39 6 Q18 12 5.5 18 Q-7 24 -10 26 L7 102 Q50 82 85.5 74 Q121 66 151 66 Q214 66 249 90 Q284 114 284 150 Q284 182 262 200 Q240 218 187 236 Q118 260 90 294 Q62 328 62 376 Q62 447 119 491.5 Q176 536 282 536 Q314 536 339.5 531.5 Q365 527 385 522 Q407 516 426 509 L409 437 Q374 450 339 456.5 Q304 463 278 463 Q221 463 186 443.5 Q151 424 151 389 Q151 361 170.5 344.5 Q190 328 240 310 Q306 286 342 253 Q378 220 378 163 Z " />
<glyph glyph-name="t" unicode="t" horiz-adv-x="340" d="M117 -10 Q73 -10 55.5 11 Q38 32 48 81 L128 455 L52 455 L67 524 L137 524 L204 670 L262 670 L231 524 L354 524 L339 455 L216 455 L135 67 L277 67 L262 0 Q231 -3 204 -5 Q181 -7 156 -8.5 Q131 -10 117 -10 Z " />
<glyph glyph-name="u" unicode="u" horiz-adv-x="544" d="M336 79 Q321 63 303 47 Q285 31 264 18.5 Q243 6 219 -2 Q195 -10 168 -10 Q105 -10 69.5 26.5 Q34 63 34 120 Q33 131 34.5 141.5 Q36 152 38 163 L116 526 L206 526 L131 174 Q129 164 128 154.5 Q127 145 127 137 Q127 68 193 68 Q218 68 243.5 81.5 Q269 95 291 113 Q313 131 330 150 Q347 169 356 181 L431 526 L520 526 L409 0 L353 0 Q333 0 330 8.5 Q327 17 329 29 L340 79 L336 79 Z " />
<glyph glyph-name="v" unicode="v" horiz-adv-x="509" d="M151 -1 L66 526 L162 526 L218 120 L442 526 L534 526 L233 -1 L151 -1 Z " />
<glyph glyph-name="w" unicode="w" horiz-adv-x="770" d="M401 378 L214 -1 L127 -1 L71 526 L165 526 L196 121 L398 526 L470 526 L500 118 L703 526 L792 526 L516 -1 L429 -1 L401 378 Z " />
<glyph glyph-name="x" unicode="x" horiz-adv-x="506" d="M233 199 L54 0 L-50 0 L197 267 L69 526 L163 526 L257 330 L434 526 L538 526 L293 263 L422 0 L329 0 L233 199 Z " />
<glyph glyph-name="y" unicode="y" horiz-adv-x="508" d="M57 -170 L152 -1 L67 526 L161 526 L218 117 L441 526 L533 526 L141 -170 L57 -170 Z " />
<glyph glyph-name="z" unicode="z" horiz-adv-x="489" d="M-30 0 L-20 42 L349 453 L73 453 L88 526 L492 526 L483 483 L115 73 L407 73 L392 0 L-30 0 Z " />
<glyph glyph-name="braceleft" unicode="&#x7b;" horiz-adv-x="341" d="M229 -104 Q213 -106 199.5 -106.5 Q186 -107 173 -107 Q111 -107 77.5 -81 Q44 -55 44 4 Q44 27 50 59 L85 222 Q89 241 91 254 Q93 267 93 278 Q93 300 81 308 Q69 316 37 319 L50 378 Q73 380 87.5 385 Q102 390 111.5 400.5 Q121 411 127 428.5 Q133 446 139 475 L171 624 Q180 667 195 698.5 Q210 730 233 750.5 Q256 771 288 780.5 Q320 790 364 790 Q377 790 390.5 789.5 Q404 789 418 787 L407 732 Q400 733 387 732.5 Q374 732 369 732 Q327 730 298.5 706.5 Q270 683 257 623 L229 494 Q220 452 210.5 426 Q201 400 189.5 385 Q178 370 162 362.5 Q146 355 123 350 L123 348 Q151 340 164 325 Q177 310 177 278 Q177 264 174.5 245.5 Q172 227 167 204 L137 60 Q134 49 133 38.5 Q132 28 132 19 Q132 -17 150.5 -32 Q169 -47 202 -49 Q208 -49 221 -49.5 Q234 -50 241 -49 L229 -104 Z " />
<glyph glyph-name="bar" unicode="&#x7c;" horiz-adv-x="263" d="M110 -102 L110 787 L172 787 L172 -102 L110 -102 Z " />
<glyph glyph-name="braceright" unicode="&#x7d;" horiz-adv-x="339" d="M129.014 787.994 Q145.013 789.994 158.512 790.493 Q172.011 790.993 185.011 790.993 Q247.007 790.993 280.505 764.995 Q314.003 738.997 314.003 680 Q314.003 657.002 308.003 625.004 L273.005 462.014 Q269.005 443.015 267.006 430.016 Q265.006 417.016 265.006 406.017 Q265.006 384.018 277.005 376.019 Q289.004 368.019 321.002 365.019 L308.003 306.023 Q285.004 304.023 270.505 299.023 Q256.006 294.024 246.507 283.524 Q237.007 273.025 231.008 255.526 Q225.008 238.027 219.008 209.029 L187.01 60.0381 Q178.011 17.0407 163.012 -14.4574 Q148.013 -45.9554 125.014 -66.4542 Q102.016 -86.9529 70.0176 -96.4524 Q38.0195 -105.952 -5.97778 -105.952 Q-18.977 -105.952 -32.4762 -105.452 Q-45.9753 -104.952 -59.9745 -102.952 L-48.9752 -47.9553 Q-41.9756 -48.9553 -28.9764 -48.4553 Q-15.9772 -47.9553 -10.9775 -47.9553 Q31.02 -45.9554 59.5182 -22.4569 Q88.0165 1.04169 101.016 61.038 L129.014 190.03 Q138.013 232.028 147.513 258.026 Q157.012 284.024 168.512 299.023 Q180.011 314.023 196.01 321.522 Q212.009 329.022 235.008 334.021 L235.008 336.021 Q207.009 344.021 194.01 359.02 Q181.011 374.019 181.011 406.017 Q181.011 420.016 183.511 438.515 Q186.01 457.014 191.01 480.012 L221.008 624.004 Q224.008 635.003 225.008 645.502 Q226.008 656.002 226.008 665.001 Q226.008 700.999 207.509 715.998 Q189.01 730.997 156.012 732.997 Q150.013 732.997 137.013 733.497 Q124.014 733.997 117.015 732.997 L129.014 787.994 Z " />
<glyph glyph-name="asciitilde" unicode="&#x7e;" horiz-adv-x="617" d="M65 293 Q93 340 128.5 367 Q164 394 206 394 Q240 394 270 382 Q300 370 327.5 355.5 Q355 341 380.5 329 Q406 317 430 317 Q449 317 465 325 L527 389 L562 359 Q533 312 497 285.5 Q461 259 419 259 Q386 259 356 271 Q326 283 298.5 298 Q271 313 246 325 Q221 337 197 337 Q179 337 161 328 L99 264 L65 293 L65 293 Z " />
<glyph glyph-name="uni00A0" unicode="&#xa0;" horiz-adv-x="235" d="" />
<glyph glyph-name="exclamdown" unicode="&#xa1;" horiz-adv-x="236" d="M215 487.002 Q215 461.004 194.002 441.005 Q173.003 421.006 143.005 421.006 Q122.006 421.006 108.507 435.506 Q95.0078 450.005 95.0078 469.003 Q95.0078 495.002 115.507 515.501 Q136.005 535.999 167.003 535.999 Q187.002 535.999 201.001 521.5 Q215 507.001 215 487.002 Z M160.004 337.012 L113.007 33.0301 L69.0094 -173.957 L-35.9842 -173.957 L9.01306 33.0301 L90.0081 337.012 L160.004 337.012 Z " />
<glyph glyph-name="cent" unicode="&#xa2;" horiz-adv-x="485" d="M415 152 Q392 129 352.5 107 Q313 85 258 80 L239 -10 L196 -10 L215 81 Q182 84 152.5 97.5 Q123 111 101.5 135 Q80 159 67 194.5 Q54 230 54 277 Q54 355 76 416.5 Q98 478 136 522 Q174 566 224 591.5 Q274 617 330 623 L349 710 L392 710 L374 625 Q409 623 437.5 618 Q466 613 486 605 L470 531 Q442 542 417.5 546 Q393 550 358 550 L274 156 Q306 158 333.5 168 Q361 178 384 195 L415 152 Z M146 295 Q146 237 169.5 203.5 Q193 170 232 160 L314 545 Q278 537 247 515.5 Q216 494 193.5 461.5 Q171 429 158.5 387 Q146 345 146 295 Z " />
<glyph glyph-name="sterling" unicode="&#xa3;" horiz-adv-x="585" d="M474 0 L-15 0 L1 75 L78 75 L129 317 L55 317 L66 373 L142 373 L168 497 Q177 541 199 580 Q221 619 256 648 Q291 677 339 693.5 Q387 710 448 710 Q513 710 555 699.5 Q597 689 611 684 L595 609 Q523 638 443 638 Q367 638 323.5 605 Q280 572 264 497 L238 373 L405 373 L394 317 L227 317 L175 75 L489 75 L474 0 Z " />
<glyph glyph-name="currency" unicode="&#xa4;" horiz-adv-x="526" d="M335 214 Q320 205 302.5 199.5 Q285 194 265 194 Q245 194 227.5 199.5 Q210 205 195 214 L112 131 L67 175 L151 258 Q131 289 131 327 Q131 365 152 397 L68 481 L113 525 L196 441 Q228 462 265 462 Q303 462 335 441 L417 525 L462 481 L379 397 Q388 382 393.5 364.5 Q399 347 399 327 Q399 307 393.5 289.5 Q388 272 379 257 L462 175 L417 131 L335 214 Z M184 327 Q184 310 190.5 294.5 Q197 279 208 267.5 Q219 256 233.5 249.5 Q248 243 265 243 Q299 243 323 267.5 Q347 292 347 327 Q347 345 340.5 360.5 Q334 376 323 387.5 Q312 399 297 405.5 Q282 412 265 412 Q248 412 233.5 405.5 Q219 399 208 387.5 Q197 376 190.5 360.5 Q184 345 184 327 Z " />
<glyph glyph-name="yen" unicode="&#xa5;" horiz-adv-x="616" d="M100 355 L233 355 L111 700 L210 700 L324 375 L560 700 L660 700 L404 355 L548 355 L536 300 L364 300 L356 289 L343 229 L521 229 L509 173 L331 173 L294 0 L199 0 L236 173 L61 173 L73 229 L248 229 L259 282 L252 300 L88 300 L100 355 Z " />
<glyph glyph-name="brokenbar" unicode="&#xa6;" horiz-adv-x="275" d="M113 414 L113 787 L180 787 L180 414 L113 414 Z M113 -102 L113 271 L180 271 L180 -102 L113 -102 Z " />
<glyph glyph-name="section" unicode="&#xa7;" horiz-adv-x="549" d="M155 -202 Q81 -202 32.5 -189.5 Q-16 -177 -27 -170 L-10 -93 Q40 -111 81 -119 Q122 -127 159 -127 Q249 -127 288.5 -96.5 Q328 -66 328 -23 Q328 -6 322 8 Q316 22 301.5 34 Q287 46 264 57.5 Q241 69 208 82 Q172 95 141.5 110.5 Q111 126 89 145.5 Q67 165 55 190.5 Q43 216 43 251 Q43 310 74 349.5 Q105 389 158 412 Q135 433 122.5 461 Q110 489 110 527 Q110 569 129.5 602.5 Q149 636 184 660 Q219 684 267.5 697 Q316 710 374 710 Q444 710 489 699.5 Q534 689 546 684 L529 606 Q486 619 447.5 627 Q409 635 368 635 Q290 635 246.5 609.5 Q203 584 203 537 Q203 519 209 505.5 Q215 492 229 480 Q243 468 267 456 Q291 444 327 429 Q367 413 398 397 Q429 381 450 362.5 Q471 344 482 321 Q493 298 493 268 Q493 205 460.5 167 Q428 129 371 106 Q424 63 424 -7 Q424 -49 405.5 -84.5 Q387 -120 352.5 -146 Q318 -172 268 -187 Q218 -202 155 -202 Z M264 164 Q276 159 288 154 Q300 149 310 144 Q357 158 379.5 184 Q402 210 402 243 Q402 262 394.5 275.5 Q387 289 371 300.5 Q355 312 330 323 Q305 334 271 347 Q256 353 240.5 360 Q225 367 214 373 Q176 358 154 332.5 Q132 307 132 275 Q132 255 139 241 Q146 227 161.5 214.5 Q177 202 202 190 Q227 178 264 164 Z " />
<glyph glyph-name="dieresis" unicode="&#xa8;" horiz-adv-x="328" d="M124 660 Q124 680 139.5 696.5 Q155 713 181 713 Q198 713 208.5 701.5 Q219 690 219 675 Q219 653 203 638 Q187 623 163 623 Q145 623 134.5 634 Q124 645 124 660 Z M261 660 Q261 680 277 696.5 Q293 713 318 713 Q335 713 345.5 701.5 Q356 690 356 675 Q356 653 340.5 638 Q325 623 300 623 Q282 623 271.5 634 Q261 645 261 660 Z " />
<glyph glyph-name="copyright" unicode="&#xa9;" horiz-adv-x="831" d="M67 349 Q67 423 95 488.5 Q123 554 172 603 Q221 652 286 680.5 Q351 709 426 709 Q500 709 565.5 680.5 Q631 652 680 603 Q729 554 757.5 488.5 Q786 423 786 349 Q786 274 757.5 209 Q729 144 680 95 Q631 46 565.5 18 Q500 -10 426 -10 Q351 -10 286 18 Q221 46 172 95 Q123 144 95 209 Q67 274 67 349 Z M108 349 Q108 282 133 223.5 Q158 165 201 121.5 Q244 78 302 53 Q360 28 426 28 Q492 28 549.5 53 Q607 78 650.5 121.5 Q694 165 719 223.5 Q744 282 744 349 Q744 416 719 474.5 Q694 533 650.5 576.5 Q607 620 549.5 645.5 Q492 671 426 671 Q360 671 302 645.5 Q244 620 201 576.5 Q158 533 133 474.5 Q108 416 108 349 Z M546 138 Q499 116 433 116 Q390 116 353 129.5 Q316 143 289 171.5 Q262 200 247 243 Q232 286 232 346 Q232 405 248 448.5 Q264 492 292 521 Q320 550 358 564.5 Q396 579 441 579 Q474 579 499.5 574.5 Q525 570 545 562 L545 499 Q521 507 500 511 Q479 515 451 515 Q383 515 347 473.5 Q311 432 311 349 Q311 261 348.5 221 Q386 181 454 181 Q480 181 503 186 Q526 191 546 199 L546 138 Z " />
<glyph glyph-name="ordfeminine" unicode="&#xaa;" horiz-adv-x="381" d="M204 429 Q229 429 253 448.5 Q277 468 292 491 L323 633 Q300 661 262 661 Q239 661 219.5 649 Q200 637 185.5 615.5 Q171 594 162.5 564.5 Q154 535 154 500 Q154 467 167 448 Q180 429 204 429 Z M278 427 Q262 407 238 393.5 Q214 380 185 380 Q142 380 117.5 409.5 Q93 439 93 493 Q93 539 105.5 578.5 Q118 618 140 647.5 Q162 677 192 693.5 Q222 710 257 710 Q283 710 303 701 Q323 692 334 678 L336 678 L338 687 Q340 694 344 699.5 Q348 705 359 705 L396 705 L327 382 L290 382 Q279 382 276.5 387.5 Q274 393 276 400 L281 427 L278 427 Z " />
<glyph glyph-name="guillemotleft" unicode="&#xab;" horiz-adv-x="498" d="M290.999 463.003 L98.0112 248.016 L200.005 46.0283 L130.009 46.0283 L26.0156 238.017 L33.0152 270.015 L217.004 463.003 L290.999 463.003 Z M486.999 463.003 L294.011 248.016 L396.005 46.0283 L326.009 46.0283 L222.016 238.017 L229.015 270.015 L413.004 463.003 L486.999 463.003 Z " />
<glyph glyph-name="logicalnot" unicode="&#xac;" horiz-adv-x="573" d="M79 362 L482 362 L482 148 L423 148 L423 303 L79 303 L79 362 Z " />
<glyph glyph-name="uni00AD" unicode="&#xad;" horiz-adv-x="529" d="" />
<glyph glyph-name="registered" unicode="&#xae;" horiz-adv-x="687" d="M83 421 Q83 481 105.5 533.5 Q128 586 167 625 Q206 664 258 687 Q310 710 369 710 Q429 710 481 687 Q533 664 572 625 Q611 586 633.5 533.5 Q656 481 656 421 Q656 361 633.5 308.5 Q611 256 572 217 Q533 178 481 155 Q429 132 369 132 Q310 132 258 155 Q206 178 167 217 Q128 256 105.5 308.5 Q83 361 83 421 Z M120 421 Q120 368 139.5 321.5 Q159 275 193 240.5 Q227 206 272.5 186 Q318 166 370 166 Q422 166 467 186.5 Q512 207 546 241.5 Q580 276 599.5 322.5 Q619 369 619 421 Q619 474 599.5 520.5 Q580 567 546 602 Q512 637 467 657 Q422 677 370 677 Q318 677 272.5 657 Q227 637 193 602 Q159 567 139.5 520.5 Q120 474 120 421 Z M257 579 L374 579 Q430 579 461.5 558 Q493 537 493 492 Q493 455 471 436 Q449 417 423 412 L423 411 Q437 406 445 396.5 Q453 387 461 368 L502 264 L435 264 L405 360 Q397 382 387.5 387 Q378 392 366 392 L315 392 L315 264 L257 264 L257 579 Z M315 537 L315 434 L373 434 Q434 434 434 486 Q434 537 373 537 L315 537 Z " />
<glyph glyph-name="macron" unicode="&#xaf;" horiz-adv-x="384" d="M155 690 L405 690 L393 635 L143 635 L155 690 Z " />
<glyph glyph-name="degree" unicode="&#xb0;" horiz-adv-x="390" d="M96 559 Q96 590 108 617.5 Q120 645 140.5 665.5 Q161 686 188 698 Q215 710 246 710 Q277 710 304.5 698 Q332 686 352.5 665.5 Q373 645 385 617.5 Q397 590 397 559 Q397 528 385 501 Q373 474 352.5 453.5 Q332 433 304.5 421 Q277 409 246 409 Q215 409 188 421 Q161 433 140.5 453.5 Q120 474 108 501 Q96 528 96 559 Z M149 559 Q149 538 156.5 520 Q164 502 177.5 488.5 Q191 475 208.5 467 Q226 459 246 459 Q266 459 284 467 Q302 475 315.5 488.5 Q329 502 337 520 Q345 538 345 559 Q345 580 337 598 Q329 616 315.5 630 Q302 644 284 652 Q266 660 246 660 Q226 660 208.5 652 Q191 644 177.5 630 Q164 616 156.5 598 Q149 580 149 559 Z " />
<glyph glyph-name="plusminus" unicode="&#xb1;" horiz-adv-x="560" d="M72 428 L245 428 L245 586 L303 586 L303 428 L475 428 L475 370 L303 370 L303 211 L245 211 L245 370 L72 370 L72 428 Z M70 145 L473 145 L473 87 L70 87 L70 145 Z " />
<glyph glyph-name="twosuperior" unicode="&#xb2;" horiz-adv-x="294" d="M80 506 L92 565 Q96 583 103 596.5 Q110 610 123 622 Q136 634 155.5 646 Q175 658 203 673 Q247 696 266.5 713 Q286 730 286 750 Q286 761 276 769.5 Q266 778 240 778 Q216 778 189 772 Q162 766 136 756 L148 812 Q163 818 181 823 Q196 828 215.5 831.5 Q235 835 257 835 Q309 835 330.5 812.5 Q352 790 352 763 Q352 742 346 726 Q340 710 326.5 695.5 Q313 681 291 666 Q269 651 237 633 Q198 612 182.5 601 Q167 590 163 576 L159 563 L320 563 L308 506 L80 506 Z " />
<glyph glyph-name="threesuperior" unicode="&#xb3;" horiz-adv-x="288" d="M91 570 Q116 561 139.5 557.5 Q163 554 184 554 Q219 554 235.5 569.5 Q252 585 252 609 Q252 630 239.5 638 Q227 646 207 646 L167 646 L178 696 L216 696 Q242 696 260 707.5 Q278 719 278 746 Q278 760 267 770 Q256 780 230 780 Q213 780 190 777.5 Q167 775 138 767 L150 818 Q164 822 181 826 Q195 829 213 832 Q231 835 251 835 Q303 835 323.5 813 Q344 791 344 763 Q344 726 324.5 703.5 Q305 681 271 673 L271 671 Q293 663 305.5 649 Q318 635 318 611 Q318 590 310.5 570.5 Q303 551 287 535.5 Q271 520 245.5 510.5 Q220 501 184 501 Q162 501 143.5 503.5 Q125 506 111 510 Q94 514 81 520 L91 570 Z " />
<glyph glyph-name="acute" unicode="&#xb4;" horiz-adv-x="352" d="M335 747 L366 697 L209 582 L193 582 L174 609 L315 747 L335 747 Z " />
<glyph glyph-name="paragraph" unicode="&#xb6;" horiz-adv-x="597" d="M193 -170 L282 251 Q170 259 118 307 Q66 355 66 443 Q66 510 88.5 559 Q111 608 152.5 639 Q194 670 252.5 685 Q311 700 382 700 L438 700 L253 -170 L193 -170 Z M605 700 L421 -170 L360 -170 L545 700 L605 700 Z " />
<glyph glyph-name="periodcentered" unicode="&#xb7;" horiz-adv-x="239" d="M73 363 Q73 388 91.5 408 Q110 428 141 428 Q164 428 177 414 Q190 400 190 381 Q190 355 171 336 Q152 317 121 317 Q99 317 86 330.5 Q73 344 73 363 Z " />
<glyph glyph-name="cedilla" unicode="&#xb8;" horiz-adv-x="392" d="M121 -180 Q92 -180 67.5 -173 Q43 -166 29 -156 L49 -120 Q58 -126 78.5 -132.5 Q99 -139 122 -139 Q145 -139 162.5 -132 Q180 -125 180 -106 Q180 -90 157 -81.5 Q134 -73 96 -70 L99 -50 L159 11 L208 9 L162 -40 Q205 -45 224.5 -59.5 Q244 -74 244 -100 Q244 -123 233 -138 Q222 -153 204.5 -162.5 Q187 -172 165 -176 Q143 -180 121 -180 Z " />
<glyph glyph-name="onesuperior" unicode="&#xb9;" horiz-adv-x="239" d="M79 506 L89 551 L146 551 L190 762 L134 762 L144 810 L191 810 Q206 810 217.5 818 Q229 826 232 834 L272 834 L211 551 L272 551 L261 506 L79 506 Z " />
<glyph glyph-name="ordmasculine" unicode="&#xba;" horiz-adv-x="377" d="M384 589 Q384 538 369.5 498.5 Q355 459 331 433 Q307 407 276.5 393.5 Q246 380 214 380 Q163 380 128 410.5 Q93 441 93 504 Q93 555 107.5 593.5 Q122 632 146 658 Q170 684 200.5 697 Q231 710 263 710 Q315 710 349.5 680 Q384 650 384 589 Z M325 593 Q325 625 308 643 Q291 661 259 661 Q235 661 215.5 647.5 Q196 634 182 611.5 Q168 589 160 560 Q152 531 152 501 Q152 430 218 430 Q242 430 261.5 443.5 Q281 457 295 480 Q309 503 317 532 Q325 561 325 593 Z " />
<glyph glyph-name="guillemotright" unicode="&#xbb;" horiz-adv-x="498" d="M-9 46 L184 261 L82 463 L152 463 L256 271 L249 239 L65 46 L-9 46 Z M187 46 L380 261 L278 463 L348 463 L452 271 L445 239 L261 46 L187 46 Z " />
<glyph glyph-name="onequarter" unicode="&#xbc;" horiz-adv-x="615" d="M489 76 L472 0 L409 0 L425 76 L271 76 L281 125 L483 328 L543 328 L501 129 L543 129 L530 76 L489 76 Z M463 252 L341 129 L436 129 L463 252 Z M67 376 L77 421 L134 421 L178 632 L122 632 L132 680 L179 680 Q194 680 205.5 688 Q217 696 220 704 L260 704 L199 421 L260 421 L249 376 L67 376 Z M553 700 L615 700 L75 0 L14 0 L553 700 Z " />
<glyph glyph-name="onehalf" unicode="&#xbd;" horiz-adv-x="644" d="M316 0 L328 59 Q332 77 339 90.5 Q346 104 359 116 Q372 128 391.5 140 Q411 152 439 167 Q483 190 502.5 207 Q522 224 522 244 Q522 255 512 263.5 Q502 272 476 272 Q452 272 425 266 Q398 260 372 250 L384 306 Q399 312 417 317 Q432 322 451.5 325.5 Q471 329 493 329 Q545 329 566.5 306.5 Q588 284 588 257 Q588 236 582 220 Q576 204 562.5 189.5 Q549 175 527 160 Q505 145 473 127 Q434 106 418.5 95 Q403 84 399 70 L395 57 L556 57 L544 0 L316 0 Z M67 376 L77 421 L134 421 L178 632 L122 632 L132 680 L179 680 Q194 680 205.5 688 Q217 696 220 704 L260 704 L199 421 L260 421 L249 376 L67 376 Z M553 700 L615 700 L75 0 L14 0 L553 700 Z " />
<glyph glyph-name="threequarters" unicode="&#xbe;" horiz-adv-x="650" d="M524 76 L507 0 L444 0 L460 76 L306 76 L316 125 L518 328 L578 328 L536 129 L578 129 L565 76 L524 76 Z M498 252 L376 129 L471 129 L498 252 Z M588 700 L650 700 L110 0 L49 0 L588 700 Z M73 440 Q98 431 121.5 427.5 Q145 424 166 424 Q201 424 217.5 439.5 Q234 455 234 479 Q234 500 221.5 508 Q209 516 189 516 L149 516 L160 566 L198 566 Q224 566 242 577.5 Q260 589 260 616 Q260 630 249 640 Q238 650 212 650 Q195 650 172 647.5 Q149 645 120 637 L132 688 Q146 692 163 696 Q177 699 195 702 Q213 705 233 705 Q285 705 305.5 683 Q326 661 326 633 Q326 596 306.5 573.5 Q287 551 253 543 L253 541 Q275 533 287.5 519 Q300 505 300 481 Q300 460 292.5 440.5 Q285 421 269 405.5 Q253 390 227.5 380.5 Q202 371 166 371 Q144 371 125.5 373.5 Q107 376 93 380 Q76 384 63 390 L73 440 Z " />
<glyph glyph-name="questiondown" unicode="&#xbf;" horiz-adv-x="465" d="M371.005 487.002 Q371.005 461.004 351.006 440.505 Q331.007 420.006 299.009 420.006 Q278.011 420.006 263.012 434.006 Q248.013 448.005 248.013 468.004 Q248.013 495.002 268.511 515.501 Q289.01 535.999 321.008 535.999 Q342.007 535.999 356.506 521.5 Q371.005 507.001 371.005 487.002 Z M346.007 -135.96 Q334.007 -141.959 315.008 -149.959 Q296.01 -157.958 271.011 -165.458 Q246.013 -172.957 216.514 -178.457 Q187.016 -183.957 155.018 -183.957 Q104.021 -183.957 67.5235 -171.957 Q31.0258 -159.958 7.52719 -140.459 Q-15.9714 -120.961 -26.4707 -95.962 Q-36.9701 -70.9636 -36.9701 -43.9652 Q-36.9701 -5.96753 -27.9706 24.0306 Q-18.9712 54.0288 1.02759 78.5273 Q21.0264 103.026 52.0245 123.525 Q83.0226 144.023 126.02 163.022 Q177.017 186.021 197.016 203.52 Q217.014 221.019 223.014 245.017 L245.013 337.012 L318.008 337.012 L304.009 240.017 Q301.009 216.019 291.01 198.52 Q281.01 181.021 264.512 167.022 Q248.013 153.023 225.514 141.023 Q203.015 129.024 174.017 115.025 Q116.021 87.0268 89.0222 56.5287 Q62.0239 26.0305 62.0239 -20.9666 Q62.0239 -56.9644 89.5222 -80.963 Q117.021 -104.961 183.016 -104.961 Q224.014 -104.961 273.011 -92.4622 Q322.008 -79.963 362.006 -59.9642 L346.007 -135.96 Z " />
<glyph glyph-name="Agrave" unicode="&#xc0;" horiz-adv-x="606" d="M404 174 L150 174 L60 0 L-40 0 L335 702 L434 702 L526 0 L424 0 L404 174 Z M188 247 L395 247 L359 573 L188 247 Z M386 756 L277 871 L329 922 L346 922 L429 783 L398 756 L386 756 Z " />
<glyph glyph-name="Aacute" unicode="&#xc1;" horiz-adv-x="606" d="M404 174 L150 174 L60 0 L-40 0 L335 702 L434 702 L526 0 L424 0 L404 174 Z M188 247 L395 247 L359 573 L188 247 Z M395 756 L375 783 L517 922 L537 922 L568 871 L411 756 L395 756 Z " />
<glyph glyph-name="Acircumflex" unicode="&#xc2;" horiz-adv-x="606" d="M404 174 L150 174 L60 0 L-40 0 L335 702 L434 702 L526 0 L424 0 L404 174 Z M188 247 L395 247 L359 573 L188 247 Z M418 844 L302 758 L285 758 L264 784 L413 924 L447 924 L538 784 L507 758 L495 758 L418 844 Z " />
<glyph glyph-name="Atilde" unicode="&#xc3;" horiz-adv-x="606" d="M404 174 L150 174 L60 0 L-40 0 L335 702 L434 702 L526 0 L424 0 L404 174 Z M188 247 L395 247 L359 573 L188 247 Z M580 896 L572 858 Q563 818 541.5 797 Q520 776 480 776 Q460 776 441.5 784.5 Q423 793 406 802.5 Q389 812 373 820.5 Q357 829 343 829 Q323 829 312 820 Q301 811 299 801 L291 767 L239 767 L247 803 Q256 847 278.5 868.5 Q301 890 340 890 Q358 890 376.5 881.5 Q395 873 412.5 862.5 Q430 852 447 843.5 Q464 835 480 835 Q501 835 511 845 Q521 855 523 865 L529 896 L580 896 Z " />
<glyph glyph-name="Adieresis" unicode="&#xc4;" horiz-adv-x="606" d="M404 174 L150 174 L60 0 L-40 0 L335 702 L434 702 L526 0 L424 0 L404 174 Z M188 247 L395 247 L359 573 L188 247 Z M297 826 Q297 846 312.5 862 Q328 878 354 878 Q371 878 381.5 866.5 Q392 855 392 840 Q392 819 376.5 804 Q361 789 336 789 Q318 789 307.5 800 Q297 811 297 826 Z M435 826 Q435 846 450.5 862 Q466 878 492 878 Q509 878 519.5 866.5 Q530 855 530 840 Q530 819 514 804 Q498 789 474 789 Q455 789 445 800 Q435 811 435 826 Z " />
<glyph glyph-name="Aring" unicode="&#xc5;" horiz-adv-x="606" d="M404 174 L150 174 L60 0 L-40 0 L335 702 L434 702 L526 0 L424 0 L404 174 Z M188 247 L395 247 L359 573 L188 247 Z M354 821 Q354 784 405 784 Q437 784 456.5 798.5 Q476 813 476 841 Q476 877 425 877 Q393 877 373.5 862.5 Q354 848 354 821 Z M430 914 Q473 914 500 895.5 Q527 877 527 842 Q527 818 516.5 800 Q506 782 488.5 770 Q471 758 448 752.5 Q425 747 400 747 Q358 747 331 764.5 Q304 782 304 817 Q304 842 314 860.5 Q324 879 341 891 Q358 903 381 908.5 Q404 914 430 914 Z " />
<glyph glyph-name="AE" unicode="&#xc6;" horiz-adv-x="938" d="M974 700 L958 625 L625 625 L577 395 L849 395 L832 320 L560 320 L507 75 L850 75 L834 0 L397 0 L434 173 L180 173 L46 0 L-60 0 L478 700 L974 700 Z M516 625 L231 245 L449 245 L529 625 L516 625 Z " />
<glyph glyph-name="Ccedilla" unicode="&#xc7;" horiz-adv-x="553" d="M235 -180 Q206 -180 181.5 -173 Q157 -166 143 -156 L163 -120 Q172 -126 192.5 -132.5 Q213 -139 236 -139 Q259 -139 276.5 -132 Q294 -125 294 -106 Q294 -90 271 -81.5 Q248 -73 210 -70 L213 -50 L255 -7 Q157 4 104.5 67.5 Q52 131 52 240 Q52 348 79.5 435 Q107 522 158 583 Q209 644 282 677 Q355 710 446 710 Q494 710 531 701.5 Q568 693 591 683 L574 606 Q509 630 443 630 Q376 630 322.5 605.5 Q269 581 231.5 533 Q194 485 173.5 413.5 Q153 342 153 248 Q153 163 194.5 116 Q236 69 326 69 Q365 69 401 75.5 Q437 82 475 96 L462 17 Q431 6 392 -1.5 Q353 -9 304 -10 L276 -40 Q319 -45 338.5 -59.5 Q358 -74 358 -100 Q358 -123 347 -138 Q336 -153 318.5 -162.5 Q301 -172 279 -176 Q257 -180 235 -180 Z " />
<glyph glyph-name="Egrave" unicode="&#xc8;" horiz-adv-x="564" d="M394 756 L285 871 L337 922 L354 922 L437 783 L406 756 L394 756 Z M251 625 L203 395 L474 395 L458 320 L185 320 L133 75 L476 75 L460 0 L22 0 L171 700 L600 700 L584 625 L251 625 Z " />
<glyph glyph-name="Eacute" unicode="&#xc9;" horiz-adv-x="564" d="M251 625 L203 395 L474 395 L458 320 L185 320 L133 75 L476 75 L460 0 L22 0 L171 700 L600 700 L584 625 L251 625 Z M402 756 L382 783 L524 922 L544 922 L575 871 L418 756 L402 756 Z " />
<glyph glyph-name="Ecircumflex" unicode="&#xca;" horiz-adv-x="564" d="M426 844 L310 758 L293 758 L272 784 L421 924 L455 924 L546 784 L515 758 L503 758 L426 844 Z M251 625 L203 395 L474 395 L458 320 L185 320 L133 75 L476 75 L460 0 L22 0 L171 700 L600 700 L584 625 L251 625 Z " />
<glyph glyph-name="Edieresis" unicode="&#xcb;" horiz-adv-x="564" d="M251 625 L203 395 L474 395 L458 320 L185 320 L133 75 L476 75 L460 0 L22 0 L171 700 L600 700 L584 625 L251 625 Z M304 826 Q304 846 319.5 862 Q335 878 361 878 Q378 878 388.5 866.5 Q399 855 399 840 Q399 819 383.5 804 Q368 789 343 789 Q325 789 314.5 800 Q304 811 304 826 Z M442 826 Q442 846 457.5 862 Q473 878 499 878 Q516 878 526.5 866.5 Q537 855 537 840 Q537 819 521 804 Q505 789 481 789 Q462 789 452 800 Q442 811 442 826 Z " />
<glyph glyph-name="Igrave" unicode="&#xcc;" horiz-adv-x="266" d="M170 700 L265 700 L117 0 L22 0 L170 700 Z M218 756 L109 871 L161 922 L178 922 L261 783 L230 756 L218 756 Z " />
<glyph glyph-name="Iacute" unicode="&#xcd;" horiz-adv-x="266" d="M170 700 L265 700 L117 0 L22 0 L170 700 Z M227 756 L207 783 L349 922 L369 922 L400 871 L243 756 L227 756 Z " />
<glyph glyph-name="Icircumflex" unicode="&#xce;" horiz-adv-x="266" d="M170 700 L265 700 L117 0 L22 0 L170 700 Z M248 844 L132 758 L115 758 L94 784 L243 924 L277 924 L368 784 L337 758 L325 758 L248 844 Z " />
<glyph glyph-name="Idieresis" unicode="&#xcf;" horiz-adv-x="266" d="M170 700 L265 700 L117 0 L22 0 L170 700 Z M128 826 Q128 846 143.5 862 Q159 878 185 878 Q202 878 212.5 866.5 Q223 855 223 840 Q223 819 207.5 804 Q192 789 167 789 Q149 789 138.5 800 Q128 811 128 826 Z M266 826 Q266 846 281.5 862 Q297 878 323 878 Q340 878 350.5 866.5 Q361 855 361 840 Q361 819 345 804 Q329 789 305 789 Q286 789 276 800 Q266 811 266 826 Z " />
<glyph glyph-name="Eth" unicode="&#xd0;" horiz-adv-x="666" d="M38 383 L107 383 L175 700 L376 700 Q495 700 563.5 638.5 Q632 577 632 452 Q632 345 605.5 261 Q579 177 529 119 Q479 61 408 30.5 Q337 0 247 0 L26 0 L96 332 L27 332 L38 383 Z M202 383 L389 383 L379 332 L191 332 L137 75 L264 75 Q322 75 371 99.5 Q420 124 455.5 172 Q491 220 511 290 Q531 360 531 451 Q531 539 489.5 582.5 Q448 626 360 626 L254 626 L202 383 Z " />
<glyph glyph-name="Ntilde" unicode="&#xd1;" horiz-adv-x="654" d="M601 896 L593 858 Q584 818 562.5 797 Q541 776 501 776 Q481 776 462.5 784.5 Q444 793 427 802.5 Q410 812 394 820.5 Q378 829 364 829 Q344 829 333 820 Q322 811 320 801 L312 767 L260 767 L268 803 Q277 847 299.5 868.5 Q322 890 361 890 Q379 890 397.5 881.5 Q416 873 433.5 862.5 Q451 852 468 843.5 Q485 835 501 835 Q522 835 532 845 Q542 855 544 865 L550 896 L601 896 Z M437 -2 L216 539 L102 0 L18 0 L167 700 L250 700 L459 183 L569 700 L653 700 L505 -2 L437 -2 Z " />
<glyph glyph-name="Ograve" unicode="&#xd2;" horiz-adv-x="673" d="M429 756 L320 871 L372 922 L389 922 L472 783 L441 756 L429 756 Z M406 710 Q466 710 510.5 692 Q555 674 584.5 641 Q614 608 629 562.5 Q644 517 644 463 Q644 412 635 357.5 Q626 303 607.5 250.5 Q589 198 560.5 150.5 Q532 103 492.5 67.5 Q453 32 402 11 Q351 -10 289 -10 Q229 -10 184.5 8 Q140 26 110.5 59 Q81 92 66 137.5 Q51 183 51 237 Q51 288 60 342.5 Q69 397 87.5 449.5 Q106 502 134.5 549.5 Q163 597 202.5 632.5 Q242 668 293 689 Q344 710 406 710 Z M400 633 Q355 633 319.5 613 Q284 593 256.5 560 Q229 527 209 484.5 Q189 442 176.5 396 Q164 350 158 304.5 Q152 259 152 221 Q152 146 186 107 Q220 68 295 68 Q339 68 375 87.5 Q411 107 438.5 140 Q466 173 486 215.5 Q506 258 519 303.5 Q532 349 538 394.5 Q544 440 544 478 Q544 554 509.5 593.5 Q475 633 400 633 Z " />
<glyph glyph-name="Oacute" unicode="&#xd3;" horiz-adv-x="673" d="M438 756 L418 783 L560 922 L580 922 L611 871 L454 756 L438 756 Z M406 710 Q466 710 510.5 692 Q555 674 584.5 641 Q614 608 629 562.5 Q644 517 644 463 Q644 412 635 357.5 Q626 303 607.5 250.5 Q589 198 560.5 150.5 Q532 103 492.5 67.5 Q453 32 402 11 Q351 -10 289 -10 Q229 -10 184.5 8 Q140 26 110.5 59 Q81 92 66 137.5 Q51 183 51 237 Q51 288 60 342.5 Q69 397 87.5 449.5 Q106 502 134.5 549.5 Q163 597 202.5 632.5 Q242 668 293 689 Q344 710 406 710 Z M400 633 Q355 633 319.5 613 Q284 593 256.5 560 Q229 527 209 484.5 Q189 442 176.5 396 Q164 350 158 304.5 Q152 259 152 221 Q152 146 186 107 Q220 68 295 68 Q339 68 375 87.5 Q411 107 438.5 140 Q466 173 486 215.5 Q506 258 519 303.5 Q532 349 538 394.5 Q544 440 544 478 Q544 554 509.5 593.5 Q475 633 400 633 Z " />
<glyph glyph-name="Ocircumflex" unicode="&#xd4;" horiz-adv-x="673" d="M461 844 L345 758 L328 758 L307 784 L456 924 L490 924 L581 784 L550 758 L538 758 L461 844 Z M406 710 Q466 710 510.5 692 Q555 674 584.5 641 Q614 608 629 562.5 Q644 517 644 463 Q644 412 635 357.5 Q626 303 607.5 250.5 Q589 198 560.5 150.5 Q532 103 492.5 67.5 Q453 32 402 11 Q351 -10 289 -10 Q229 -10 184.5 8 Q140 26 110.5 59 Q81 92 66 137.5 Q51 183 51 237 Q51 288 60 342.5 Q69 397 87.5 449.5 Q106 502 134.5 549.5 Q163 597 202.5 632.5 Q242 668 293 689 Q344 710 406 710 Z M400 633 Q355 633 319.5 613 Q284 593 256.5 560 Q229 527 209 484.5 Q189 442 176.5 396 Q164 350 158 304.5 Q152 259 152 221 Q152 146 186 107 Q220 68 295 68 Q339 68 375 87.5 Q411 107 438.5 140 Q466 173 486 215.5 Q506 258 519 303.5 Q532 349 538 394.5 Q544 440 544 478 Q544 554 509.5 593.5 Q475 633 400 633 Z " />
<glyph glyph-name="Otilde" unicode="&#xd5;" horiz-adv-x="673" d="M406 710 Q466 710 510.5 692 Q555 674 584.5 641 Q614 608 629 562.5 Q644 517 644 463 Q644 412 635 357.5 Q626 303 607.5 250.5 Q589 198 560.5 150.5 Q532 103 492.5 67.5 Q453 32 402 11 Q351 -10 289 -10 Q229 -10 184.5 8 Q140 26 110.5 59 Q81 92 66 137.5 Q51 183 51 237 Q51 288 60 342.5 Q69 397 87.5 449.5 Q106 502 134.5 549.5 Q163 597 202.5 632.5 Q242 668 293 689 Q344 710 406 710 Z M400 633 Q355 633 319.5 613 Q284 593 256.5 560 Q229 527 209 484.5 Q189 442 176.5 396 Q164 350 158 304.5 Q152 259 152 221 Q152 146 186 107 Q220 68 295 68 Q339 68 375 87.5 Q411 107 438.5 140 Q466 173 486 215.5 Q506 258 519 303.5 Q532 349 538 394.5 Q544 440 544 478 Q544 554 509.5 593.5 Q475 633 400 633 Z M623 896 L615 858 Q606 818 584.5 797 Q563 776 523 776 Q503 776 484.5 784.5 Q466 793 449 802.5 Q432 812 416 820.5 Q400 829 386 829 Q366 829 355 820 Q344 811 342 801 L334 767 L282 767 L290 803 Q299 847 321.5 868.5 Q344 890 383 890 Q401 890 419.5 881.5 Q438 873 455.5 862.5 Q473 852 490 843.5 Q507 835 523 835 Q544 835 554 845 Q564 855 566 865 L572 896 L623 896 Z " />
<glyph glyph-name="Odieresis" unicode="&#xd6;" horiz-adv-x="673" d="M406 710 Q466 710 510.5 692 Q555 674 584.5 641 Q614 608 629 562.5 Q644 517 644 463 Q644 412 635 357.5 Q626 303 607.5 250.5 Q589 198 560.5 150.5 Q532 103 492.5 67.5 Q453 32 402 11 Q351 -10 289 -10 Q229 -10 184.5 8 Q140 26 110.5 59 Q81 92 66 137.5 Q51 183 51 237 Q51 288 60 342.5 Q69 397 87.5 449.5 Q106 502 134.5 549.5 Q163 597 202.5 632.5 Q242 668 293 689 Q344 710 406 710 Z M400 633 Q355 633 319.5 613 Q284 593 256.5 560 Q229 527 209 484.5 Q189 442 176.5 396 Q164 350 158 304.5 Q152 259 152 221 Q152 146 186 107 Q220 68 295 68 Q339 68 375 87.5 Q411 107 438.5 140 Q466 173 486 215.5 Q506 258 519 303.5 Q532 349 538 394.5 Q544 440 544 478 Q544 554 509.5 593.5 Q475 633 400 633 Z M339 826 Q339 846 354.5 862 Q370 878 396 878 Q413 878 423.5 866.5 Q434 855 434 840 Q434 819 418.5 804 Q403 789 378 789 Q360 789 349.5 800 Q339 811 339 826 Z M477 826 Q477 846 492.5 862 Q508 878 534 878 Q551 878 561.5 866.5 Q572 855 572 840 Q572 819 556 804 Q540 789 516 789 Q497 789 487 800 Q477 811 477 826 Z " />
<glyph glyph-name="multiply" unicode="&#xd7;" horiz-adv-x="491" d="M70 196 L204 329 L71 461 L116 505 L248 373 L380 505 L425 461 L292 329 L425 196 L381 151 L248 285 L114 151 L70 196 Z " />
<glyph glyph-name="Oslash" unicode="&#xd8;" horiz-adv-x="674" d="M406 710 Q465 710 508.5 692.5 Q552 675 582 643 L643 710 L711 710 L612 602 Q644 543 644 463 Q644 412 635 357.5 Q626 303 607.5 250.5 Q589 198 560.5 150.5 Q532 103 492.5 67.5 Q453 32 402 11 Q351 -10 289 -10 Q230 -10 186.5 7 Q143 24 113 56 L53 -10 L-15 -10 L83 97 Q66 126 58.5 161.5 Q51 197 51 237 Q51 288 60 342.5 Q69 397 87.5 449.5 Q106 502 134.5 549.5 Q163 597 202.5 632.5 Q242 668 292.5 689 Q343 710 406 710 Z M400 633 Q355 633 319.5 613 Q284 593 256.5 560 Q229 527 209 484.5 Q189 442 176.5 396 Q164 350 158 304.5 Q152 259 152 221 Q152 197 155 176 L521 577 Q488 633 400 633 Z M295 68 Q339 68 375 87.5 Q411 107 438.5 140 Q466 173 486 215.5 Q506 258 519 303.5 Q532 349 538 394 Q544 439 544 478 Q544 504 540 523 L174 123 Q209 68 295 68 Z " />
<glyph glyph-name="Ugrave" unicode="&#xd9;" horiz-adv-x="643" d="M416 756 L307 871 L359 922 L376 922 L459 783 L428 756 L416 756 Z M557 700 L648 700 L550 235 Q522 104 450 47 Q378 -10 272 -10 Q171 -10 115 31.5 Q59 73 59 161 Q59 178 61.5 201 Q64 224 69 244 L165 700 L263 700 L167 246 Q163 226 161 209.5 Q159 193 159 177 Q159 126 189.5 97 Q220 68 285 68 Q358 68 400 111.5 Q442 155 461 246 L557 700 Z " />
<glyph glyph-name="Uacute" unicode="&#xda;" horiz-adv-x="643" d="M557 700 L648 700 L550 235 Q522 104 450 47 Q378 -10 272 -10 Q171 -10 115 31.5 Q59 73 59 161 Q59 178 61.5 201 Q64 224 69 244 L165 700 L263 700 L167 246 Q163 226 161 209.5 Q159 193 159 177 Q159 126 189.5 97 Q220 68 285 68 Q358 68 400 111.5 Q442 155 461 246 L557 700 Z M424 756 L404 783 L546 922 L566 922 L597 871 L440 756 L424 756 Z " />
<glyph glyph-name="Ucircumflex" unicode="&#xdb;" horiz-adv-x="643" d="M448 844 L332 758 L315 758 L294 784 L443 924 L477 924 L568 784 L537 758 L525 758 L448 844 Z M557 700 L648 700 L550 235 Q522 104 450 47 Q378 -10 272 -10 Q171 -10 115 31.5 Q59 73 59 161 Q59 178 61.5 201 Q64 224 69 244 L165 700 L263 700 L167 246 Q163 226 161 209.5 Q159 193 159 177 Q159 126 189.5 97 Q220 68 285 68 Q358 68 400 111.5 Q442 155 461 246 L557 700 Z " />
<glyph glyph-name="Udieresis" unicode="&#xdc;" horiz-adv-x="643" d="M557 700 L648 700 L550 235 Q522 104 450 47 Q378 -10 272 -10 Q171 -10 115 31.5 Q59 73 59 161 Q59 178 61.5 201 Q64 224 69 244 L165 700 L263 700 L167 246 Q163 226 161 209.5 Q159 193 159 177 Q159 126 189.5 97 Q220 68 285 68 Q358 68 400 111.5 Q442 155 461 246 L557 700 Z M326 826 Q326 846 341.5 862 Q357 878 383 878 Q400 878 410.5 866.5 Q421 855 421 840 Q421 819 405.5 804 Q390 789 365 789 Q347 789 336.5 800 Q326 811 326 826 Z M464 826 Q464 846 479.5 862 Q495 878 521 878 Q538 878 548.5 866.5 Q559 855 559 840 Q559 819 543 804 Q527 789 503 789 Q484 789 474 800 Q464 811 464 826 Z " />
<glyph glyph-name="Yacute" unicode="&#xdd;" horiz-adv-x="595" d="M190 0 L250 282 L102 700 L201 700 L315 375 L551 700 L651 700 L347 289 L285 0 L190 0 Z M396 756 L376 783 L518 922 L538 922 L569 871 L412 756 L396 756 Z " />
<glyph glyph-name="Ygrave" unicode="&#x1ef2;" horiz-adv-x="595" d="M190 0 L250 282 L102 700 L201 700 L315 375 L551 700 L651 700 L347 289 L285 0 L190 0 Z M348 756 L239 871 L291 922 L308 922 L391 783 L360 756 L348 756 Z " />
<glyph glyph-name="Thorn" unicode="&#xde;" horiz-adv-x="601" d="M150 149 L118 0 L23 0 L172 700 L266 700 L236 562 L363 562 Q466 562 522.5 519.5 Q579 477 579 389 Q579 329 558.5 284 Q538 239 499.5 209 Q461 179 406 164 Q351 149 283 149 L150 149 Z M164 221 L298 221 Q385 221 432.5 261.5 Q480 302 480 386 Q480 438 448 464 Q416 490 348 490 L221 490 L164 221 Z " />
<glyph glyph-name="germandbls" unicode="&#xdf;" horiz-adv-x="598" d="M125 -2 Q107 -91 60 -135.5 Q13 -180 -76 -180 Q-99 -180 -115.5 -177 Q-132 -174 -140 -172 L-126 -107 Q-113 -109 -97.5 -110.5 Q-82 -112 -70 -112 Q-25 -112 -1.5 -88.5 Q22 -65 34 -6 L133 460 L54 460 L66 524 L147 524 L154 562 Q171 652 231 696 Q291 740 384 740 Q413 740 442.5 732.5 Q472 725 495.5 709.5 Q519 694 534 670 Q549 646 549 613 Q549 582 538.5 559.5 Q528 537 511.5 519 Q495 501 476.5 486 Q458 471 441.5 457 Q425 443 414.5 427 Q404 411 404 391 Q404 370 418 351.5 Q432 333 457 303 Q474 283 489 265 Q504 247 515.5 229 Q527 211 533.5 192 Q540 173 540 150 Q540 114 526 84.5 Q512 55 487 34 Q462 13 427.5 1.5 Q393 -10 352 -10 Q308 -10 276.5 -0.5 Q245 9 234 14 L248 81 Q271 69 296 62 Q321 55 352 55 Q397 55 425 76 Q453 97 453 138 Q453 169 432.5 195 Q412 221 384 253 Q352 289 333.5 313.5 Q315 338 315 367 Q315 391 326.5 412 Q338 433 355 451 Q372 469 391.5 486 Q411 503 428 520.5 Q445 538 456.5 557 Q468 576 468 598 Q468 635 441 655.5 Q414 676 372 676 Q324 676 290.5 652.5 Q257 629 244 567 L125 -2 Z " />
<glyph glyph-name="agrave" unicode="&#xe0;" horiz-adv-x="542" d="M206 69 Q227 69 247 79.5 Q267 90 286.5 106 Q306 122 323 142 Q340 162 355 182 L403 409 Q366 462 302 462 Q264 462 230.5 440.5 Q197 419 172.5 381.5 Q148 344 134 293.5 Q120 243 120 184 Q120 130 142.5 99.5 Q165 69 206 69 Z M333 79 Q319 62 302.5 46.5 Q286 31 266.5 18 Q247 5 225 -2.5 Q203 -10 178 -10 Q109 -10 68 37.5 Q27 85 27 171 Q27 247 47.5 313.5 Q68 380 104 429.5 Q140 479 189.5 507.5 Q239 536 296 536 Q338 536 369.5 521.5 Q401 507 419 483 L423 483 L426 497 Q428 508 436 517 Q444 526 462 526 L517 526 L406 0 L349 0 Q330 0 327 9 Q324 18 326 30 L336 79 L333 79 Z M220 697 L272 747 L289 747 L372 609 L342 582 L329 582 L220 697 Z " />
<glyph glyph-name="aacute" unicode="&#xe1;" horiz-adv-x="542" d="M206 69 Q227 69 247 79.5 Q267 90 286.5 106 Q306 122 323 142 Q340 162 355 182 L403 409 Q366 462 302 462 Q264 462 230.5 440.5 Q197 419 172.5 381.5 Q148 344 134 293.5 Q120 243 120 184 Q120 130 142.5 99.5 Q165 69 206 69 Z M333 79 Q319 62 302.5 46.5 Q286 31 266.5 18 Q247 5 225 -2.5 Q203 -10 178 -10 Q109 -10 68 37.5 Q27 85 27 171 Q27 247 47.5 313.5 Q68 380 104 429.5 Q140 479 189.5 507.5 Q239 536 296 536 Q338 536 369.5 521.5 Q401 507 419 483 L423 483 L426 497 Q428 508 436 517 Q444 526 462 526 L517 526 L406 0 L349 0 Q330 0 327 9 Q324 18 326 30 L336 79 L333 79 Z M469 747 L500 697 L343 582 L327 582 L308 609 L449 747 L469 747 Z " />
<glyph glyph-name="acircumflex" unicode="&#xe2;" horiz-adv-x="542" d="M206 69 Q227 69 247 79.5 Q267 90 286.5 106 Q306 122 323 142 Q340 162 355 182 L403 409 Q366 462 302 462 Q264 462 230.5 440.5 Q197 419 172.5 381.5 Q148 344 134 293.5 Q120 243 120 184 Q120 130 142.5 99.5 Q165 69 206 69 Z M333 79 Q319 62 302.5 46.5 Q286 31 266.5 18 Q247 5 225 -2.5 Q203 -10 178 -10 Q109 -10 68 37.5 Q27 85 27 171 Q27 247 47.5 313.5 Q68 380 104 429.5 Q140 479 189.5 507.5 Q239 536 296 536 Q338 536 369.5 521.5 Q401 507 419 483 L423 483 L426 497 Q428 508 436 517 Q444 526 462 526 L517 526 L406 0 L349 0 Q330 0 327 9 Q324 18 326 30 L336 79 L333 79 Z M368 664 L252 578 L236 578 L214 603 L363 743 L398 743 L488 603 L458 578 L445 578 L368 664 Z " />
<glyph glyph-name="atilde" unicode="&#xe3;" horiz-adv-x="542" d="M206 69 Q227 69 247 79.5 Q267 90 286.5 106 Q306 122 323 142 Q340 162 355 182 L403 409 Q366 462 302 462 Q264 462 230.5 440.5 Q197 419 172.5 381.5 Q148 344 134 293.5 Q120 243 120 184 Q120 130 142.5 99.5 Q165 69 206 69 Z M333 79 Q319 62 302.5 46.5 Q286 31 266.5 18 Q247 5 225 -2.5 Q203 -10 178 -10 Q109 -10 68 37.5 Q27 85 27 171 Q27 247 47.5 313.5 Q68 380 104 429.5 Q140 479 189.5 507.5 Q239 536 296 536 Q338 536 369.5 521.5 Q401 507 419 483 L423 483 L426 497 Q428 508 436 517 Q444 526 462 526 L517 526 L406 0 L349 0 Q330 0 327 9 Q324 18 326 30 L336 79 L333 79 Z M520 720 L512 682 Q504 642 482.5 621 Q461 600 421 600 Q401 600 382 608.5 Q363 617 345.5 626.5 Q328 636 312 644.5 Q296 653 283 653 Q263 653 252.5 645 Q242 637 239 625 L231 590 L180 590 L187 627 Q197 671 219 692.5 Q241 714 280 714 Q299 714 317.5 705.5 Q336 697 354 686.5 Q372 676 389 667.5 Q406 659 421 659 Q441 659 451 667.5 Q461 676 463 689 L469 720 L520 720 Z " />
<glyph glyph-name="adieresis" unicode="&#xe4;" horiz-adv-x="542" d="M206 69 Q227 69 247 79.5 Q267 90 286.5 106 Q306 122 323 142 Q340 162 355 182 L403 409 Q366 462 302 462 Q264 462 230.5 440.5 Q197 419 172.5 381.5 Q148 344 134 293.5 Q120 243 120 184 Q120 130 142.5 99.5 Q165 69 206 69 Z M333 79 Q319 62 302.5 46.5 Q286 31 266.5 18 Q247 5 225 -2.5 Q203 -10 178 -10 Q109 -10 68 37.5 Q27 85 27 171 Q27 247 47.5 313.5 Q68 380 104 429.5 Q140 479 189.5 507.5 Q239 536 296 536 Q338 536 369.5 521.5 Q401 507 419 483 L423 483 L426 497 Q428 508 436 517 Q444 526 462 526 L517 526 L406 0 L349 0 Q330 0 327 9 Q324 18 326 30 L336 79 L333 79 Z M237 660 Q237 680 252.5 696.5 Q268 713 294 713 Q311 713 321.5 701.5 Q332 690 332 675 Q332 653 316 638 Q300 623 276 623 Q258 623 247.5 634 Q237 645 237 660 Z M374 660 Q374 680 390 696.5 Q406 713 431 713 Q448 713 458.5 701.5 Q469 690 469 675 Q469 653 453.5 638 Q438 623 413 623 Q395 623 384.5 634 Q374 645 374 660 Z " />
<glyph glyph-name="aring" unicode="&#xe5;" horiz-adv-x="542" d="M206 69 Q227 69 247 79.5 Q267 90 286.5 106 Q306 122 323 142 Q340 162 355 182 L403 409 Q366 462 302 462 Q264 462 230.5 440.5 Q197 419 172.5 381.5 Q148 344 134 293.5 Q120 243 120 184 Q120 130 142.5 99.5 Q165 69 206 69 Z M333 79 Q319 62 302.5 46.5 Q286 31 266.5 18 Q247 5 225 -2.5 Q203 -10 178 -10 Q109 -10 68 37.5 Q27 85 27 171 Q27 247 47.5 313.5 Q68 380 104 429.5 Q140 479 189.5 507.5 Q239 536 296 536 Q338 536 369.5 521.5 Q401 507 419 483 L423 483 L426 497 Q428 508 436 517 Q444 526 462 526 L517 526 L406 0 L349 0 Q330 0 327 9 Q324 18 326 30 L336 79 L333 79 Z M294 646 Q294 609 345 609 Q377 609 397 624 Q417 639 417 667 Q417 703 365 703 Q334 703 314 688 Q294 673 294 646 Z M370 740 Q413 740 440 721.5 Q467 703 467 668 Q467 643 456.5 625 Q446 607 428.5 595.5 Q411 584 388.5 578.5 Q366 573 341 573 Q299 573 271.5 590.5 Q244 608 244 642 Q244 667 254 685.5 Q264 704 281 716 Q298 728 321 734 Q344 740 370 740 Z " />
<glyph glyph-name="ae" unicode="&#xe6;" horiz-adv-x="788" d="M520 -10 Q465 -10 420.5 10.5 Q376 31 351 76 Q343 68 324.5 53.5 Q306 39 280 25 Q254 11 221 0.5 Q188 -10 150 -10 Q109 -10 80.5 2 Q52 14 34.5 33.5 Q17 53 9 78.5 Q1 104 1 132 Q1 174 15.5 204.5 Q30 235 56 255 Q82 275 118 285 Q154 295 197 295 L336 295 L344 338 Q350 363 350 384 Q350 417 329.5 438.5 Q309 460 256 460 Q233 460 209.5 457 Q186 454 165 449 Q144 444 125.5 438.5 Q107 433 94 427 L111 505 Q118 508 133.5 513 Q149 518 171.5 523.5 Q194 529 221.5 532.5 Q249 536 279 536 Q343 536 377 515.5 Q411 495 421 457 Q459 495 506.5 515.5 Q554 536 605 536 Q638 536 667 527.5 Q696 519 717 503 Q738 487 750.5 463.5 Q763 440 763 409 Q763 370 746 341.5 Q729 313 700.5 293 Q672 273 636 260.5 Q600 248 561.5 240.5 Q523 233 485.5 230.5 Q448 228 417 227 Q416 219 416 211.5 Q416 204 416 196 Q416 130 450 98.5 Q484 67 543 67 Q577 67 608.5 80.5 Q640 94 673 117 L705 62 Q675 34 629.5 12 Q584 -10 520 -10 Z M169 63 Q195 63 219.5 69.5 Q244 76 265 86 Q286 96 303 106.5 Q320 117 332 126 Q324 156 324 191 Q324 210 324.5 217 Q325 224 326 228 L209 228 Q187 228 166 224 Q145 220 128.5 209.5 Q112 199 102 181.5 Q92 164 92 137 Q92 105 109 84 Q126 63 169 63 Z M595 467 Q569 467 543 456.5 Q517 446 494 424.5 Q471 403 453.5 370.5 Q436 338 426 294 Q460 295 504 299 Q548 303 587 314 Q626 325 652.5 344.5 Q679 364 679 396 Q679 432 653.5 449.5 Q628 467 595 467 Z " />
<glyph glyph-name="ccedilla" unicode="&#xe7;" horiz-adv-x="465" d="M160 -180 Q131 -180 106.5 -173 Q82 -166 68 -156 L88 -120 Q97 -126 117.5 -132.5 Q138 -139 161 -139 Q184 -139 201.5 -132 Q219 -125 219 -106 Q219 -90 196 -81.5 Q173 -73 135 -70 L138 -50 L181 -6 Q149 0 121 14.5 Q93 29 72.5 53.5 Q52 78 40.5 112.5 Q29 147 29 192 Q29 274 53.5 338 Q78 402 120 446 Q162 490 217 513 Q272 536 333 536 Q369 536 399 529 Q429 522 451 514 L435 440 Q407 449 383.5 453.5 Q360 458 328 458 Q284 458 246 440 Q208 422 180 389.5 Q152 357 136.5 311 Q121 265 121 209 Q121 136 152.5 101.5 Q184 67 235 67 Q271 67 302.5 79 Q334 91 363 113 L396 59 Q369 33 326 12 Q283 -9 229 -10 L201 -40 Q244 -45 263.5 -59.5 Q283 -74 283 -100 Q283 -123 272 -138 Q261 -153 243.5 -162.5 Q226 -172 204 -176 Q182 -180 160 -180 Z " />
<glyph glyph-name="egrave" unicode="&#xe8;" horiz-adv-x="495" d="M226 -10 Q185 -10 149 1.5 Q113 13 86.5 38 Q60 63 45 100.5 Q30 138 30 191 Q30 273 53 337.5 Q76 402 115 446 Q154 490 205 513 Q256 536 311 536 Q344 536 373 528 Q402 520 423 504 Q444 488 456.5 464 Q469 440 469 409 Q469 368 452 338 Q435 308 406.5 285.5 Q378 263 342 247.5 Q306 232 267.5 222 Q229 212 191 206 Q153 200 122 197 Q121 133 155 100 Q189 67 249 67 Q283 67 314.5 80.5 Q346 94 379 117 L411 62 Q381 34 335.5 12 Q290 -10 226 -10 Z M301 465 Q273 465 245 453 Q217 441 193.5 416.5 Q170 392 152.5 354.5 Q135 317 128 266 Q162 271 206.5 278.5 Q251 286 290.5 300 Q330 314 357.5 337 Q385 360 385 396 Q385 431 360 448 Q335 465 301 465 Z M209 697 L261 747 L278 747 L361 609 L331 582 L318 582 L209 697 Z " />
<glyph glyph-name="eacute" unicode="&#xe9;" horiz-adv-x="495" d="M459 747 L490 697 L333 582 L317 582 L298 609 L439 747 L459 747 Z M226 -10 Q185 -10 149 1.5 Q113 13 86.5 38 Q60 63 45 100.5 Q30 138 30 191 Q30 273 53 337.5 Q76 402 115 446 Q154 490 205 513 Q256 536 311 536 Q344 536 373 528 Q402 520 423 504 Q444 488 456.5 464 Q469 440 469 409 Q469 368 452 338 Q435 308 406.5 285.5 Q378 263 342 247.5 Q306 232 267.5 222 Q229 212 191 206 Q153 200 122 197 Q121 133 155 100 Q189 67 249 67 Q283 67 314.5 80.5 Q346 94 379 117 L411 62 Q381 34 335.5 12 Q290 -10 226 -10 Z M301 465 Q273 465 245 453 Q217 441 193.5 416.5 Q170 392 152.5 354.5 Q135 317 128 266 Q162 271 206.5 278.5 Q251 286 290.5 300 Q330 314 357.5 337 Q385 360 385 396 Q385 431 360 448 Q335 465 301 465 Z " />
<glyph glyph-name="ecircumflex" unicode="&#xea;" horiz-adv-x="495" d="M342 664 L226 578 L210 578 L188 603 L337 743 L372 743 L462 603 L432 578 L419 578 L342 664 Z M226 -10 Q185 -10 149 1.5 Q113 13 86.5 38 Q60 63 45 100.5 Q30 138 30 191 Q30 273 53 337.5 Q76 402 115 446 Q154 490 205 513 Q256 536 311 536 Q344 536 373 528 Q402 520 423 504 Q444 488 456.5 464 Q469 440 469 409 Q469 368 452 338 Q435 308 406.5 285.5 Q378 263 342 247.5 Q306 232 267.5 222 Q229 212 191 206 Q153 200 122 197 Q121 133 155 100 Q189 67 249 67 Q283 67 314.5 80.5 Q346 94 379 117 L411 62 Q381 34 335.5 12 Q290 -10 226 -10 Z M301 465 Q273 465 245 453 Q217 441 193.5 416.5 Q170 392 152.5 354.5 Q135 317 128 266 Q162 271 206.5 278.5 Q251 286 290.5 300 Q330 314 357.5 337 Q385 360 385 396 Q385 431 360 448 Q335 465 301 465 Z " />
<glyph glyph-name="edieresis" unicode="&#xeb;" horiz-adv-x="495" d="M227 660 Q227 680 242.5 696.5 Q258 713 284 713 Q301 713 311.5 701.5 Q322 690 322 675 Q322 653 306 638 Q290 623 266 623 Q248 623 237.5 634 Q227 645 227 660 Z M364 660 Q364 680 380 696.5 Q396 713 421 713 Q438 713 448.5 701.5 Q459 690 459 675 Q459 653 443.5 638 Q428 623 403 623 Q385 623 374.5 634 Q364 645 364 660 Z M226 -10 Q185 -10 149 1.5 Q113 13 86.5 38 Q60 63 45 100.5 Q30 138 30 191 Q30 273 53 337.5 Q76 402 115 446 Q154 490 205 513 Q256 536 311 536 Q344 536 373 528 Q402 520 423 504 Q444 488 456.5 464 Q469 440 469 409 Q469 368 452 338 Q435 308 406.5 285.5 Q378 263 342 247.5 Q306 232 267.5 222 Q229 212 191 206 Q153 200 122 197 Q121 133 155 100 Q189 67 249 67 Q283 67 314.5 80.5 Q346 94 379 117 L411 62 Q381 34 335.5 12 Q290 -10 226 -10 Z M301 465 Q273 465 245 453 Q217 441 193.5 416.5 Q170 392 152.5 354.5 Q135 317 128 266 Q162 271 206.5 278.5 Q251 286 290.5 300 Q330 314 357.5 337 Q385 360 385 396 Q385 431 360 448 Q335 465 301 465 Z " />
<glyph glyph-name="igrave" unicode="&#xec;" horiz-adv-x="235" d="M120 526 L210 526 L99 0 L9 0 L120 526 Z M59 697 L111 747 L128 747 L211 609 L181 582 L168 582 L59 697 Z " />
<glyph glyph-name="iacute" unicode="&#xed;" horiz-adv-x="235" d="M311 747 L342 697 L185 582 L169 582 L150 609 L291 747 L311 747 Z M120 526 L210 526 L99 0 L9 0 L120 526 Z " />
<glyph glyph-name="icircumflex" unicode="&#xee;" horiz-adv-x="235" d="M193 664 L77 578 L61 578 L39 603 L188 743 L223 743 L313 603 L283 578 L270 578 L193 664 Z M120 526 L210 526 L99 0 L9 0 L120 526 Z " />
<glyph glyph-name="idieresis" unicode="&#xef;" horiz-adv-x="235" d="M77 660 Q77 680 92.5 696.5 Q108 713 134 713 Q151 713 161.5 701.5 Q172 690 172 675 Q172 653 156 638 Q140 623 116 623 Q98 623 87.5 634 Q77 645 77 660 Z M214 660 Q214 680 230 696.5 Q246 713 271 713 Q288 713 298.5 701.5 Q309 690 309 675 Q309 653 293.5 638 Q278 623 253 623 Q235 623 224.5 634 Q214 645 214 660 Z M120 526 L210 526 L99 0 L9 0 L120 526 Z " />
<glyph glyph-name="eth" unicode="&#xf0;" horiz-adv-x="547" d="M226 -10 Q184 -10 148.5 2.5 Q113 15 86.5 40 Q60 65 45.5 103.5 Q31 142 31 195 Q31 280 54.5 343.5 Q78 407 116 450 Q154 493 203 514.5 Q252 536 302 536 Q369 536 399 493 Q384 566 348 619 L261 582 L250 622 L323 654 Q310 669 295.5 682 Q281 695 264 707 L299 741 Q324 728 344.5 712.5 Q365 697 383 680 L468 716 L480 676 L411 647 Q461 582 480.5 501.5 Q500 421 500 336 Q500 250 476.5 185.5 Q453 121 414.5 77.5 Q376 34 326.5 12 Q277 -10 226 -10 Z M123 194 Q123 125 149 92 Q175 59 230 59 Q269 59 301.5 82 Q334 105 358 144 Q382 183 395 233.5 Q408 284 408 340 Q408 403 382 435 Q356 467 300 467 Q261 467 228.5 444 Q196 421 172.5 383 Q149 345 136 296 Q123 247 123 194 Z " />
<glyph glyph-name="ntilde" unicode="&#xf1;" horiz-adv-x="552" d="M338 457 Q312 457 286.5 444 Q261 431 239 413 Q217 395 199.5 376 Q182 357 173 345 L98 0 L9 0 L119 526 L176 526 Q195 526 198.5 517 Q202 508 199 497 L189 446 L193 446 Q208 462 226.5 478.5 Q245 495 266.5 507.5 Q288 520 312 528 Q336 536 363 536 Q428 536 465 499 Q502 462 502 404 Q502 382 498 363 L420 0 L330 0 L405 351 Q409 370 409 388 Q409 457 338 457 Z M525 720 L517 682 Q509 642 487.5 621 Q466 600 426 600 Q406 600 387 608.5 Q368 617 350.5 626.5 Q333 636 317 644.5 Q301 653 288 653 Q268 653 257.5 645 Q247 637 244 625 L236 590 L185 590 L192 627 Q202 671 224 692.5 Q246 714 285 714 Q304 714 322.5 705.5 Q341 697 359 686.5 Q377 676 394 667.5 Q411 659 426 659 Q446 659 456 667.5 Q466 676 468 689 L474 720 L525 720 Z " />
<glyph glyph-name="ograve" unicode="&#xf2;" horiz-adv-x="547" d="M31 195 Q31 280 54.5 343.5 Q78 407 116.5 450 Q155 493 204.5 514.5 Q254 536 306 536 Q347 536 382.5 523.5 Q418 511 444.5 486 Q471 461 486 423.5 Q501 386 501 336 Q501 250 477.5 185.5 Q454 121 415 77.5 Q376 34 326.5 12 Q277 -10 226 -10 Q185 -10 149.5 2.5 Q114 15 87.5 40.5 Q61 66 46 104.5 Q31 143 31 195 Z M124 194 Q124 64 231 64 Q270 64 302.5 86.5 Q335 109 358.5 147.5 Q382 186 395 236 Q408 286 408 340 Q408 399 381 430 Q354 461 301 461 Q262 461 229.5 438.5 Q197 416 173.5 379 Q150 342 137 293.5 Q124 245 124 194 Z M218 697 L270 747 L287 747 L370 609 L340 582 L327 582 L218 697 Z " />
<glyph glyph-name="oacute" unicode="&#xf3;" horiz-adv-x="547" d="M468 747 L499 697 L342 582 L326 582 L307 609 L448 747 L468 747 Z M31 195 Q31 280 54.5 343.5 Q78 407 116.5 450 Q155 493 204.5 514.5 Q254 536 306 536 Q347 536 382.5 523.5 Q418 511 444.5 486 Q471 461 486 423.5 Q501 386 501 336 Q501 250 477.5 185.5 Q454 121 415 77.5 Q376 34 326.5 12 Q277 -10 226 -10 Q185 -10 149.5 2.5 Q114 15 87.5 40.5 Q61 66 46 104.5 Q31 143 31 195 Z M124 194 Q124 64 231 64 Q270 64 302.5 86.5 Q335 109 358.5 147.5 Q382 186 395 236 Q408 286 408 340 Q408 399 381 430 Q354 461 301 461 Q262 461 229.5 438.5 Q197 416 173.5 379 Q150 342 137 293.5 Q124 245 124 194 Z " />
<glyph glyph-name="ocircumflex" unicode="&#xf4;" horiz-adv-x="547" d="M353 664 L237 578 L221 578 L199 603 L348 743 L383 743 L473 603 L443 578 L430 578 L353 664 Z M31 195 Q31 280 54.5 343.5 Q78 407 116.5 450 Q155 493 204.5 514.5 Q254 536 306 536 Q347 536 382.5 523.5 Q418 511 444.5 486 Q471 461 486 423.5 Q501 386 501 336 Q501 250 477.5 185.5 Q454 121 415 77.5 Q376 34 326.5 12 Q277 -10 226 -10 Q185 -10 149.5 2.5 Q114 15 87.5 40.5 Q61 66 46 104.5 Q31 143 31 195 Z M124 194 Q124 64 231 64 Q270 64 302.5 86.5 Q335 109 358.5 147.5 Q382 186 395 236 Q408 286 408 340 Q408 399 381 430 Q354 461 301 461 Q262 461 229.5 438.5 Q197 416 173.5 379 Q150 342 137 293.5 Q124 245 124 194 Z " />
<glyph glyph-name="otilde" unicode="&#xf5;" horiz-adv-x="547" d="M31 195 Q31 280 54.5 343.5 Q78 407 116.5 450 Q155 493 204.5 514.5 Q254 536 306 536 Q347 536 382.5 523.5 Q418 511 444.5 486 Q471 461 486 423.5 Q501 386 501 336 Q501 250 477.5 185.5 Q454 121 415 77.5 Q376 34 326.5 12 Q277 -10 226 -10 Q185 -10 149.5 2.5 Q114 15 87.5 40.5 Q61 66 46 104.5 Q31 143 31 195 Z M124 194 Q124 64 231 64 Q270 64 302.5 86.5 Q335 109 358.5 147.5 Q382 186 395 236 Q408 286 408 340 Q408 399 381 430 Q354 461 301 461 Q262 461 229.5 438.5 Q197 416 173.5 379 Q150 342 137 293.5 Q124 245 124 194 Z M510 720 L502 682 Q494 642 472.5 621 Q451 600 411 600 Q391 600 372 608.5 Q353 617 335.5 626.5 Q318 636 302 644.5 Q286 653 273 653 Q253 653 242.5 645 Q232 637 229 625 L221 590 L170 590 L177 627 Q187 671 209 692.5 Q231 714 270 714 Q289 714 307.5 705.5 Q326 697 344 686.5 Q362 676 379 667.5 Q396 659 411 659 Q431 659 441 667.5 Q451 676 453 689 L459 720 L510 720 Z " />
<glyph glyph-name="odieresis" unicode="&#xf6;" horiz-adv-x="547" d="M230 660 Q230 680 245.5 696.5 Q261 713 287 713 Q304 713 314.5 701.5 Q325 690 325 675 Q325 653 309 638 Q293 623 269 623 Q251 623 240.5 634 Q230 645 230 660 Z M367 660 Q367 680 383 696.5 Q399 713 424 713 Q441 713 451.5 701.5 Q462 690 462 675 Q462 653 446.5 638 Q431 623 406 623 Q388 623 377.5 634 Q367 645 367 660 Z M31 195 Q31 280 54.5 343.5 Q78 407 116.5 450 Q155 493 204.5 514.5 Q254 536 306 536 Q347 536 382.5 523.5 Q418 511 444.5 486 Q471 461 486 423.5 Q501 386 501 336 Q501 250 477.5 185.5 Q454 121 415 77.5 Q376 34 326.5 12 Q277 -10 226 -10 Q185 -10 149.5 2.5 Q114 15 87.5 40.5 Q61 66 46 104.5 Q31 143 31 195 Z M124 194 Q124 64 231 64 Q270 64 302.5 86.5 Q335 109 358.5 147.5 Q382 186 395 236 Q408 286 408 340 Q408 399 381 430 Q354 461 301 461 Q262 461 229.5 438.5 Q197 416 173.5 379 Q150 342 137 293.5 Q124 245 124 194 Z " />
<glyph glyph-name="divide" unicode="&#xf7;" horiz-adv-x="531" d="M225 494 Q225 514 239 527.5 Q253 541 272 541 Q291 541 305 527.5 Q319 514 319 494 Q319 475 305 461 Q291 447 272 447 Q253 447 239 461 Q225 475 225 494 Z M225 170 Q225 190 239 203.5 Q253 217 272 217 Q291 217 305 203.5 Q319 190 319 170 Q319 151 305 137 Q291 123 272 123 Q253 123 239 137 Q225 151 225 170 Z M70 362 L473 362 L473 303 L70 303 L70 362 Z " />
<glyph glyph-name="oslash" unicode="&#xf8;" horiz-adv-x="547" d="M31 195 Q31 280 54.5 343.5 Q78 407 116.5 450 Q155 493 204.5 514.5 Q254 536 306 536 Q348 536 383.5 523.5 Q419 511 445 486 L491 536 L552 536 L473 451 Q501 404 501 336 Q501 250 477.5 185.5 Q454 121 415 77.5 Q376 34 326.5 12 Q277 -10 226 -10 Q185 -10 150 2 Q115 14 89 39 L43 -10 L-20 -10 L60 75 Q31 122 31 195 Z M124 194 Q124 167 128 148 L386 423 Q359 461 301 461 Q262 461 229.5 438.5 Q197 416 173.5 379 Q150 342 137 293.5 Q124 245 124 194 Z M408 340 Q408 350 407 359.5 Q406 369 404 377 L147 102 Q174 64 231 64 Q270 64 302.5 86.5 Q335 109 358.5 147.5 Q382 186 395 236 Q408 286 408 340 Z " />
<glyph glyph-name="ugrave" unicode="&#xf9;" horiz-adv-x="544" d="M336 79 Q321 63 303 47 Q285 31 264 18.5 Q243 6 219 -2 Q195 -10 168 -10 Q105 -10 69.5 26.5 Q34 63 34 120 Q33 131 34.5 141.5 Q36 152 38 163 L116 526 L206 526 L131 174 Q129 164 128 154.5 Q127 145 127 137 Q127 68 193 68 Q218 68 243.5 81.5 Q269 95 291 113 Q313 131 330 150 Q347 169 356 181 L431 526 L520 526 L409 0 L353 0 Q333 0 330 8.5 Q327 17 329 29 L340 79 L336 79 Z M215 697 L267 747 L284 747 L367 609 L337 582 L324 582 L215 697 Z " />
<glyph glyph-name="uacute" unicode="&#xfa;" horiz-adv-x="544" d="M464 747 L495 697 L338 582 L322 582 L303 609 L444 747 L464 747 Z M336 79 Q321 63 303 47 Q285 31 264 18.5 Q243 6 219 -2 Q195 -10 168 -10 Q105 -10 69.5 26.5 Q34 63 34 120 Q33 131 34.5 141.5 Q36 152 38 163 L116 526 L206 526 L131 174 Q129 164 128 154.5 Q127 145 127 137 Q127 68 193 68 Q218 68 243.5 81.5 Q269 95 291 113 Q313 131 330 150 Q347 169 356 181 L431 526 L520 526 L409 0 L353 0 Q333 0 330 8.5 Q327 17 329 29 L340 79 L336 79 Z " />
<glyph glyph-name="ucircumflex" unicode="&#xfb;" horiz-adv-x="544" d="M350 664 L234 578 L218 578 L196 603 L345 743 L380 743 L470 603 L440 578 L427 578 L350 664 Z M336 79 Q321 63 303 47 Q285 31 264 18.5 Q243 6 219 -2 Q195 -10 168 -10 Q105 -10 69.5 26.5 Q34 63 34 120 Q33 131 34.5 141.5 Q36 152 38 163 L116 526 L206 526 L131 174 Q129 164 128 154.5 Q127 145 127 137 Q127 68 193 68 Q218 68 243.5 81.5 Q269 95 291 113 Q313 131 330 150 Q347 169 356 181 L431 526 L520 526 L409 0 L353 0 Q333 0 330 8.5 Q327 17 329 29 L340 79 L336 79 Z " />
<glyph glyph-name="udieresis" unicode="&#xfc;" horiz-adv-x="544" d="M234 660 Q234 680 249.5 696.5 Q265 713 291 713 Q308 713 318.5 701.5 Q329 690 329 675 Q329 653 313 638 Q297 623 273 623 Q255 623 244.5 634 Q234 645 234 660 Z M371 660 Q371 680 387 696.5 Q403 713 428 713 Q445 713 455.5 701.5 Q466 690 466 675 Q466 653 450.5 638 Q435 623 410 623 Q392 623 381.5 634 Q371 645 371 660 Z M336 79 Q321 63 303 47 Q285 31 264 18.5 Q243 6 219 -2 Q195 -10 168 -10 Q105 -10 69.5 26.5 Q34 63 34 120 Q33 131 34.5 141.5 Q36 152 38 163 L116 526 L206 526 L131 174 Q129 164 128 154.5 Q127 145 127 137 Q127 68 193 68 Q218 68 243.5 81.5 Q269 95 291 113 Q313 131 330 150 Q347 169 356 181 L431 526 L520 526 L409 0 L353 0 Q333 0 330 8.5 Q327 17 329 29 L340 79 L336 79 Z " />
<glyph glyph-name="yacute" unicode="&#xfd;" horiz-adv-x="508" d="M57 -170 L152 -1 L67 526 L161 526 L218 117 L441 526 L533 526 L141 -170 L57 -170 Z M449 747 L480 697 L323 582 L307 582 L288 609 L429 747 L449 747 Z " />
<glyph glyph-name="ygrave" unicode="&#x1ef3;" horiz-adv-x="508" d="M57 -170 L152 -1 L67 526 L161 526 L218 117 L441 526 L533 526 L141 -170 L57 -170 Z M202 697 L254 747 L271 747 L354 609 L324 582 L311 582 L202 697 Z " />
<glyph glyph-name="thorn" unicode="&#xfe;" horiz-adv-x="543" d="M223 67 Q261 67 294.5 87 Q328 107 352.5 143 Q377 179 391.5 228.5 Q406 278 406 337 Q406 394 383.5 425.5 Q361 457 319 457 Q299 457 278.5 448 Q258 439 239 424 Q220 409 203.5 390 Q187 371 174 352 L123 116 Q160 67 223 67 Z M230 -10 Q188 -10 157 4 Q126 18 108 41 L63 -170 L-28 -170 L164 730 L254 730 L196 458 Q222 491 262 513.5 Q302 536 348 536 Q420 536 459 487 Q498 438 498 350 Q498 273 477.5 207 Q457 141 421 93 Q385 45 336 17.5 Q287 -10 230 -10 Z " />
<glyph glyph-name="ydieresis" unicode="&#xff;" horiz-adv-x="508" d="M57 -170 L152 -1 L67 526 L161 526 L218 117 L441 526 L533 526 L141 -170 L57 -170 Z M217 660 Q217 680 232.5 696.5 Q248 713 274 713 Q291 713 301.5 701.5 Q312 690 312 675 Q312 653 296 638 Q280 623 256 623 Q238 623 227.5 634 Q217 645 217 660 Z M354 660 Q354 680 370 696.5 Q386 713 411 713 Q428 713 438.5 701.5 Q449 690 449 675 Q449 653 433.5 638 Q418 623 393 623 Q375 623 364.5 634 Q354 645 354 660 Z " />
<glyph glyph-name="Amacron" unicode="&#x100;" horiz-adv-x="606" d="M404 174 L150 174 L60 0 L-40 0 L335 702 L434 702 L526 0 L424 0 L404 174 Z M188 247 L395 247 L359 573 L188 247 Z M294 855 L544 855 L532 801 L282 801 L294 855 Z " />
<glyph glyph-name="amacron" unicode="&#x101;" horiz-adv-x="542" d="M206 69 Q227 69 247 79.5 Q267 90 286.5 106 Q306 122 323 142 Q340 162 355 182 L403 409 Q366 462 302 462 Q264 462 230.5 440.5 Q197 419 172.5 381.5 Q148 344 134 293.5 Q120 243 120 184 Q120 130 142.5 99.5 Q165 69 206 69 Z M333 79 Q319 62 302.5 46.5 Q286 31 266.5 18 Q247 5 225 -2.5 Q203 -10 178 -10 Q109 -10 68 37.5 Q27 85 27 171 Q27 247 47.5 313.5 Q68 380 104 429.5 Q140 479 189.5 507.5 Q239 536 296 536 Q338 536 369.5 521.5 Q401 507 419 483 L423 483 L426 497 Q428 508 436 517 Q444 526 462 526 L517 526 L406 0 L349 0 Q330 0 327 9 Q324 18 326 30 L336 79 L333 79 Z M236 690 L486 690 L474 635 L224 635 L236 690 Z " />
<glyph glyph-name="Abreve" unicode="&#x102;" horiz-adv-x="606" d="M404 174 L150 174 L60 0 L-40 0 L335 702 L434 702 L526 0 L424 0 L404 174 Z M188 247 L395 247 L359 573 L188 247 Z M546 881 Q538 859 525 839 Q512 819 493.5 803.5 Q475 788 451.5 778.5 Q428 769 400 769 Q373 769 353.5 778 Q334 787 322 802.5 Q310 818 304 838.5 Q298 859 298 881 L350 892 Q350 864 362.5 842.5 Q375 821 408 821 Q443 821 465 842 Q487 863 499 890 L546 881 L546 881 Z " />
<glyph glyph-name="abreve" unicode="&#x103;" horiz-adv-x="542" d="M206 69 Q227 69 247 79.5 Q267 90 286.5 106 Q306 122 323 142 Q340 162 355 182 L403 409 Q366 462 302 462 Q264 462 230.5 440.5 Q197 419 172.5 381.5 Q148 344 134 293.5 Q120 243 120 184 Q120 130 142.5 99.5 Q165 69 206 69 Z M333 79 Q319 62 302.5 46.5 Q286 31 266.5 18 Q247 5 225 -2.5 Q203 -10 178 -10 Q109 -10 68 37.5 Q27 85 27 171 Q27 247 47.5 313.5 Q68 380 104 429.5 Q140 479 189.5 507.5 Q239 536 296 536 Q338 536 369.5 521.5 Q401 507 419 483 L423 483 L426 497 Q428 508 436 517 Q444 526 462 526 L517 526 L406 0 L349 0 Q330 0 327 9 Q324 18 326 30 L336 79 L333 79 Z M488 713 Q480 690 466.5 669 Q453 648 434 631.5 Q415 615 392 605 Q369 595 341 595 Q314 595 295 604.5 Q276 614 264 630 Q252 646 246.5 667 Q241 688 241 711 L292 723 Q292 694 305 671 Q318 648 349 648 Q383 648 405.5 670.5 Q428 693 442 723 L488 713 L488 713 Z " />
<glyph glyph-name="Aogonek" unicode="&#x104;" horiz-adv-x="605" d="M516 -151 Q498 -163 468.5 -171.5 Q439 -180 409 -180 Q368 -180 342.5 -163 Q317 -146 317 -110 Q317 -68 348 -39 Q379 -10 423 7 L404 174 L150 174 L60 0 L-41 0 L335 702 L434 702 L526 0 L514 0 Q487 0 463 -8 Q439 -16 421 -29 Q403 -42 393 -58.5 Q383 -75 383 -92 Q383 -114 397 -122.5 Q411 -131 432 -131 Q451 -131 472.5 -124 Q494 -117 504 -110 L516 -151 Z M188 247 L395 247 L358 573 L188 247 Z " />
<glyph glyph-name="aogonek" unicode="&#x105;" horiz-adv-x="542" d="M333 79 Q319 62 302.5 46.5 Q286 31 266.5 18 Q247 5 225 -2.5 Q203 -10 178 -10 Q109 -10 68 37.5 Q27 85 27 171 Q27 247 47.5 313.5 Q68 380 104 429.5 Q140 479 189.5 507.5 Q239 536 296 536 Q338 536 369.5 521.5 Q401 507 419 483 L423 483 L426 497 Q428 508 436 517 Q444 526 462 526 L517 526 L406 0 L404 0 Q384 0 363 -8.5 Q342 -17 324 -30.5 Q306 -44 294.5 -60.5 Q283 -77 283 -92 Q283 -114 296.5 -122.5 Q310 -131 332 -131 Q351 -131 372 -124 Q393 -117 404 -110 L415 -151 Q397 -163 368 -171.5 Q339 -180 309 -180 Q267 -180 241.5 -163 Q216 -146 216 -110 Q216 -67 248.5 -37.5 Q281 -8 327 9 Q323 16 326 30 L336 79 L333 79 Z M206 69 Q227 69 247 79.5 Q267 90 286.5 106 Q306 122 323 142 Q340 162 355 182 L403 409 Q366 462 302 462 Q264 462 230.5 440.5 Q197 419 172.5 381.5 Q148 344 134 293.5 Q120 243 120 184 Q120 130 142.5 99.5 Q165 69 206 69 Z " />
<glyph glyph-name="Cacute" unicode="&#x106;" horiz-adv-x="553" d="M462 17 Q431 6 391.5 -2 Q352 -10 301 -10 Q182 -10 117 54.5 Q52 119 52 240 Q52 348 79.5 435 Q107 522 158 583 Q209 644 282 677 Q355 710 446 710 Q494 710 531 701.5 Q568 693 591 683 L574 606 Q509 630 443 630 Q376 630 322.5 605.5 Q269 581 231.5 533 Q194 485 173.5 413.5 Q153 342 153 248 Q153 163 194.5 116 Q236 69 326 69 Q365 69 401 75.5 Q437 82 475 96 L462 17 Z M455 756 L435 783 L577 922 L597 922 L628 871 L471 756 L455 756 Z " />
<glyph glyph-name="cacute" unicode="&#x107;" horiz-adv-x="465" d="M468 747 L499 697 L342 582 L326 582 L307 609 L448 747 L468 747 Z M396 59 Q369 33 325.5 11.5 Q282 -10 226 -10 Q186 -10 150 2 Q114 14 87 38.5 Q60 63 44.5 101 Q29 139 29 192 Q29 274 53.5 338 Q78 402 120 446 Q162 490 217 513 Q272 536 333 536 Q369 536 399 529 Q429 522 451 514 L435 440 Q407 449 383.5 453.5 Q360 458 328 458 Q284 458 246 440 Q208 422 180 389.5 Q152 357 136.5 311 Q121 265 121 209 Q121 136 152.5 101.5 Q184 67 235 67 Q271 67 302.5 79 Q334 91 363 113 L396 59 Z " />
<glyph glyph-name="Ccircumflex" unicode="&#x108;" horiz-adv-x="553" d="M462 17 Q431 6 391.5 -2 Q352 -10 301 -10 Q182 -10 117 54.5 Q52 119 52 240 Q52 348 79.5 435 Q107 522 158 583 Q209 644 282 677 Q355 710 446 710 Q494 710 531 701.5 Q568 693 591 683 L574 606 Q509 630 443 630 Q376 630 322.5 605.5 Q269 581 231.5 533 Q194 485 173.5 413.5 Q153 342 153 248 Q153 163 194.5 116 Q236 69 326 69 Q365 69 401 75.5 Q437 82 475 96 L462 17 Z M478 844 L362 758 L345 758 L324 784 L473 924 L507 924 L598 784 L567 758 L555 758 L478 844 Z " />
<glyph glyph-name="ccircumflex" unicode="&#x109;" horiz-adv-x="465" d="M353 664 L237 578 L221 578 L199 603 L348 743 L383 743 L473 603 L443 578 L430 578 L353 664 Z M396 59 Q369 33 325.5 11.5 Q282 -10 226 -10 Q186 -10 150 2 Q114 14 87 38.5 Q60 63 44.5 101 Q29 139 29 192 Q29 274 53.5 338 Q78 402 120 446 Q162 490 217 513 Q272 536 333 536 Q369 536 399 529 Q429 522 451 514 L435 440 Q407 449 383.5 453.5 Q360 458 328 458 Q284 458 246 440 Q208 422 180 389.5 Q152 357 136.5 311 Q121 265 121 209 Q121 136 152.5 101.5 Q184 67 235 67 Q271 67 302.5 79 Q334 91 363 113 L396 59 Z " />
<glyph glyph-name="Cdotaccent" unicode="&#x10a;" horiz-adv-x="553" d="M415 818 Q415 844 433.5 863 Q452 882 483 882 Q506 882 518.5 868.5 Q531 855 531 836 Q531 810 512 791 Q493 772 463 772 Q440 772 427.5 785.5 Q415 799 415 818 Z M462 17 Q431 6 391.5 -2 Q352 -10 301 -10 Q182 -10 117 54.5 Q52 119 52 240 Q52 348 79.5 435 Q107 522 158 583 Q209 644 282 677 Q355 710 446 710 Q494 710 531 701.5 Q568 693 591 683 L574 606 Q509 630 443 630 Q376 630 322.5 605.5 Q269 581 231.5 533 Q194 485 173.5 413.5 Q153 342 153 248 Q153 163 194.5 116 Q236 69 326 69 Q365 69 401 75.5 Q437 82 475 96 L462 17 Z " />
<glyph glyph-name="cdotaccent" unicode="&#x10b;" horiz-adv-x="465" d="M396 59 Q369 33 325.5 11.5 Q282 -10 226 -10 Q186 -10 150 2 Q114 14 87 38.5 Q60 63 44.5 101 Q29 139 29 192 Q29 274 53.5 338 Q78 402 120 446 Q162 490 217 513 Q272 536 333 536 Q369 536 399 529 Q429 522 451 514 L435 440 Q407 449 383.5 453.5 Q360 458 328 458 Q284 458 246 440 Q208 422 180 389.5 Q152 357 136.5 311 Q121 265 121 209 Q121 136 152.5 101.5 Q184 67 235 67 Q271 67 302.5 79 Q334 91 363 113 L396 59 Z M298 652 Q298 678 316.5 697.5 Q335 717 366 717 Q388 717 401 703 Q414 689 414 670 Q414 644 395.5 625.5 Q377 607 345 607 Q324 607 311 620 Q298 633 298 652 Z " />
<glyph glyph-name="Ccaron" unicode="&#x10c;" horiz-adv-x="553" d="M462 17 Q431 6 391.5 -2 Q352 -10 301 -10 Q182 -10 117 54.5 Q52 119 52 240 Q52 348 79.5 435 Q107 522 158 583 Q209 644 282 677 Q355 710 446 710 Q494 710 531 701.5 Q568 693 591 683 L574 606 Q509 630 443 630 Q376 630 322.5 605.5 Q269 581 231.5 533 Q194 485 173.5 413.5 Q153 342 153 248 Q153 163 194.5 116 Q236 69 326 69 Q365 69 401 75.5 Q437 82 475 96 L462 17 Z M442 756 L352 896 L382 922 L395 922 L472 835 L588 922 L604 922 L626 896 L477 756 L442 756 Z " />
<glyph glyph-name="ccaron" unicode="&#x10d;" horiz-adv-x="465" d="M327 582 L236 722 L267 747 L279 747 L356 661 L472 747 L489 747 L510 722 L361 582 L327 582 Z M396 59 Q369 33 325.5 11.5 Q282 -10 226 -10 Q186 -10 150 2 Q114 14 87 38.5 Q60 63 44.5 101 Q29 139 29 192 Q29 274 53.5 338 Q78 402 120 446 Q162 490 217 513 Q272 536 333 536 Q369 536 399 529 Q429 522 451 514 L435 440 Q407 449 383.5 453.5 Q360 458 328 458 Q284 458 246 440 Q208 422 180 389.5 Q152 357 136.5 311 Q121 265 121 209 Q121 136 152.5 101.5 Q184 67 235 67 Q271 67 302.5 79 Q334 91 363 113 L396 59 Z " />
<glyph glyph-name="Dcaron" unicode="&#x10e;" horiz-adv-x="662" d="M171 700 L372 700 Q491 700 559.5 638.5 Q628 577 628 452 Q628 345 601.5 261 Q575 177 525 119 Q475 61 404 30.5 Q333 0 243 0 L22 0 L171 700 Z M133 75 L260 75 Q318 75 367.5 99.5 Q417 124 452.5 172 Q488 220 508 290 Q528 360 528 451 Q528 539 486 582.5 Q444 626 356 626 L250 626 L133 75 Z M373 756 L283 896 L313 922 L326 922 L403 835 L519 922 L535 922 L557 896 L408 756 L373 756 Z " />
<glyph glyph-name="dcaron" unicode="&#x10f;" horiz-adv-x="543" d="M600 582 L642 780 L709 780 L692 699 L655 582 L600 582 Z M207 69 Q228 69 248.5 78 Q269 87 287.5 101.5 Q306 116 323 134.5 Q340 153 353 172 L403 410 Q385 433 360 446 Q335 459 303 459 Q265 459 231.5 438.5 Q198 418 173.5 382 Q149 346 135 296.5 Q121 247 121 189 Q121 132 143.5 100.5 Q166 69 207 69 Z M332 69 Q305 36 265 13 Q225 -10 178 -10 Q107 -10 67.5 39 Q28 88 28 176 Q28 253 48.5 319 Q69 385 105 433 Q141 481 190.5 508.5 Q240 536 297 536 Q338 536 369.5 521.5 Q401 507 419 484 L472 730 L562 730 L407 0 L351 0 Q331 0 328.5 9 Q326 18 328 30 L336 69 L332 69 Z " />
<glyph glyph-name="Dcroat" unicode="&#x110;" horiz-adv-x="666" d="M38 384 L107 384 L175 700 L376 700 Q495 700 563.5 638.5 Q632 577 632 452 Q632 345 605.5 261 Q579 177 529 119 Q479 61 408 30.5 Q337 0 247 0 L26 0 L96 331 L27 331 L38 384 Z M202 384 L389 384 L379 331 L191 331 L137 75 L264 75 Q322 75 371 99.5 Q420 124 455.5 172 Q491 220 511 290 Q531 360 531 451 Q531 539 489.5 582.5 Q448 626 360 626 L254 626 L202 384 Z " />
<glyph glyph-name="dcroat" unicode="&#x111;" horiz-adv-x="543" d="M323 641 L452 641 L472 730 L562 730 L543 641 L613 641 L602 588 L531 588 L407 0 L351 0 Q331 0 328.5 9 Q326 18 328 30 L336 69 L332 69 Q305 36 265 13 Q225 -10 178 -10 Q107 -10 67.5 39 Q28 88 28 176 Q28 253 48.5 319 Q69 385 105 433 Q141 481 190.5 508.5 Q240 536 297 536 Q338 536 369.5 521.5 Q401 507 419 484 L441 588 L312 588 L323 641 Z M207 69 Q228 69 248.5 78 Q269 87 287.5 101.5 Q306 116 323 134.5 Q340 153 353 172 L403 410 Q385 433 360 446 Q335 459 303 459 Q265 459 231.5 438.5 Q198 418 173.5 382 Q149 346 135 296.5 Q121 247 121 189 Q121 132 143.5 100.5 Q166 69 207 69 Z " />
<glyph glyph-name="Emacron" unicode="&#x112;" horiz-adv-x="564" d="M251 625 L203 395 L474 395 L458 320 L185 320 L133 75 L476 75 L460 0 L22 0 L171 700 L600 700 L584 625 L251 625 Z M302 855 L552 855 L540 801 L290 801 L302 855 Z " />
<glyph glyph-name="emacron" unicode="&#x113;" horiz-adv-x="495" d="M226 -10 Q185 -10 149 1.5 Q113 13 86.5 38 Q60 63 45 100.5 Q30 138 30 191 Q30 273 53 337.5 Q76 402 115 446 Q154 490 205 513 Q256 536 311 536 Q344 536 373 528 Q402 520 423 504 Q444 488 456.5 464 Q469 440 469 409 Q469 368 452 338 Q435 308 406.5 285.5 Q378 263 342 247.5 Q306 232 267.5 222 Q229 212 191 206 Q153 200 122 197 Q121 133 155 100 Q189 67 249 67 Q283 67 314.5 80.5 Q346 94 379 117 L411 62 Q381 34 335.5 12 Q290 -10 226 -10 Z M301 465 Q273 465 245 453 Q217 441 193.5 416.5 Q170 392 152.5 354.5 Q135 317 128 266 Q162 271 206.5 278.5 Q251 286 290.5 300 Q330 314 357.5 337 Q385 360 385 396 Q385 431 360 448 Q335 465 301 465 Z M222 690 L472 690 L460 635 L210 635 L222 690 Z " />
<glyph glyph-name="Ebreve" unicode="&#x114;" horiz-adv-x="564" d="M251 625 L203 395 L474 395 L458 320 L185 320 L133 75 L476 75 L460 0 L22 0 L171 700 L600 700 L584 625 L251 625 Z M554 881 Q546 859 533 839 Q520 819 501.5 803.5 Q483 788 459.5 778.5 Q436 769 408 769 Q381 769 361.5 778 Q342 787 330 802.5 Q318 818 312 838.5 Q306 859 306 881 L358 892 Q358 864 370.5 842.5 Q383 821 416 821 Q451 821 473 842 Q495 863 507 890 L554 881 L554 881 Z " />
<glyph glyph-name="ebreve" unicode="&#x115;" horiz-adv-x="495" d="M226 -10 Q185 -10 149 1.5 Q113 13 86.5 38 Q60 63 45 100.5 Q30 138 30 191 Q30 273 53 337.5 Q76 402 115 446 Q154 490 205 513 Q256 536 311 536 Q344 536 373 528 Q402 520 423 504 Q444 488 456.5 464 Q469 440 469 409 Q469 368 452 338 Q435 308 406.5 285.5 Q378 263 342 247.5 Q306 232 267.5 222 Q229 212 191 206 Q153 200 122 197 Q121 133 155 100 Q189 67 249 67 Q283 67 314.5 80.5 Q346 94 379 117 L411 62 Q381 34 335.5 12 Q290 -10 226 -10 Z M301 465 Q273 465 245 453 Q217 441 193.5 416.5 Q170 392 152.5 354.5 Q135 317 128 266 Q162 271 206.5 278.5 Q251 286 290.5 300 Q330 314 357.5 337 Q385 360 385 396 Q385 431 360 448 Q335 465 301 465 Z M464 713 Q456 690 442.5 669 Q429 648 410 631.5 Q391 615 368 605 Q345 595 317 595 Q290 595 271 604.5 Q252 614 240 630 Q228 646 222.5 667 Q217 688 217 711 L268 723 Q268 694 281 671 Q294 648 325 648 Q359 648 381.5 670.5 Q404 693 418 723 L464 713 L464 713 Z " />
<glyph glyph-name="Edotaccent" unicode="&#x116;" horiz-adv-x="564" d="M363 818 Q363 844 381.5 863 Q400 882 431 882 Q454 882 466.5 868.5 Q479 855 479 836 Q479 810 460 791 Q441 772 411 772 Q388 772 375.5 785.5 Q363 799 363 818 Z M251 625 L203 395 L474 395 L458 320 L185 320 L133 75 L476 75 L460 0 L22 0 L171 700 L600 700 L584 625 L251 625 Z " />
<glyph glyph-name="edotaccent" unicode="&#x117;" horiz-adv-x="495" d="M226 -10 Q185 -10 149 1.5 Q113 13 86.5 38 Q60 63 45 100.5 Q30 138 30 191 Q30 273 53 337.5 Q76 402 115 446 Q154 490 205 513 Q256 536 311 536 Q344 536 373 528 Q402 520 423 504 Q444 488 456.5 464 Q469 440 469 409 Q469 368 452 338 Q435 308 406.5 285.5 Q378 263 342 247.5 Q306 232 267.5 222 Q229 212 191 206 Q153 200 122 197 Q121 133 155 100 Q189 67 249 67 Q283 67 314.5 80.5 Q346 94 379 117 L411 62 Q381 34 335.5 12 Q290 -10 226 -10 Z M301 465 Q273 465 245 453 Q217 441 193.5 416.5 Q170 392 152.5 354.5 Q135 317 128 266 Q162 271 206.5 278.5 Q251 286 290.5 300 Q330 314 357.5 337 Q385 360 385 396 Q385 431 360 448 Q335 465 301 465 Z M284 652 Q284 678 302.5 697.5 Q321 717 352 717 Q374 717 387 703 Q400 689 400 670 Q400 644 381.5 625.5 Q363 607 331 607 Q310 607 297 620 Q284 633 284 652 Z " />
<glyph glyph-name="Eogonek" unicode="&#x118;" horiz-adv-x="563" d="M250 625 L202 395 L473 395 L457 320 L184 320 L132 75 L475 75 L459 0 L431 0 Q404 0 380 -8 Q356 -16 338 -29 Q320 -42 310 -58.5 Q300 -75 300 -92 Q300 -114 313.5 -122.5 Q327 -131 349 -131 Q368 -131 389 -124 Q410 -117 421 -110 L432 -151 Q414 -163 385 -171.5 Q356 -180 326 -180 Q284 -180 258.5 -163 Q233 -146 233 -110 Q233 -72 258.5 -44.5 Q284 -17 322 0 L21 0 L170 700 L599 700 L583 625 L250 625 Z " />
<glyph glyph-name="eogonek" unicode="&#x119;" horiz-adv-x="495" d="M237 -180 Q195 -180 169.5 -163 Q144 -146 144 -110 Q144 -80 160.5 -54.5 Q177 -29 203 -9 Q166 -6 134.5 7 Q103 20 79.5 44.5 Q56 69 43 105.5 Q30 142 30 191 Q30 273 53 337.5 Q76 402 115 446 Q154 490 205 513 Q256 536 311 536 Q344 536 373 528 Q402 520 423 504 Q444 488 456.5 464 Q469 440 469 409 Q469 369 452 338.5 Q435 308 406.5 285.5 Q378 263 342 248 Q306 233 267.5 222.5 Q229 212 191 206 Q153 200 122 197 Q121 133 155 100 Q189 67 249 67 Q283 67 314.5 80.5 Q346 94 379 117 L411 62 Q370 24 301 0 Q260 -14 235.5 -39.5 Q211 -65 211 -92 Q211 -114 224.5 -122.5 Q238 -131 259 -131 Q279 -131 300 -124 Q321 -117 332 -110 L343 -151 Q325 -163 296 -171.5 Q267 -180 237 -180 Z M301 467 Q273 467 245 455 Q217 443 193.5 418 Q170 393 152.5 355 Q135 317 128 266 Q162 271 206.5 278.5 Q251 286 290.5 300 Q330 314 357.5 337 Q385 360 385 396 Q385 432 360 449.5 Q335 467 301 467 Z " />
<glyph glyph-name="Ecaron" unicode="&#x11a;" horiz-adv-x="564" d="M251 625 L203 395 L474 395 L458 320 L185 320 L133 75 L476 75 L460 0 L22 0 L171 700 L600 700 L584 625 L251 625 Z M391 756 L301 896 L331 922 L344 922 L421 835 L537 922 L553 922 L575 896 L426 756 L391 756 Z " />
<glyph glyph-name="ecaron" unicode="&#x11b;" horiz-adv-x="495" d="M312 582 L221 722 L252 747 L264 747 L341 661 L457 747 L474 747 L495 722 L346 582 L312 582 Z M226 -10 Q185 -10 149 1.5 Q113 13 86.5 38 Q60 63 45 100.5 Q30 138 30 191 Q30 273 53 337.5 Q76 402 115 446 Q154 490 205 513 Q256 536 311 536 Q344 536 373 528 Q402 520 423 504 Q444 488 456.5 464 Q469 440 469 409 Q469 368 452 338 Q435 308 406.5 285.5 Q378 263 342 247.5 Q306 232 267.5 222 Q229 212 191 206 Q153 200 122 197 Q121 133 155 100 Q189 67 249 67 Q283 67 314.5 80.5 Q346 94 379 117 L411 62 Q381 34 335.5 12 Q290 -10 226 -10 Z M301 465 Q273 465 245 453 Q217 441 193.5 416.5 Q170 392 152.5 354.5 Q135 317 128 266 Q162 271 206.5 278.5 Q251 286 290.5 300 Q330 314 357.5 337 Q385 360 385 396 Q385 431 360 448 Q335 465 301 465 Z " />
<glyph glyph-name="Gcircumflex" unicode="&#x11c;" horiz-adv-x="607" d="M481 844 L365 758 L348 758 L327 784 L476 924 L510 924 L601 784 L570 758 L558 758 L481 844 Z M488 24 Q456 10 412 0 Q368 -10 308 -10 Q246 -10 198.5 7.5 Q151 25 118.5 57.5 Q86 90 69.5 136 Q53 182 53 239 Q53 349 80.5 436.5 Q108 524 159.5 584.5 Q211 645 284 677.5 Q357 710 448 710 Q503 710 544 701.5 Q585 693 614 682 L597 603 Q559 618 522 626 Q485 634 446 634 Q308 634 231 536.5 Q154 439 154 247 Q154 162 197.5 113.5 Q241 65 328 65 Q354 65 375 68.5 Q396 72 415 80 L470 343 L555 343 L488 24 L488 24 Z " />
<glyph glyph-name="gcircumflex" unicode="&#x11d;" horiz-adv-x="536" d="M328 664 L212 578 L196 578 L174 603 L323 743 L358 743 L448 603 L418 578 L405 578 L328 664 Z M150 348 Q150 303 178.5 281 Q207 259 254 259 Q280 259 303 268 Q326 277 343.5 293.5 Q361 310 371 333.5 Q381 357 381 386 Q381 431 353.5 452 Q326 473 277 473 Q251 473 228 464.5 Q205 456 187.5 439.5 Q170 423 160 400 Q150 377 150 348 Z M458 0 Q458 -46 436 -80 Q414 -114 375.5 -136 Q337 -158 286 -169 Q235 -180 177 -180 Q84 -180 28 -155 Q-28 -130 -28 -70 Q-28 -44 -19.5 -23.5 Q-11 -3 2 12.5 Q15 28 31 38.5 Q47 49 62 56 Q28 78 28 123 Q28 159 50 187 Q72 215 119 232 Q94 250 80 278 Q66 306 66 345 Q66 391 84 426.5 Q102 462 132 486.5 Q162 511 201.5 523.5 Q241 536 284 536 Q326 536 360 526 L544 526 L530 455 L460 455 L453 450 Q458 438 461.5 424.5 Q465 411 465 394 Q465 346 447 309 Q429 272 399 247.5 Q369 223 329 210 Q289 197 245 197 Q227 197 210 198.5 Q193 200 178 204 Q151 197 132 183 Q113 169 113 152 Q113 133 127.5 125.5 Q142 118 171 118 L308 118 Q380 118 419 88 Q458 58 458 0 Z M189 -115 Q226 -115 258.5 -108.5 Q291 -102 315.5 -89.5 Q340 -77 354 -58.5 Q368 -40 368 -16 Q368 10 347.5 22.5 Q327 35 276 35 L145 35 Q140 35 134.5 35 Q129 35 124 36 Q113 31 101.5 22.5 Q90 14 79.5 2.5 Q69 -9 62.5 -23.5 Q56 -38 56 -56 Q56 -85 87.5 -100 Q119 -115 189 -115 Z " />
<glyph glyph-name="Gbreve" unicode="&#x11e;" horiz-adv-x="607" d="M488 24 Q456 10 412 0 Q368 -10 308 -10 Q246 -10 198.5 7.5 Q151 25 118.5 57.5 Q86 90 69.5 136 Q53 182 53 239 Q53 349 80.5 436.5 Q108 524 159.5 584.5 Q211 645 284 677.5 Q357 710 448 710 Q503 710 544 701.5 Q585 693 614 682 L597 603 Q559 618 522 626 Q485 634 446 634 Q308 634 231 536.5 Q154 439 154 247 Q154 162 197.5 113.5 Q241 65 328 65 Q354 65 375 68.5 Q396 72 415 80 L470 343 L555 343 L488 24 L488 24 Z M609 881 Q601 859 588 839 Q575 819 556.5 803.5 Q538 788 514.5 778.5 Q491 769 463 769 Q436 769 416.5 778 Q397 787 385 802.5 Q373 818 367 838.5 Q361 859 361 881 L413 892 Q413 864 425.5 842.5 Q438 821 471 821 Q506 821 528 842 Q550 863 562 890 L609 881 L609 881 Z " />
<glyph glyph-name="gbreve" unicode="&#x11f;" horiz-adv-x="536" d="M150 348 Q150 303 178.5 281 Q207 259 254 259 Q280 259 303 268 Q326 277 343.5 293.5 Q361 310 371 333.5 Q381 357 381 386 Q381 431 353.5 452 Q326 473 277 473 Q251 473 228 464.5 Q205 456 187.5 439.5 Q170 423 160 400 Q150 377 150 348 Z M458 0 Q458 -46 436 -80 Q414 -114 375.5 -136 Q337 -158 286 -169 Q235 -180 177 -180 Q84 -180 28 -155 Q-28 -130 -28 -70 Q-28 -44 -19.5 -23.5 Q-11 -3 2 12.5 Q15 28 31 38.5 Q47 49 62 56 Q28 78 28 123 Q28 159 50 187 Q72 215 119 232 Q94 250 80 278 Q66 306 66 345 Q66 391 84 426.5 Q102 462 132 486.5 Q162 511 201.5 523.5 Q241 536 284 536 Q326 536 360 526 L544 526 L530 455 L460 455 L453 450 Q458 438 461.5 424.5 Q465 411 465 394 Q465 346 447 309 Q429 272 399 247.5 Q369 223 329 210 Q289 197 245 197 Q227 197 210 198.5 Q193 200 178 204 Q151 197 132 183 Q113 169 113 152 Q113 133 127.5 125.5 Q142 118 171 118 L308 118 Q380 118 419 88 Q458 58 458 0 Z M189 -115 Q226 -115 258.5 -108.5 Q291 -102 315.5 -89.5 Q340 -77 354 -58.5 Q368 -40 368 -16 Q368 10 347.5 22.5 Q327 35 276 35 L145 35 Q140 35 134.5 35 Q129 35 124 36 Q113 31 101.5 22.5 Q90 14 79.5 2.5 Q69 -9 62.5 -23.5 Q56 -38 56 -56 Q56 -85 87.5 -100 Q119 -115 189 -115 Z M458 713 Q450 690 436.5 669 Q423 648 404 631.5 Q385 615 362 605 Q339 595 311 595 Q284 595 265 604.5 Q246 614 234 630 Q222 646 216.5 667 Q211 688 211 711 L262 723 Q262 694 275 671 Q288 648 319 648 Q353 648 375.5 670.5 Q398 693 412 723 L458 713 L458 713 Z " />
<glyph glyph-name="Gdotaccent" unicode="&#x120;" horiz-adv-x="607" d="M419 818 Q419 844 437.5 863 Q456 882 487 882 Q510 882 522.5 868.5 Q535 855 535 836 Q535 810 516 791 Q497 772 467 772 Q444 772 431.5 785.5 Q419 799 419 818 Z M488 24 Q456 10 412 0 Q368 -10 308 -10 Q246 -10 198.5 7.5 Q151 25 118.5 57.5 Q86 90 69.5 136 Q53 182 53 239 Q53 349 80.5 436.5 Q108 524 159.5 584.5 Q211 645 284 677.5 Q357 710 448 710 Q503 710 544 701.5 Q585 693 614 682 L597 603 Q559 618 522 626 Q485 634 446 634 Q308 634 231 536.5 Q154 439 154 247 Q154 162 197.5 113.5 Q241 65 328 65 Q354 65 375 68.5 Q396 72 415 80 L470 343 L555 343 L488 24 L488 24 Z " />
<glyph glyph-name="gdotaccent" unicode="&#x121;" horiz-adv-x="536" d="M150 348 Q150 303 178.5 281 Q207 259 254 259 Q280 259 303 268 Q326 277 343.5 293.5 Q361 310 371 333.5 Q381 357 381 386 Q381 431 353.5 452 Q326 473 277 473 Q251 473 228 464.5 Q205 456 187.5 439.5 Q170 423 160 400 Q150 377 150 348 Z M458 0 Q458 -46 436 -80 Q414 -114 375.5 -136 Q337 -158 286 -169 Q235 -180 177 -180 Q84 -180 28 -155 Q-28 -130 -28 -70 Q-28 -44 -19.5 -23.5 Q-11 -3 2 12.5 Q15 28 31 38.5 Q47 49 62 56 Q28 78 28 123 Q28 159 50 187 Q72 215 119 232 Q94 250 80 278 Q66 306 66 345 Q66 391 84 426.5 Q102 462 132 486.5 Q162 511 201.5 523.5 Q241 536 284 536 Q326 536 360 526 L544 526 L530 455 L460 455 L453 450 Q458 438 461.5 424.5 Q465 411 465 394 Q465 346 447 309 Q429 272 399 247.5 Q369 223 329 210 Q289 197 245 197 Q227 197 210 198.5 Q193 200 178 204 Q151 197 132 183 Q113 169 113 152 Q113 133 127.5 125.5 Q142 118 171 118 L308 118 Q380 118 419 88 Q458 58 458 0 Z M189 -115 Q226 -115 258.5 -108.5 Q291 -102 315.5 -89.5 Q340 -77 354 -58.5 Q368 -40 368 -16 Q368 10 347.5 22.5 Q327 35 276 35 L145 35 Q140 35 134.5 35 Q129 35 124 36 Q113 31 101.5 22.5 Q90 14 79.5 2.5 Q69 -9 62.5 -23.5 Q56 -38 56 -56 Q56 -85 87.5 -100 Q119 -115 189 -115 Z M268 652 Q268 678 286.5 697.5 Q305 717 336 717 Q358 717 371 703 Q384 689 384 670 Q384 644 365.5 625.5 Q347 607 315 607 Q294 607 281 620 Q268 633 268 652 Z " />
<glyph glyph-name="uni0122" unicode="&#x122;" horiz-adv-x="607" d="M207 -250 L252 -189 L249 -177 Q232 -166 232 -144 Q232 -122 247 -104.5 Q262 -87 290 -87 Q310 -87 322.5 -98.5 Q335 -110 335 -128 Q335 -142 329.5 -153 Q324 -164 316 -175 L242 -273 L207 -250 Z M488 24 Q456 10 412 0 Q368 -10 308 -10 Q246 -10 198.5 7.5 Q151 25 118.5 57.5 Q86 90 69.5 136 Q53 182 53 239 Q53 349 80.5 436.5 Q108 524 159.5 584.5 Q211 645 284 677.5 Q357 710 448 710 Q503 710 544 701.5 Q585 693 614 682 L597 603 Q559 618 522 626 Q485 634 446 634 Q308 634 231 536.5 Q154 439 154 247 Q154 162 197.5 113.5 Q241 65 328 65 Q354 65 375 68.5 Q396 72 415 80 L470 343 L555 343 L488 24 L488 24 Z " />
<glyph glyph-name="uni0123" unicode="&#x123;" horiz-adv-x="536" d="M305 607 Q285 607 272.5 618.5 Q260 630 260 648 Q260 662 266 673 Q272 684 280 695 L354 793 L388 770 L343 709 L346 697 Q363 686 363 664 Q363 642 348 624.5 Q333 607 305 607 Z M150 348 Q150 303 178.5 281 Q207 259 254 259 Q280 259 303 268 Q326 277 343.5 293.5 Q361 310 371 333.5 Q381 357 381 386 Q381 431 353.5 452 Q326 473 277 473 Q251 473 228 464.5 Q205 456 187.5 439.5 Q170 423 160 400 Q150 377 150 348 Z M458 0 Q458 -46 436 -80 Q414 -114 375.5 -136 Q337 -158 286 -169 Q235 -180 177 -180 Q84 -180 28 -155 Q-28 -130 -28 -70 Q-28 -44 -19.5 -23.5 Q-11 -3 2 12.5 Q15 28 31 38.5 Q47 49 62 56 Q28 78 28 123 Q28 159 50 187 Q72 215 119 232 Q94 250 80 278 Q66 306 66 345 Q66 391 84 426.5 Q102 462 132 486.5 Q162 511 201.5 523.5 Q241 536 284 536 Q326 536 360 526 L544 526 L530 455 L460 455 L453 450 Q458 438 461.5 424.5 Q465 411 465 394 Q465 346 447 309 Q429 272 399 247.5 Q369 223 329 210 Q289 197 245 197 Q227 197 210 198.5 Q193 200 178 204 Q151 197 132 183 Q113 169 113 152 Q113 133 127.5 125.5 Q142 118 171 118 L308 118 Q380 118 419 88 Q458 58 458 0 Z M189 -115 Q226 -115 258.5 -108.5 Q291 -102 315.5 -89.5 Q340 -77 354 -58.5 Q368 -40 368 -16 Q368 10 347.5 22.5 Q327 35 276 35 L145 35 Q140 35 134.5 35 Q129 35 124 36 Q113 31 101.5 22.5 Q90 14 79.5 2.5 Q69 -9 62.5 -23.5 Q56 -38 56 -56 Q56 -85 87.5 -100 Q119 -115 189 -115 Z " />
<glyph glyph-name="Hcircumflex" unicode="&#x124;" horiz-adv-x="654" d="M476 320 L185 320 L117 0 L22 0 L170 700 L265 700 L201 396 L492 396 L557 700 L652 700 L505 0 L410 0 L476 320 Z M444 844 L328 758 L311 758 L290 784 L439 924 L473 924 L564 784 L533 758 L521 758 L444 844 Z " />
<glyph glyph-name="hcircumflex" unicode="&#x125;" horiz-adv-x="551" d="M235 858 L119 772 L103 772 L81 797 L230 937 L265 937 L355 797 L325 772 L312 772 L235 858 Z M337 457 Q311 457 285.5 444 Q260 431 237.5 413 Q215 395 197.5 376 Q180 357 171 345 L98 0 L8 0 L163 730 L253 730 L193 447 Q208 463 226.5 479 Q245 495 266 508 Q287 521 311 528.5 Q335 536 362 536 Q427 536 464 499 Q501 462 501 404 Q501 394 500 384 Q499 374 496 363 L419 0 L329 0 L404 351 Q407 372 407 388 Q407 457 337 457 Z " />
<glyph glyph-name="Hbar" unicode="&#x126;" horiz-adv-x="672" d="M73 560 L149 560 L178 700 L274 700 L244 560 L536 560 L565 700 L660 700 L631 560 L713 560 L702 507 L619 507 L513 0 L418 0 L485 320 L193 320 L126 0 L30 0 L137 507 L62 507 L73 560 Z M501 396 L524 507 L232 507 L209 396 L501 396 Z " />
<glyph glyph-name="hbar" unicode="&#x127;" horiz-adv-x="551" d="M72 641 L144 641 L163 730 L253 730 L234 641 L362 641 L351 588 L222 588 L193 447 Q208 463 226.5 479 Q245 495 266 508 Q287 521 311 528.5 Q335 536 362 536 Q427 536 464 499 Q501 462 501 404 Q501 382 497 363 L419 0 L329 0 L404 351 Q408 370 408 388 Q408 457 337 457 Q311 457 285.5 444 Q260 431 237.5 413 Q215 395 197.5 376 Q180 357 171 345 L98 0 L8 0 L133 588 L61 588 L72 641 Z " />
<glyph glyph-name="Itilde" unicode="&#x128;" horiz-adv-x="266" d="M170 700 L265 700 L117 0 L22 0 L170 700 Z M412 896 L404 858 Q395 818 373.5 797 Q352 776 312 776 Q292 776 273.5 784.5 Q255 793 238 802.5 Q221 812 205 820.5 Q189 829 175 829 Q155 829 144 820 Q133 811 131 801 L123 767 L71 767 L79 803 Q88 847 110.5 868.5 Q133 890 172 890 Q190 890 208.5 881.5 Q227 873 244.5 862.5 Q262 852 279 843.5 Q296 835 312 835 Q333 835 343 845 Q353 855 355 865 L361 896 L412 896 Z " />
<glyph glyph-name="itilde" unicode="&#x129;" horiz-adv-x="235" d="M120 526 L210 526 L99 0 L9 0 L120 526 Z M361 720 L353 682 Q345 642 323.5 621 Q302 600 262 600 Q242 600 223 608.5 Q204 617 186.5 626.5 Q169 636 153 644.5 Q137 653 124 653 Q104 653 93.5 645 Q83 637 80 625 L72 590 L21 590 L28 627 Q38 671 60 692.5 Q82 714 121 714 Q140 714 158.5 705.5 Q177 697 195 686.5 Q213 676 230 667.5 Q247 659 262 659 Q282 659 292 667.5 Q302 676 304 689 L310 720 L361 720 Z " />
<glyph glyph-name="Imacron" unicode="&#x12a;" horiz-adv-x="266" d="M170 700 L265 700 L117 0 L22 0 L170 700 Z M125 855 L375 855 L363 801 L113 801 L125 855 Z " />
<glyph glyph-name="imacron" unicode="&#x12b;" horiz-adv-x="235" d="M120 526 L210 526 L99 0 L9 0 L120 526 Z M73 690 L323 690 L311 635 L61 635 L73 690 Z " />
<glyph glyph-name="Iogonek" unicode="&#x12e;" horiz-adv-x="266" d="M115 -151 Q97 -163 67.5 -171.5 Q38 -180 8 -180 Q-33 -180 -58.5 -163 Q-84 -146 -84 -110 Q-84 -89 -75.5 -71 Q-67 -53 -52 -38 Q-37 -23 -17.5 -11.5 Q2 0 24 8 L170 700 L265 700 L117 0 L113 0 Q86 0 62 -8 Q38 -16 20 -29 Q2 -42 -8 -58.5 Q-18 -75 -18 -92 Q-18 -114 -4 -122.5 Q10 -131 31 -131 Q50 -131 71.5 -124 Q93 -117 103 -110 L115 -151 L115 -151 Z " />
<glyph glyph-name="iogonek" unicode="&#x12f;" horiz-adv-x="235" d="M101 -151 Q83 -163 53.5 -171.5 Q24 -180 -6 -180 Q-47 -180 -72.5 -163 Q-98 -146 -98 -110 Q-98 -89 -89.5 -71 Q-81 -53 -66 -38 Q-51 -23 -31 -11 Q-11 1 11 9 L120 526 L210 526 L99 0 L96 0 Q71 0 48 -8 Q25 -16 7 -29 Q-11 -42 -21.5 -58.5 Q-32 -75 -32 -92 Q-32 -114 -18 -122.5 Q-4 -131 17 -131 Q36 -131 57.5 -124 Q79 -117 89 -110 L101 -151 Z M136 665 Q136 694 152.5 712 Q169 730 201 730 Q224 730 236.5 718 Q249 706 249 687 Q249 658 232.5 640.5 Q216 623 183 623 Q160 623 148 635.5 Q136 648 136 665 Z " />
<glyph glyph-name="Idotaccent" unicode="&#x130;" horiz-adv-x="266" d="M170 700 L265 700 L117 0 L22 0 L170 700 Z M187 818 Q187 844 205.5 863 Q224 882 255 882 Q278 882 290.5 868.5 Q303 855 303 836 Q303 810 284 791 Q265 772 235 772 Q212 772 199.5 785.5 Q187 799 187 818 Z " />
<glyph glyph-name="dotlessi" unicode="&#x131;" horiz-adv-x="235" d="M120 526 L210 526 L99 0 L9 0 L120 526 Z " />
<glyph glyph-name="IJ" unicode="&#x132;" horiz-adv-x="568" d="M478 700 L573 700 L469 207 Q421 -10 195 -10 Q139 -10 99 3 Q59 16 30 34 L46 107 Q86 84 125.5 76 Q165 68 191 68 Q265 68 311.5 101.5 Q358 135 375 213 L478 700 Z M166 700 L261 700 L157 206 L62 206 L166 700 Z " />
<glyph glyph-name="ij" unicode="&#x133;" horiz-adv-x="508" d="M118 526 L208 526 L97 0 L7 0 L118 526 Z M134 665 Q134 694 150.5 712 Q167 730 199 730 Q222 730 234.5 718 Q247 706 247 687 Q247 658 230.5 640.5 Q214 623 181 623 Q158 623 146 635.5 Q134 648 134 665 Z M405 666 Q405 695 421.5 713 Q438 731 471 731 Q494 731 506.5 718.5 Q519 706 519 688 Q519 659 502.5 641.5 Q486 624 453 624 Q430 624 417.5 636 Q405 648 405 666 Z M393 526 L484 526 L372 0 Q363 -44 348 -77.5 Q333 -111 310 -134 Q287 -157 254.5 -168.5 Q222 -180 176 -180 Q149 -180 132.5 -177 Q116 -174 112 -173 L125 -107 Q138 -107 155 -107.5 Q172 -108 186 -108 Q259 -108 280 -4 L393 526 Z " />
<glyph glyph-name="Jcircumflex" unicode="&#x134;" horiz-adv-x="445" d="M355 700 L450 700 L341 190 Q321 93 261 41.5 Q201 -10 101 -10 Q53 -10 19.5 -1.5 Q-14 7 -37 20 L-22 93 Q8 77 41.5 72.5 Q75 68 96 68 Q222 68 247 195 L355 700 Z M435 844 L319 758 L302 758 L281 784 L430 924 L464 924 L555 784 L524 758 L512 758 L435 844 Z " />
<glyph glyph-name="jcircumflex" unicode="&#x135;" horiz-adv-x="236" d="M194 664 L78 578 L62 578 L40 603 L189 743 L224 743 L314 603 L284 578 L271 578 L194 664 Z M120 526 L211 526 L99 0 Q90 -44 75 -77.5 Q60 -111 37 -134 Q14 -157 -18.5 -168.5 Q-51 -180 -97 -180 Q-124 -180 -140.5 -177 Q-157 -174 -161 -173 L-148 -107 Q-145 -107 -135.5 -107.5 Q-126 -108 -115.5 -108 Q-105 -108 -96.5 -108 Q-88 -108 -87 -108 Q-14 -108 7 -4 L120 526 Z " />
<glyph glyph-name="uni0136" unicode="&#x136;" horiz-adv-x="611" d="M160 -250 L205 -189 L202 -177 Q185 -166 185 -144 Q185 -122 200 -104.5 Q215 -87 243 -87 Q263 -87 275.5 -98.5 Q288 -110 288 -128 Q288 -142 282.5 -153 Q277 -164 269 -175 L195 -273 L160 -250 Z M170 700 L265 700 L202 396 L301 396 L569 700 L673 700 L377 365 L535 0 L427 0 L294 320 L185 320 L117 0 L22 0 L170 700 Z " />
<glyph glyph-name="uni0137" unicode="&#x137;" horiz-adv-x="529" d="M127 -250 L172 -189 L169 -177 Q152 -166 152 -144 Q152 -122 167 -104.5 Q182 -87 210 -87 Q230 -87 242.5 -98.5 Q255 -110 255 -128 Q255 -142 249.5 -153 Q244 -164 236 -175 L162 -273 L127 -250 Z M98 0 L8 0 L163 730 L253 730 L166 322 L242 322 L455 526 L563 526 L319 297 L450 0 L353 0 L244 252 L151 252 L98 0 Z " />
<glyph glyph-name="kgreenlandic" unicode="&#x138;" horiz-adv-x="530" d="M152 252 L99 0 L9 0 L120 526 L210 526 L167 322 L244 322 L457 526 L564 526 L321 297 L451 0 L349 0 L240 252 L152 252 Z " />
<glyph glyph-name="Lacute" unicode="&#x139;" horiz-adv-x="529" d="M232 756 L212 783 L354 922 L374 922 L405 871 L248 756 L232 756 Z M133 75 L468 75 L452 0 L22 0 L171 700 L266 700 L133 75 Z " />
<glyph glyph-name="lacute" unicode="&#x13a;" horiz-adv-x="237" d="M354 952 L385 902 L228 787 L212 787 L193 814 L334 952 L354 952 Z M166 730 L255 730 L100 0 L11 0 L166 730 Z " />
<glyph glyph-name="uni013B" unicode="&#x13b;" horiz-adv-x="529" d="M139 -250 L184 -189 L181 -177 Q164 -166 164 -144 Q164 -122 179 -104.5 Q194 -87 222 -87 Q242 -87 254.5 -98.5 Q267 -110 267 -128 Q267 -142 261.5 -153 Q256 -164 248 -175 L174 -273 L139 -250 Z M133 75 L468 75 L452 0 L22 0 L171 700 L266 700 L133 75 Z " />
<glyph glyph-name="uni013C" unicode="&#x13c;" horiz-adv-x="237" d="M-47 -250 L-2 -189 L-5 -177 Q-22 -166 -22 -144 Q-22 -122 -7 -104.5 Q8 -87 36 -87 Q56 -87 68.5 -98.5 Q81 -110 81 -128 Q81 -142 75.5 -153 Q70 -164 62 -175 L-12 -273 L-47 -250 Z M166 730 L255 730 L100 0 L11 0 L166 730 Z " />
<glyph glyph-name="Lcaron" unicode="&#x13d;" horiz-adv-x="528" d="M439 582 L481 780 L548 780 L531 699 L494 582 L439 582 Z M130 75 L465 75 L449 0 L19 0 L168 700 L263 700 L130 75 Z " />
<glyph glyph-name="lcaron" unicode="&#x13e;" horiz-adv-x="266" d="M296 582 L338 780 L405 780 L388 699 L351 582 L296 582 Z M166 730 L255 730 L100 0 L11 0 L166 730 Z " />
<glyph glyph-name="Ldot" unicode="&#x13f;" horiz-adv-x="548" d="M376 363 Q376 388 394.5 408 Q413 428 444 428 Q467 428 480 414 Q493 400 493 381 Q493 355 474 336 Q455 317 424 317 Q402 317 389 330.5 Q376 344 376 363 Z M133 75 L468 75 L452 0 L22 0 L171 700 L266 700 L133 75 Z " />
<glyph glyph-name="ldot" unicode="&#x140;" horiz-adv-x="384" d="M263 357 Q263 382 281.5 402 Q300 422 331 422 Q354 422 367 408 Q380 394 380 375 Q380 349 361 330 Q342 311 311 311 Q289 311 276 324.5 Q263 338 263 357 Z M166 730 L255 730 L100 0 L11 0 L166 730 Z " />
<glyph glyph-name="Lslash" unicode="&#x141;" horiz-adv-x="538" d="M211 397 L374 481 L361 418 L197 332 L142 75 L477 75 L461 0 L31 0 L90 278 L6 234 L19 298 L103 342 L180 700 L275 700 L211 397 Z " />
<glyph glyph-name="lslash" unicode="&#x142;" horiz-adv-x="306" d="M18 301 L119 359 L198 730 L288 730 L221 416 L325 476 L311 413 L208 354 L133 0 L43 0 L106 298 L4 240 L18 301 Z " />
<glyph glyph-name="Nacute" unicode="&#x143;" horiz-adv-x="654" d="M416 756 L396 783 L538 922 L558 922 L589 871 L432 756 L416 756 Z M437 -2 L216 539 L102 0 L18 0 L167 700 L250 700 L459 183 L569 700 L653 700 L505 -2 L437 -2 Z " />
<glyph glyph-name="nacute" unicode="&#x144;" horiz-adv-x="552" d="M484 747 L515 697 L358 582 L342 582 L323 609 L464 747 L484 747 Z M338 457 Q312 457 286.5 444 Q261 431 239 413 Q217 395 199.5 376 Q182 357 173 345 L98 0 L9 0 L119 526 L176 526 Q195 526 198.5 517 Q202 508 199 497 L189 446 L193 446 Q208 462 226.5 478.5 Q245 495 266.5 507.5 Q288 520 312 528 Q336 536 363 536 Q428 536 465 499 Q502 462 502 404 Q502 382 498 363 L420 0 L330 0 L405 351 Q409 370 409 388 Q409 457 338 457 Z " />
<glyph glyph-name="uni0145" unicode="&#x145;" horiz-adv-x="654" d="M173 -250 L218 -189 L215 -177 Q198 -166 198 -144 Q198 -122 213 -104.5 Q228 -87 256 -87 Q276 -87 288.5 -98.5 Q301 -110 301 -128 Q301 -142 295.5 -153 Q290 -164 282 -175 L208 -273 L173 -250 Z M437 -2 L216 539 L102 0 L18 0 L167 700 L250 700 L459 183 L569 700 L653 700 L505 -2 L437 -2 Z " />
<glyph glyph-name="uni0146" unicode="&#x146;" horiz-adv-x="552" d="M123 -250 L168 -189 L165 -177 Q148 -166 148 -144 Q148 -122 163 -104.5 Q178 -87 206 -87 Q226 -87 238.5 -98.5 Q251 -110 251 -128 Q251 -142 245.5 -153 Q240 -164 232 -175 L158 -273 L123 -250 Z M338 457 Q312 457 286.5 444 Q261 431 239 413 Q217 395 199.5 376 Q182 357 173 345 L98 0 L9 0 L119 526 L176 526 Q195 526 198.5 517 Q202 508 199 497 L189 446 L193 446 Q208 462 226.5 478.5 Q245 495 266.5 507.5 Q288 520 312 528 Q336 536 363 536 Q428 536 465 499 Q502 462 502 404 Q502 382 498 363 L420 0 L330 0 L405 351 Q409 370 409 388 Q409 457 338 457 Z " />
<glyph glyph-name="Ncaron" unicode="&#x147;" horiz-adv-x="654" d="M437 -2 L216 539 L102 0 L18 0 L167 700 L250 700 L459 183 L569 700 L653 700 L505 -2 L437 -2 Z M403 756 L313 896 L343 922 L356 922 L433 835 L549 922 L565 922 L587 896 L438 756 L403 756 Z " />
<glyph glyph-name="ncaron" unicode="&#x148;" horiz-adv-x="552" d="M329 582 L238 722 L269 747 L281 747 L358 661 L474 747 L491 747 L512 722 L363 582 L329 582 Z M338 457 Q312 457 286.5 444 Q261 431 239 413 Q217 395 199.5 376 Q182 357 173 345 L98 0 L9 0 L119 526 L176 526 Q195 526 198.5 517 Q202 508 199 497 L189 446 L193 446 Q208 462 226.5 478.5 Q245 495 266.5 507.5 Q288 520 312 528 Q336 536 363 536 Q428 536 465 499 Q502 462 502 404 Q502 382 498 363 L420 0 L330 0 L405 351 Q409 370 409 388 Q409 457 338 457 Z " />
<glyph glyph-name="napostrophe" unicode="&#x149;" horiz-adv-x="552" d="M111 607 L156 668 L153 680 Q136 691 136 713 Q136 735 151 752.5 Q166 770 194 770 Q214 770 226.5 758.5 Q239 747 239 729 Q239 715 233.5 704 Q228 693 220 682 L146 584 L111 607 Z M338 457 Q312 457 286.5 444 Q261 431 239 413 Q217 395 199.5 376 Q182 357 173 345 L98 0 L9 0 L119 526 L176 526 Q195 526 198.5 517 Q202 508 199 497 L189 446 L193 446 Q208 462 226.5 478.5 Q245 495 266.5 507.5 Q288 520 312 528 Q336 536 363 536 Q428 536 465 499 Q502 462 502 404 Q502 382 498 363 L420 0 L330 0 L405 351 Q409 370 409 388 Q409 457 338 457 Z " />
<glyph glyph-name="Omacron" unicode="&#x14c;" horiz-adv-x="673" d="M406 710 Q466 710 510.5 692 Q555 674 584.5 641 Q614 608 629 562.5 Q644 517 644 463 Q644 412 635 357.5 Q626 303 607.5 250.5 Q589 198 560.5 150.5 Q532 103 492.5 67.5 Q453 32 402 11 Q351 -10 289 -10 Q229 -10 184.5 8 Q140 26 110.5 59 Q81 92 66 137.5 Q51 183 51 237 Q51 288 60 342.5 Q69 397 87.5 449.5 Q106 502 134.5 549.5 Q163 597 202.5 632.5 Q242 668 293 689 Q344 710 406 710 Z M400 633 Q355 633 319.5 613 Q284 593 256.5 560 Q229 527 209 484.5 Q189 442 176.5 396 Q164 350 158 304.5 Q152 259 152 221 Q152 146 186 107 Q220 68 295 68 Q339 68 375 87.5 Q411 107 438.5 140 Q466 173 486 215.5 Q506 258 519 303.5 Q532 349 538 394.5 Q544 440 544 478 Q544 554 509.5 593.5 Q475 633 400 633 Z M337 855 L587 855 L575 801 L325 801 L337 855 Z " />
<glyph glyph-name="omacron" unicode="&#x14d;" horiz-adv-x="547" d="M225 690 L475 690 L463 635 L213 635 L225 690 Z M31 195 Q31 280 54.5 343.5 Q78 407 116.5 450 Q155 493 204.5 514.5 Q254 536 306 536 Q347 536 382.5 523.5 Q418 511 444.5 486 Q471 461 486 423.5 Q501 386 501 336 Q501 250 477.5 185.5 Q454 121 415 77.5 Q376 34 326.5 12 Q277 -10 226 -10 Q185 -10 149.5 2.5 Q114 15 87.5 40.5 Q61 66 46 104.5 Q31 143 31 195 Z M124 194 Q124 64 231 64 Q270 64 302.5 86.5 Q335 109 358.5 147.5 Q382 186 395 236 Q408 286 408 340 Q408 399 381 430 Q354 461 301 461 Q262 461 229.5 438.5 Q197 416 173.5 379 Q150 342 137 293.5 Q124 245 124 194 Z " />
<glyph glyph-name="Obreve" unicode="&#x14e;" horiz-adv-x="673" d="M406 710 Q466 710 510.5 692 Q555 674 584.5 641 Q614 608 629 562.5 Q644 517 644 463 Q644 412 635 357.5 Q626 303 607.5 250.5 Q589 198 560.5 150.5 Q532 103 492.5 67.5 Q453 32 402 11 Q351 -10 289 -10 Q229 -10 184.5 8 Q140 26 110.5 59 Q81 92 66 137.5 Q51 183 51 237 Q51 288 60 342.5 Q69 397 87.5 449.5 Q106 502 134.5 549.5 Q163 597 202.5 632.5 Q242 668 293 689 Q344 710 406 710 Z M400 633 Q355 633 319.5 613 Q284 593 256.5 560 Q229 527 209 484.5 Q189 442 176.5 396 Q164 350 158 304.5 Q152 259 152 221 Q152 146 186 107 Q220 68 295 68 Q339 68 375 87.5 Q411 107 438.5 140 Q466 173 486 215.5 Q506 258 519 303.5 Q532 349 538 394.5 Q544 440 544 478 Q544 554 509.5 593.5 Q475 633 400 633 Z M589 881 Q581 859 568 839 Q555 819 536.5 803.5 Q518 788 494.5 778.5 Q471 769 443 769 Q416 769 396.5 778 Q377 787 365 802.5 Q353 818 347 838.5 Q341 859 341 881 L393 892 Q393 864 405.5 842.5 Q418 821 451 821 Q486 821 508 842 Q530 863 542 890 L589 881 L589 881 Z " />
<glyph glyph-name="obreve" unicode="&#x14f;" horiz-adv-x="547" d="M31 195 Q31 280 54.5 343.5 Q78 407 116.5 450 Q155 493 204.5 514.5 Q254 536 306 536 Q347 536 382.5 523.5 Q418 511 444.5 486 Q471 461 486 423.5 Q501 386 501 336 Q501 250 477.5 185.5 Q454 121 415 77.5 Q376 34 326.5 12 Q277 -10 226 -10 Q185 -10 149.5 2.5 Q114 15 87.5 40.5 Q61 66 46 104.5 Q31 143 31 195 Z M124 194 Q124 64 231 64 Q270 64 302.5 86.5 Q335 109 358.5 147.5 Q382 186 395 236 Q408 286 408 340 Q408 399 381 430 Q354 461 301 461 Q262 461 229.5 438.5 Q197 416 173.5 379 Q150 342 137 293.5 Q124 245 124 194 Z M478 713 Q470 690 456.5 669 Q443 648 424 631.5 Q405 615 382 605 Q359 595 331 595 Q304 595 285 604.5 Q266 614 254 630 Q242 646 236.5 667 Q231 688 231 711 L282 723 Q282 694 295 671 Q308 648 339 648 Q373 648 395.5 670.5 Q418 693 432 723 L478 713 L478 713 Z " />
<glyph glyph-name="Ohungarumlaut" unicode="&#x150;" horiz-adv-x="673" d="M371 756 L351 780 L485 922 L504 922 L537 887 L387 756 L371 756 Z M491 756 L472 779 L618 908 L637 908 L672 868 L506 756 L491 756 Z M406 710 Q466 710 510.5 692 Q555 674 584.5 641 Q614 608 629 562.5 Q644 517 644 463 Q644 412 635 357.5 Q626 303 607.5 250.5 Q589 198 560.5 150.5 Q532 103 492.5 67.5 Q453 32 402 11 Q351 -10 289 -10 Q229 -10 184.5 8 Q140 26 110.5 59 Q81 92 66 137.5 Q51 183 51 237 Q51 288 60 342.5 Q69 397 87.5 449.5 Q106 502 134.5 549.5 Q163 597 202.5 632.5 Q242 668 293 689 Q344 710 406 710 Z M400 633 Q355 633 319.5 613 Q284 593 256.5 560 Q229 527 209 484.5 Q189 442 176.5 396 Q164 350 158 304.5 Q152 259 152 221 Q152 146 186 107 Q220 68 295 68 Q339 68 375 87.5 Q411 107 438.5 140 Q466 173 486 215.5 Q506 258 519 303.5 Q532 349 538 394.5 Q544 440 544 478 Q544 554 509.5 593.5 Q475 633 400 633 Z " />
<glyph glyph-name="ohungarumlaut" unicode="&#x151;" horiz-adv-x="547" d="M257 582 L236 605 L370 747 L389 747 L422 712 L272 582 L257 582 Z M376 582 L357 604 L503 734 L522 734 L557 694 L391 582 L376 582 Z M31 195 Q31 280 54.5 343.5 Q78 407 116.5 450 Q155 493 204.5 514.5 Q254 536 306 536 Q347 536 382.5 523.5 Q418 511 444.5 486 Q471 461 486 423.5 Q501 386 501 336 Q501 250 477.5 185.5 Q454 121 415 77.5 Q376 34 326.5 12 Q277 -10 226 -10 Q185 -10 149.5 2.5 Q114 15 87.5 40.5 Q61 66 46 104.5 Q31 143 31 195 Z M124 194 Q124 64 231 64 Q270 64 302.5 86.5 Q335 109 358.5 147.5 Q382 186 395 236 Q408 286 408 340 Q408 399 381 430 Q354 461 301 461 Q262 461 229.5 438.5 Q197 416 173.5 379 Q150 342 137 293.5 Q124 245 124 194 Z " />
<glyph glyph-name="OE" unicode="&#x152;" horiz-adv-x="939" d="M305 68 Q337 68 364 70.5 Q391 73 414 80 L529 619 Q488 634 418 634 Q354 634 304.5 602 Q255 570 221 514.5 Q187 459 169.5 385 Q152 311 152 228 Q152 150 189.5 109 Q227 68 305 68 Z M410 0 Q383 -5 353.5 -7.5 Q324 -10 290 -10 Q175 -10 113 53 Q51 116 51 234 Q51 325 74.5 410.5 Q98 496 144.5 562.5 Q191 629 260.5 669.5 Q330 710 422 710 Q501 710 557 700 L975 700 L959 625 L626 625 L578 395 L850 395 L833 320 L561 320 L508 75 L851 75 L835 0 L410 0 Z " />
<glyph glyph-name="oe" unicode="&#x153;" horiz-adv-x="864" d="M595 -10 Q534 -10 486 16 Q438 42 416 99 Q379 45 329 17.5 Q279 -10 226 -10 Q184 -10 148.5 2.5 Q113 15 87 40 Q61 65 46 103.5 Q31 142 31 195 Q31 280 54.5 343.5 Q78 407 116.5 450 Q155 493 204.5 514.5 Q254 536 306 536 Q364 536 406 508 Q448 480 467 423 Q507 478 562.5 507 Q618 536 681 536 Q714 536 743 527.5 Q772 519 793 503 Q814 487 826.5 463.5 Q839 440 839 409 Q839 349 802.5 310 Q766 271 712.5 248 Q659 225 599 214 Q539 203 492 198 L492 193 Q492 129 526 98 Q560 67 618 67 Q653 67 684 80.5 Q715 94 748 117 L781 62 Q750 34 705 12 Q660 -10 595 -10 Z M670 467 Q642 467 614 455 Q586 443 562.5 418 Q539 393 521.5 355 Q504 317 497 266 Q531 271 575.5 278.5 Q620 286 659.5 300 Q699 314 726.5 337 Q754 360 754 396 Q754 432 729 449.5 Q704 467 670 467 Z M124 194 Q124 60 231 60 Q270 60 302.5 83 Q335 106 358.5 145 Q382 184 395 234.5 Q408 285 408 340 Q408 466 301 466 Q262 466 229.5 443 Q197 420 173.5 382.5 Q150 345 137 295.5 Q124 246 124 194 Z " />
<glyph glyph-name="Racute" unicode="&#x154;" horiz-adv-x="615" d="M252 628 L196 366 L318 366 Q406 366 454.5 408 Q503 450 503 528 Q503 579 472 603.5 Q441 628 374 628 L252 628 Z M22 0 L171 700 L391 700 Q492 700 547 661 Q602 622 602 541 Q602 491 586.5 453.5 Q571 416 545 390 Q519 364 484 349 Q449 334 410 330 L410 327 Q429 322 441 313.5 Q453 305 460 291.5 Q467 278 471 259.5 Q475 241 479 217 L511 0 L406 0 L379 221 Q376 245 370.5 259.5 Q365 274 356.5 281.5 Q348 289 337 291.5 Q326 294 313 294 L182 294 L117 0 L22 0 Z M392 756 L372 783 L514 922 L534 922 L565 871 L408 756 L392 756 Z " />
<glyph glyph-name="racute" unicode="&#x155;" horiz-adv-x="372" d="M394 747 L425 697 L268 582 L252 582 L233 609 L374 747 L394 747 Z M338 446 Q296 446 250.5 415 Q205 384 170 335 L98 0 L8 0 L119 526 L176 526 Q195 526 198.5 517 Q202 508 199 497 L188 438 L191 438 Q204 454 221.5 471.5 Q239 489 261.5 503.5 Q284 518 311.5 527 Q339 536 372 536 Q383 536 391 535 Q399 534 405 533 L386 442 L381 442 Q372 444 359.5 445 Q347 446 338 446 Z " />
<glyph glyph-name="uni0156" unicode="&#x156;" horiz-adv-x="615" d="M165 -250 L210 -189 L207 -177 Q190 -166 190 -144 Q190 -122 205 -104.5 Q220 -87 248 -87 Q268 -87 280.5 -98.5 Q293 -110 293 -128 Q293 -142 287.5 -153 Q282 -164 274 -175 L200 -273 L165 -250 Z M252 628 L196 366 L318 366 Q406 366 454.5 408 Q503 450 503 528 Q503 579 472 603.5 Q441 628 374 628 L252 628 Z M22 0 L171 700 L391 700 Q492 700 547 661 Q602 622 602 541 Q602 491 586.5 453.5 Q571 416 545 390 Q519 364 484 349 Q449 334 410 330 L410 327 Q429 322 441 313.5 Q453 305 460 291.5 Q467 278 471 259.5 Q475 241 479 217 L511 0 L406 0 L379 221 Q376 245 370.5 259.5 Q365 274 356.5 281.5 Q348 289 337 291.5 Q326 294 313 294 L182 294 L117 0 L22 0 Z " />
<glyph glyph-name="uni0157" unicode="&#x157;" horiz-adv-x="372" d="M-47 -250 L-2 -189 L-5 -177 Q-22 -166 -22 -144 Q-22 -122 -7 -104.5 Q8 -87 36 -87 Q56 -87 68.5 -98.5 Q81 -110 81 -128 Q81 -142 75.5 -153 Q70 -164 62 -175 L-12 -273 L-47 -250 Z M338 446 Q296 446 250.5 415 Q205 384 170 335 L98 0 L8 0 L119 526 L176 526 Q195 526 198.5 517 Q202 508 199 497 L188 438 L191 438 Q204 454 221.5 471.5 Q239 489 261.5 503.5 Q284 518 311.5 527 Q339 536 372 536 Q383 536 391 535 Q399 534 405 533 L386 442 L381 442 Q372 444 359.5 445 Q347 446 338 446 Z " />
<glyph glyph-name="Rcaron" unicode="&#x158;" horiz-adv-x="615" d="M252 628 L196 366 L318 366 Q406 366 454.5 408 Q503 450 503 528 Q503 579 472 603.5 Q441 628 374 628 L252 628 Z M22 0 L171 700 L391 700 Q492 700 547 661 Q602 622 602 541 Q602 491 586.5 453.5 Q571 416 545 390 Q519 364 484 349 Q449 334 410 330 L410 327 Q429 322 441 313.5 Q453 305 460 291.5 Q467 278 471 259.5 Q475 241 479 217 L511 0 L406 0 L379 221 Q376 245 370.5 259.5 Q365 274 356.5 281.5 Q348 289 337 291.5 Q326 294 313 294 L182 294 L117 0 L22 0 Z M378 756 L288 896 L318 922 L331 922 L408 835 L524 922 L540 922 L562 896 L413 756 L378 756 Z " />
<glyph glyph-name="rcaron" unicode="&#x159;" horiz-adv-x="372" d="M241 582 L150 722 L181 747 L193 747 L270 661 L386 747 L403 747 L424 722 L275 582 L241 582 Z M338 446 Q296 446 250.5 415 Q205 384 170 335 L98 0 L8 0 L119 526 L176 526 Q195 526 198.5 517 Q202 508 199 497 L188 438 L191 438 Q204 454 221.5 471.5 Q239 489 261.5 503.5 Q284 518 311.5 527 Q339 536 372 536 Q383 536 391 535 Q399 534 405 533 L386 442 L381 442 Q372 444 359.5 445 Q347 446 338 446 Z " />
<glyph glyph-name="Sacute" unicode="&#x15a;" horiz-adv-x="545" d="M484 214 Q484 161 463.5 119 Q443 77 405.5 48.5 Q368 20 315 5 Q262 -10 197 -10 Q156 -10 122.5 -5 Q89 0 64.5 6.5 Q40 13 24 19.5 Q8 26 3 29 L19 106 Q70 85 113.5 75.5 Q157 66 200 66 Q291 66 338.5 101.5 Q386 137 386 194 Q386 216 379 232.5 Q372 249 356.5 262.5 Q341 276 317 288 Q293 300 259 314 Q182 346 138.5 389 Q95 432 95 502 Q95 553 114.5 592 Q134 631 170 657.5 Q206 684 255.5 697 Q305 710 365 710 Q437 710 483 698 Q529 686 540 681 L524 602 Q479 617 440 626 Q401 635 359 635 Q277 635 232 605.5 Q187 576 187 522 Q187 502 193 485.5 Q199 469 213.5 454 Q228 439 252.5 425 Q277 411 315 396 Q356 379 387.5 361 Q419 343 440.5 321.5 Q462 300 473 273.5 Q484 247 484 214 Z M377 756 L357 783 L499 922 L519 922 L550 871 L393 756 L377 756 Z " />
<glyph glyph-name="sacute" unicode="&#x15b;" horiz-adv-x="444" d="M423 747 L454 697 L297 582 L281 582 L262 609 L403 747 L423 747 Z M378 163 Q378 122 360.5 89.5 Q343 57 312 35 Q281 13 239.5 1.5 Q198 -10 150 -10 Q116 -10 88 -5 Q60 0 39 6 Q18 12 5.5 18 Q-7 24 -10 26 L7 102 Q50 82 85.5 74 Q121 66 151 66 Q214 66 249 90 Q284 114 284 150 Q284 182 262 200 Q240 218 187 236 Q118 260 90 294 Q62 328 62 376 Q62 447 119 491.5 Q176 536 282 536 Q314 536 339.5 531.5 Q365 527 385 522 Q407 516 426 509 L409 437 Q374 450 339 456.5 Q304 463 278 463 Q221 463 186 443.5 Q151 424 151 389 Q151 361 170.5 344.5 Q190 328 240 310 Q306 286 342 253 Q378 220 378 163 Z " />
<glyph glyph-name="Scircumflex" unicode="&#x15c;" horiz-adv-x="545" d="M484 214 Q484 161 463.5 119 Q443 77 405.5 48.5 Q368 20 315 5 Q262 -10 197 -10 Q156 -10 122.5 -5 Q89 0 64.5 6.5 Q40 13 24 19.5 Q8 26 3 29 L19 106 Q70 85 113.5 75.5 Q157 66 200 66 Q291 66 338.5 101.5 Q386 137 386 194 Q386 216 379 232.5 Q372 249 356.5 262.5 Q341 276 317 288 Q293 300 259 314 Q182 346 138.5 389 Q95 432 95 502 Q95 553 114.5 592 Q134 631 170 657.5 Q206 684 255.5 697 Q305 710 365 710 Q437 710 483 698 Q529 686 540 681 L524 602 Q479 617 440 626 Q401 635 359 635 Q277 635 232 605.5 Q187 576 187 522 Q187 502 193 485.5 Q199 469 213.5 454 Q228 439 252.5 425 Q277 411 315 396 Q356 379 387.5 361 Q419 343 440.5 321.5 Q462 300 473 273.5 Q484 247 484 214 Z M400 844 L284 758 L267 758 L246 784 L395 924 L429 924 L520 784 L489 758 L477 758 L400 844 Z " />
<glyph glyph-name="scircumflex" unicode="&#x15d;" horiz-adv-x="444" d="M306 664 L190 578 L174 578 L152 603 L301 743 L336 743 L426 603 L396 578 L383 578 L306 664 Z M378 163 Q378 122 360.5 89.5 Q343 57 312 35 Q281 13 239.5 1.5 Q198 -10 150 -10 Q116 -10 88 -5 Q60 0 39 6 Q18 12 5.5 18 Q-7 24 -10 26 L7 102 Q50 82 85.5 74 Q121 66 151 66 Q214 66 249 90 Q284 114 284 150 Q284 182 262 200 Q240 218 187 236 Q118 260 90 294 Q62 328 62 376 Q62 447 119 491.5 Q176 536 282 536 Q314 536 339.5 531.5 Q365 527 385 522 Q407 516 426 509 L409 437 Q374 450 339 456.5 Q304 463 278 463 Q221 463 186 443.5 Q151 424 151 389 Q151 361 170.5 344.5 Q190 328 240 310 Q306 286 342 253 Q378 220 378 163 Z " />
<glyph glyph-name="Scedilla" unicode="&#x15e;" horiz-adv-x="544" d="M148 -180 Q119 -180 94.5 -173 Q70 -166 56 -156 L76 -120 Q85 -126 105.5 -132.5 Q126 -139 149 -139 Q172 -139 189.5 -132 Q207 -125 207 -106 Q207 -90 184 -81.5 Q161 -73 123 -70 L126 -50 L166 -9 Q132 -7 104 -2 Q76 3 55 9 Q34 15 20.5 20.5 Q7 26 3 29 L19 106 Q70 85 113.5 75.5 Q157 66 200 66 Q291 66 338.5 101.5 Q386 137 386 194 Q386 216 379 232.5 Q372 249 356.5 262.5 Q341 276 317 288 Q293 300 259 314 Q182 346 138.5 389 Q95 432 95 502 Q95 553 114.5 592 Q134 631 170 657.5 Q206 684 255.5 697 Q305 710 365 710 Q437 710 483 698 Q529 686 540 681 L524 602 Q479 617 440 626 Q401 635 359 635 Q277 635 232 605.5 Q187 576 187 522 Q187 502 193 485.5 Q199 469 213.5 454 Q228 439 252.5 425 Q277 411 315 396 Q356 379 387.5 361 Q419 343 440.5 321.5 Q462 300 473 273.5 Q484 247 484 214 Q484 163 465 122.5 Q446 82 411 53.5 Q376 25 327 9 Q278 -7 217 -9 L189 -40 Q232 -45 251.5 -59.5 Q271 -74 271 -100 Q271 -123 260 -138 Q249 -153 231.5 -162.5 Q214 -172 192 -176 Q170 -180 148 -180 Z " />
<glyph glyph-name="scedilla" unicode="&#x15f;" horiz-adv-x="444" d="M100 -180 Q71 -180 46.5 -173 Q22 -166 8 -156 L28 -120 Q37 -126 57.5 -132.5 Q78 -139 101 -139 Q124 -139 141.5 -132 Q159 -125 159 -106 Q159 -90 136 -81.5 Q113 -73 75 -70 L78 -50 L118 -8 Q63 -3 29 9.5 Q-5 22 -10 26 L7 102 Q50 82 85.5 74 Q121 66 151 66 Q214 66 249 90 Q284 114 284 150 Q284 182 262 200 Q240 218 187 236 Q118 260 90 294 Q62 328 62 376 Q62 447 119 491.5 Q176 536 282 536 Q314 536 339.5 531.5 Q365 527 385 522 Q407 516 426 509 L409 437 Q374 450 339 456.5 Q304 463 278 463 Q221 463 186 443.5 Q151 424 151 389 Q151 361 170.5 344.5 Q190 328 240 310 Q306 286 342 253 Q378 220 378 163 Q378 124 362 93 Q346 62 318 40 Q290 18 252 5.5 Q214 -7 169 -9 L141 -40 Q184 -45 203.5 -59.5 Q223 -74 223 -100 Q223 -123 212 -138 Q201 -153 183.5 -162.5 Q166 -172 144 -176 Q122 -180 100 -180 Z " />
<glyph glyph-name="Scaron" unicode="&#x160;" horiz-adv-x="545" d="M484 214 Q484 161 463.5 119 Q443 77 405.5 48.5 Q368 20 315 5 Q262 -10 197 -10 Q156 -10 122.5 -5 Q89 0 64.5 6.5 Q40 13 24 19.5 Q8 26 3 29 L19 106 Q70 85 113.5 75.5 Q157 66 200 66 Q291 66 338.5 101.5 Q386 137 386 194 Q386 216 379 232.5 Q372 249 356.5 262.5 Q341 276 317 288 Q293 300 259 314 Q182 346 138.5 389 Q95 432 95 502 Q95 553 114.5 592 Q134 631 170 657.5 Q206 684 255.5 697 Q305 710 365 710 Q437 710 483 698 Q529 686 540 681 L524 602 Q479 617 440 626 Q401 635 359 635 Q277 635 232 605.5 Q187 576 187 522 Q187 502 193 485.5 Q199 469 213.5 454 Q228 439 252.5 425 Q277 411 315 396 Q356 379 387.5 361 Q419 343 440.5 321.5 Q462 300 473 273.5 Q484 247 484 214 Z M365 756 L275 896 L305 922 L318 922 L395 835 L511 922 L527 922 L549 896 L400 756 L365 756 Z " />
<glyph glyph-name="scaron" unicode="&#x161;" horiz-adv-x="444" d="M275 582 L184 722 L215 747 L227 747 L304 661 L420 747 L437 747 L458 722 L309 582 L275 582 Z M378 163 Q378 122 360.5 89.5 Q343 57 312 35 Q281 13 239.5 1.5 Q198 -10 150 -10 Q116 -10 88 -5 Q60 0 39 6 Q18 12 5.5 18 Q-7 24 -10 26 L7 102 Q50 82 85.5 74 Q121 66 151 66 Q214 66 249 90 Q284 114 284 150 Q284 182 262 200 Q240 218 187 236 Q118 260 90 294 Q62 328 62 376 Q62 447 119 491.5 Q176 536 282 536 Q314 536 339.5 531.5 Q365 527 385 522 Q407 516 426 509 L409 437 Q374 450 339 456.5 Q304 463 278 463 Q221 463 186 443.5 Q151 424 151 389 Q151 361 170.5 344.5 Q190 328 240 310 Q306 286 342 253 Q378 220 378 163 Z " />
<glyph glyph-name="uni0162" unicode="&#x162;" horiz-adv-x="549" d="M157 -180 Q128 -180 103.5 -173 Q79 -166 65 -156 L85 -120 Q94 -126 114.5 -132.5 Q135 -139 158 -139 Q181 -139 198.5 -132 Q216 -125 216 -106 Q216 -90 193 -81.5 Q170 -73 132 -70 L135 -50 L184 0 L163 0 L295 625 L87 625 L104 700 L613 700 L597 625 L390 625 L258 0 L235 0 L198 -40 Q241 -45 260.5 -59.5 Q280 -74 280 -100 Q280 -123 269 -138 Q258 -153 240.5 -162.5 Q223 -172 201 -176 Q179 -180 157 -180 Z " />
<glyph glyph-name="uni0163" unicode="&#x163;" horiz-adv-x="340" d="M117 -10 Q73 -10 55.5 11 Q38 32 48 81 L128 455 L52 455 L67 524 L137 524 L204 670 L262 670 L231 524 L354 524 L339 455 L216 455 L135 67 L277 67 L262 0 Q248 -1 234 -2 Q222 -3 206.5 -4.5 Q191 -6 176 -7 L145 -40 Q188 -45 207.5 -59.5 Q227 -74 227 -100 Q227 -123 216 -138 Q205 -153 187.5 -162.5 Q170 -172 148 -176 Q126 -180 104 -180 Q75 -180 50.5 -173 Q26 -166 12 -156 L32 -120 Q41 -126 61.5 -132.5 Q82 -139 105 -139 Q128 -139 145.5 -132 Q163 -125 163 -106 Q163 -90 140 -81.5 Q117 -73 79 -70 L82 -50 L121 -10 L117 -10 L117 -10 Z " />
<glyph glyph-name="Tcaron" unicode="&#x164;" horiz-adv-x="549" d="M613 700 L597 625 L390 625 L258 0 L163 0 L295 625 L87 625 L104 700 L613 700 Z M353 756 L263 896 L293 922 L306 922 L383 835 L499 922 L515 922 L537 896 L388 756 L353 756 Z " />
<glyph glyph-name="tcaron" unicode="&#x165;" horiz-adv-x="340" d="M332 582 L374 780 L441 780 L424 699 L387 582 L332 582 Z M117 -10 Q73 -10 55.5 11 Q38 32 48 81 L128 455 L52 455 L67 524 L137 524 L204 670 L262 670 L231 524 L354 524 L339 455 L216 455 L135 67 L277 67 L262 0 Q231 -3 204 -5 Q181 -7 156 -8.5 Q131 -10 117 -10 Z " />
<glyph glyph-name="Tbar" unicode="&#x166;" horiz-adv-x="558" d="M617 700 L601 625 L394 625 L343 384 L459 384 L449 334 L332 334 L262 0 L167 0 L237 334 L121 334 L132 384 L248 384 L299 625 L91 625 L107 700 L617 700 Z " />
<glyph glyph-name="tbar" unicode="&#x167;" horiz-adv-x="341" d="M32 321 L100 321 L129 455 L53 455 L68 524 L138 524 L205 670 L263 670 L232 524 L355 524 L340 455 L217 455 L189 321 L308 321 L297 272 L179 272 L136 67 L278 67 L263 0 Q232 -3 205 -5 Q182 -7 157 -8.5 Q132 -10 118 -10 Q74 -10 56.5 11 Q39 32 49 81 L90 272 L21 272 L32 321 Z " />
<glyph glyph-name="Utilde" unicode="&#x168;" horiz-adv-x="643" d="M557 700 L648 700 L550 235 Q522 104 450 47 Q378 -10 272 -10 Q171 -10 115 31.5 Q59 73 59 161 Q59 178 61.5 201 Q64 224 69 244 L165 700 L263 700 L167 246 Q163 226 161 209.5 Q159 193 159 177 Q159 126 189.5 97 Q220 68 285 68 Q358 68 400 111.5 Q442 155 461 246 L557 700 Z M610 896 L602 858 Q593 818 571.5 797 Q550 776 510 776 Q490 776 471.5 784.5 Q453 793 436 802.5 Q419 812 403 820.5 Q387 829 373 829 Q353 829 342 820 Q331 811 329 801 L321 767 L269 767 L277 803 Q286 847 308.5 868.5 Q331 890 370 890 Q388 890 406.5 881.5 Q425 873 442.5 862.5 Q460 852 477 843.5 Q494 835 510 835 Q531 835 541 845 Q551 855 553 865 L559 896 L610 896 Z " />
<glyph glyph-name="utilde" unicode="&#x169;" horiz-adv-x="544" d="M336 79 Q321 63 303 47 Q285 31 264 18.5 Q243 6 219 -2 Q195 -10 168 -10 Q105 -10 69.5 26.5 Q34 63 34 120 Q33 131 34.5 141.5 Q36 152 38 163 L116 526 L206 526 L131 174 Q129 164 128 154.5 Q127 145 127 137 Q127 68 193 68 Q218 68 243.5 81.5 Q269 95 291 113 Q313 131 330 150 Q347 169 356 181 L431 526 L520 526 L409 0 L353 0 Q333 0 330 8.5 Q327 17 329 29 L340 79 L336 79 Z M513 720 L505 682 Q497 642 475.5 621 Q454 600 414 600 Q394 600 375 608.5 Q356 617 338.5 626.5 Q321 636 305 644.5 Q289 653 276 653 Q256 653 245.5 645 Q235 637 232 625 L224 590 L173 590 L180 627 Q190 671 212 692.5 Q234 714 273 714 Q292 714 310.5 705.5 Q329 697 347 686.5 Q365 676 382 667.5 Q399 659 414 659 Q434 659 444 667.5 Q454 676 456 689 L462 720 L513 720 Z " />
<glyph glyph-name="Umacron" unicode="&#x16a;" horiz-adv-x="643" d="M557 700 L648 700 L550 235 Q522 104 450 47 Q378 -10 272 -10 Q171 -10 115 31.5 Q59 73 59 161 Q59 178 61.5 201 Q64 224 69 244 L165 700 L263 700 L167 246 Q163 226 161 209.5 Q159 193 159 177 Q159 126 189.5 97 Q220 68 285 68 Q358 68 400 111.5 Q442 155 461 246 L557 700 Z M324 855 L574 855 L562 801 L312 801 L324 855 Z " />
<glyph glyph-name="umacron" unicode="&#x16b;" horiz-adv-x="544" d="M336 79 Q321 63 303 47 Q285 31 264 18.5 Q243 6 219 -2 Q195 -10 168 -10 Q105 -10 69.5 26.5 Q34 63 34 120 Q33 131 34.5 141.5 Q36 152 38 163 L116 526 L206 526 L131 174 Q129 164 128 154.5 Q127 145 127 137 Q127 68 193 68 Q218 68 243.5 81.5 Q269 95 291 113 Q313 131 330 150 Q347 169 356 181 L431 526 L520 526 L409 0 L353 0 Q333 0 330 8.5 Q327 17 329 29 L340 79 L336 79 Z M228 690 L478 690 L466 635 L216 635 L228 690 Z " />
<glyph glyph-name="Ubreve" unicode="&#x16c;" horiz-adv-x="643" d="M557 700 L648 700 L550 235 Q522 104 450 47 Q378 -10 272 -10 Q171 -10 115 31.5 Q59 73 59 161 Q59 178 61.5 201 Q64 224 69 244 L165 700 L263 700 L167 246 Q163 226 161 209.5 Q159 193 159 177 Q159 126 189.5 97 Q220 68 285 68 Q358 68 400 111.5 Q442 155 461 246 L557 700 Z M576 881 Q568 859 555 839 Q542 819 523.5 803.5 Q505 788 481.5 778.5 Q458 769 430 769 Q403 769 383.5 778 Q364 787 352 802.5 Q340 818 334 838.5 Q328 859 328 881 L380 892 Q380 864 392.5 842.5 Q405 821 438 821 Q473 821 495 842 Q517 863 529 890 L576 881 L576 881 Z " />
<glyph glyph-name="ubreve" unicode="&#x16d;" horiz-adv-x="544" d="M336 79 Q321 63 303 47 Q285 31 264 18.5 Q243 6 219 -2 Q195 -10 168 -10 Q105 -10 69.5 26.5 Q34 63 34 120 Q33 131 34.5 141.5 Q36 152 38 163 L116 526 L206 526 L131 174 Q129 164 128 154.5 Q127 145 127 137 Q127 68 193 68 Q218 68 243.5 81.5 Q269 95 291 113 Q313 131 330 150 Q347 169 356 181 L431 526 L520 526 L409 0 L353 0 Q333 0 330 8.5 Q327 17 329 29 L340 79 L336 79 Z M481 713 Q473 690 459.5 669 Q446 648 427 631.5 Q408 615 385 605 Q362 595 334 595 Q307 595 288 604.5 Q269 614 257 630 Q245 646 239.5 667 Q234 688 234 711 L285 723 Q285 694 298 671 Q311 648 342 648 Q376 648 398.5 670.5 Q421 693 435 723 L481 713 L481 713 Z " />
<glyph glyph-name="Uring" unicode="&#x16e;" horiz-adv-x="643" d="M382 821 Q382 784 433 784 Q465 784 484.5 798.5 Q504 813 504 841 Q504 877 453 877 Q421 877 401.5 862.5 Q382 848 382 821 Z M458 914 Q501 914 528 895.5 Q555 877 555 842 Q555 818 544.5 800 Q534 782 516.5 770 Q499 758 476 752.5 Q453 747 428 747 Q386 747 359 764.5 Q332 782 332 817 Q332 842 342 860.5 Q352 879 369 891 Q386 903 409 908.5 Q432 914 458 914 Z M557 700 L648 700 L550 235 Q522 104 450 47 Q378 -10 272 -10 Q171 -10 115 31.5 Q59 73 59 161 Q59 178 61.5 201 Q64 224 69 244 L165 700 L263 700 L167 246 Q163 226 161 209.5 Q159 193 159 177 Q159 126 189.5 97 Q220 68 285 68 Q358 68 400 111.5 Q442 155 461 246 L557 700 Z " />
<glyph glyph-name="uring" unicode="&#x16f;" horiz-adv-x="544" d="M283 646 Q283 609 334 609 Q366 609 386 624 Q406 639 406 667 Q406 703 354 703 Q323 703 303 688 Q283 673 283 646 Z M359 740 Q402 740 429 721.5 Q456 703 456 668 Q456 643 445.5 625 Q435 607 417.5 595.5 Q400 584 377.5 578.5 Q355 573 330 573 Q288 573 260.5 590.5 Q233 608 233 642 Q233 667 243 685.5 Q253 704 270 716 Q287 728 310 734 Q333 740 359 740 Z M336 79 Q321 63 303 47 Q285 31 264 18.5 Q243 6 219 -2 Q195 -10 168 -10 Q105 -10 69.5 26.5 Q34 63 34 120 Q33 131 34.5 141.5 Q36 152 38 163 L116 526 L206 526 L131 174 Q129 164 128 154.5 Q127 145 127 137 Q127 68 193 68 Q218 68 243.5 81.5 Q269 95 291 113 Q313 131 330 150 Q347 169 356 181 L431 526 L520 526 L409 0 L353 0 Q333 0 330 8.5 Q327 17 329 29 L340 79 L336 79 Z " />
<glyph glyph-name="Uhungarumlaut" unicode="&#x170;" horiz-adv-x="643" d="M359 756 L339 780 L473 922 L492 922 L525 887 L375 756 L359 756 Z M479 756 L460 779 L606 908 L625 908 L660 868 L494 756 L479 756 Z M557 700 L648 700 L550 235 Q522 104 450 47 Q378 -10 272 -10 Q171 -10 115 31.5 Q59 73 59 161 Q59 178 61.5 201 Q64 224 69 244 L165 700 L263 700 L167 246 Q163 226 161 209.5 Q159 193 159 177 Q159 126 189.5 97 Q220 68 285 68 Q358 68 400 111.5 Q442 155 461 246 L557 700 Z " />
<glyph glyph-name="uhungarumlaut" unicode="&#x171;" horiz-adv-x="544" d="M336 79 Q321 63 303 47 Q285 31 264 18.5 Q243 6 219 -2 Q195 -10 168 -10 Q105 -10 69.5 26.5 Q34 63 34 120 Q33 131 34.5 141.5 Q36 152 38 163 L116 526 L206 526 L131 174 Q129 164 128 154.5 Q127 145 127 137 Q127 68 193 68 Q218 68 243.5 81.5 Q269 95 291 113 Q313 131 330 150 Q347 169 356 181 L431 526 L520 526 L409 0 L353 0 Q333 0 330 8.5 Q327 17 329 29 L340 79 L336 79 Z M261 582 L240 605 L374 747 L393 747 L426 712 L276 582 L261 582 Z M380 582 L361 604 L507 734 L526 734 L561 694 L395 582 L380 582 Z " />
<glyph glyph-name="Uogonek" unicode="&#x172;" horiz-adv-x="643" d="M557 700 L648 700 L550 235 Q526 124 470 67 Q414 10 332 -5 Q287 -13 257 -37 Q227 -61 227 -92 Q227 -114 240.5 -122.5 Q254 -131 275 -131 Q295 -131 316 -124 Q337 -117 348 -110 L359 -151 Q341 -163 312 -171.5 Q283 -180 253 -180 Q211 -180 185.5 -163 Q160 -146 160 -110 Q160 -77 180 -51.5 Q200 -26 232 -8 Q149 -1 104 41 Q59 83 59 161 Q59 178 61.5 201 Q64 224 69 244 L165 700 L263 700 L167 246 Q163 226 161 209.5 Q159 193 159 177 Q159 126 189.5 97 Q220 68 285 68 Q358 68 400 111.5 Q442 155 461 246 L557 700 Z " />
<glyph glyph-name="uogonek" unicode="&#x173;" horiz-adv-x="544" d="M336 79 Q321 63 303 47 Q285 31 264 18.5 Q243 6 219 -2 Q195 -10 168 -10 Q105 -10 69.5 26.5 Q34 63 34 120 Q33 131 34.5 141.5 Q36 152 38 163 L116 526 L206 526 L131 174 Q129 164 128 154.5 Q127 145 127 137 Q127 68 193 68 Q218 68 243.5 81.5 Q269 95 291 113 Q313 131 330 150 Q347 169 356 181 L431 526 L520 526 L409 0 L407 0 Q389 0 367.5 -7.5 Q346 -15 328 -27.5 Q310 -40 298 -56.5 Q286 -73 286 -92 Q286 -114 299.5 -122.5 Q313 -131 334 -131 Q354 -131 375 -124 Q396 -117 407 -110 L418 -151 Q400 -163 371 -171.5 Q342 -180 312 -180 Q270 -180 244.5 -163 Q219 -146 219 -110 Q219 -67 251.5 -37 Q284 -7 329 10 Q327 14 327.5 19 Q328 24 329 29 L340 79 L336 79 Z " />
<glyph glyph-name="Wcircumflex" unicode="&#x174;" horiz-adv-x="907" d="M572 844 L456 758 L439 758 L418 784 L567 924 L601 924 L692 784 L661 758 L649 758 L572 844 Z M502 533 L248 -2 L152 -2 L110 700 L209 700 L233 141 L490 700 L591 700 L613 145 L869 700 L964 700 L627 -2 L529 -2 L502 533 Z " />
<glyph glyph-name="wcircumflex" unicode="&#x175;" horiz-adv-x="770" d="M465 664 L349 578 L333 578 L311 603 L460 743 L495 743 L585 603 L555 578 L542 578 L465 664 Z M401 378 L214 -1 L127 -1 L71 526 L165 526 L196 121 L398 526 L470 526 L500 118 L703 526 L792 526 L516 -1 L429 -1 L401 378 Z " />
<glyph glyph-name="Ycircumflex" unicode="&#x176;" horiz-adv-x="595" d="M190 0 L250 282 L102 700 L201 700 L315 375 L551 700 L651 700 L347 289 L285 0 L190 0 Z M420 844 L304 758 L287 758 L266 784 L415 924 L449 924 L540 784 L509 758 L497 758 L420 844 Z " />
<glyph glyph-name="ycircumflex" unicode="&#x177;" horiz-adv-x="508" d="M57 -170 L152 -1 L67 526 L161 526 L218 117 L441 526 L533 526 L141 -170 L57 -170 Z M335 664 L219 578 L203 578 L181 603 L330 743 L365 743 L455 603 L425 578 L412 578 L335 664 Z " />
<glyph glyph-name="Ydieresis" unicode="&#x178;" horiz-adv-x="595" d="M190 0 L250 282 L102 700 L201 700 L315 375 L551 700 L651 700 L347 289 L285 0 L190 0 Z M298 826 Q298 846 313.5 862 Q329 878 355 878 Q372 878 382.5 866.5 Q393 855 393 840 Q393 819 377.5 804 Q362 789 337 789 Q319 789 308.5 800 Q298 811 298 826 Z M436 826 Q436 846 451.5 862 Q467 878 493 878 Q510 878 520.5 866.5 Q531 855 531 840 Q531 819 515 804 Q499 789 475 789 Q456 789 446 800 Q436 811 436 826 Z " />
<glyph glyph-name="Zacute" unicode="&#x179;" horiz-adv-x="562" d="M-30 0 L-18 53 L461 625 L116 625 L132 700 L598 700 L588 646 L113 76 L482 76 L466 0 L-30 0 Z M370 756 L350 783 L492 922 L512 922 L543 871 L386 756 L370 756 Z " />
<glyph glyph-name="zacute" unicode="&#x17a;" horiz-adv-x="489" d="M437 747 L468 697 L311 582 L295 582 L276 609 L417 747 L437 747 Z M-30 0 L-20 42 L349 453 L73 453 L88 526 L492 526 L483 483 L115 73 L407 73 L392 0 L-30 0 Z " />
<glyph glyph-name="Zdotaccent" unicode="&#x17b;" horiz-adv-x="562" d="M331 818 Q331 844 349.5 863 Q368 882 399 882 Q422 882 434.5 868.5 Q447 855 447 836 Q447 810 428 791 Q409 772 379 772 Q356 772 343.5 785.5 Q331 799 331 818 Z M-30 0 L-18 53 L461 625 L116 625 L132 700 L598 700 L588 646 L113 76 L482 76 L466 0 L-30 0 Z " />
<glyph glyph-name="zdotaccent" unicode="&#x17c;" horiz-adv-x="489" d="M-30 0 L-20 42 L349 453 L73 453 L88 526 L492 526 L483 483 L115 73 L407 73 L392 0 L-30 0 Z M259 652 Q259 678 277.5 697.5 Q296 717 327 717 Q349 717 362 703 Q375 689 375 670 Q375 644 356.5 625.5 Q338 607 306 607 Q285 607 272 620 Q259 633 259 652 Z " />
<glyph glyph-name="Zcaron" unicode="&#x17d;" horiz-adv-x="562" d="M-30 0 L-18 53 L461 625 L116 625 L132 700 L598 700 L588 646 L113 76 L482 76 L466 0 L-30 0 Z M358 756 L268 896 L298 922 L311 922 L388 835 L504 922 L520 922 L542 896 L393 756 L358 756 Z " />
<glyph glyph-name="zcaron" unicode="&#x17e;" horiz-adv-x="489" d="M289 582 L198 722 L229 747 L241 747 L318 661 L434 747 L451 747 L472 722 L323 582 L289 582 Z M-30 0 L-20 42 L349 453 L73 453 L88 526 L492 526 L483 483 L115 73 L407 73 L392 0 L-30 0 Z " />
<glyph glyph-name="longs" unicode="&#x17f;" horiz-adv-x="292" d="M126 -2 Q107 -92 61 -136 Q15 -180 -74 -180 Q-102 -180 -119.5 -176 Q-137 -172 -143 -170 L-131 -105 Q-115 -108 -98.5 -110 Q-82 -112 -68 -112 Q-23 -112 -0.5 -88.5 Q22 -65 35 -6 L133 455 L54 455 L67 524 L148 524 L155 562 Q172 652 219 696 Q266 740 356 740 Q381 740 402 737.5 Q423 735 436 732 L423 666 Q417 667 406 668 Q395 669 383.5 670 Q372 671 362.5 671 Q353 671 350 671 Q305 671 281.5 648 Q258 625 246 566 L126 -2 L126 -2 Z " />
<glyph glyph-name="florin" unicode="&#x192;" horiz-adv-x="368" d="M117 -3 Q103 -47 85 -80 Q67 -113 42.5 -135.5 Q18 -158 -15 -169.5 Q-48 -181 -93 -181 Q-116 -181 -135.5 -178.5 Q-155 -176 -166 -174 L-154 -108 Q-148 -110 -138 -110.5 Q-128 -111 -118 -111.5 Q-108 -112 -100 -112 Q-92 -112 -89 -112 Q-66 -112 -48.5 -107 Q-31 -102 -17.5 -90 Q-4 -78 6.5 -58 Q17 -38 27 -8 L149 378 L41 378 L55 443 L171 443 L209 563 Q223 607 241 640.5 Q259 674 283.5 696.5 Q308 719 341.5 730 Q375 741 419 741 Q442 741 461.5 739 Q481 737 492 734 L480 668 Q474 669 464 670 Q454 671 444 671.5 Q434 672 426 672 Q418 672 415 672 Q370 672 344.5 649.5 Q319 627 300 568 L261 443 L379 443 L365 378 L238 378 L117 -3 L117 -3 Z " />
<glyph glyph-name="uni0218" unicode="&#x218;" horiz-adv-x="545" d="M95 -250 L140 -189 L137 -177 Q120 -166 120 -144 Q120 -122 135 -104.5 Q150 -87 178 -87 Q198 -87 210.5 -98.5 Q223 -110 223 -128 Q223 -142 217.5 -153 Q212 -164 204 -175 L130 -273 L95 -250 Z M484 214 Q484 161 463.5 119 Q443 77 405.5 48.5 Q368 20 315 5 Q262 -10 197 -10 Q156 -10 122.5 -5 Q89 0 64.5 6.5 Q40 13 24 19.5 Q8 26 3 29 L19 106 Q70 85 113.5 75.5 Q157 66 200 66 Q291 66 338.5 101.5 Q386 137 386 194 Q386 216 379 232.5 Q372 249 356.5 262.5 Q341 276 317 288 Q293 300 259 314 Q182 346 138.5 389 Q95 432 95 502 Q95 553 114.5 592 Q134 631 170 657.5 Q206 684 255.5 697 Q305 710 365 710 Q437 710 483 698 Q529 686 540 681 L524 602 Q479 617 440 626 Q401 635 359 635 Q277 635 232 605.5 Q187 576 187 522 Q187 502 193 485.5 Q199 469 213.5 454 Q228 439 252.5 425 Q277 411 315 396 Q356 379 387.5 361 Q419 343 440.5 321.5 Q462 300 473 273.5 Q484 247 484 214 Z " />
<glyph glyph-name="uni0219" unicode="&#x219;" horiz-adv-x="444" d="M47 -250 L92 -189 L89 -177 Q72 -166 72 -144 Q72 -122 87 -104.5 Q102 -87 130 -87 Q150 -87 162.5 -98.5 Q175 -110 175 -128 Q175 -142 169.5 -153 Q164 -164 156 -175 L82 -273 L47 -250 Z M378 163 Q378 122 360.5 89.5 Q343 57 312 35 Q281 13 239.5 1.5 Q198 -10 150 -10 Q116 -10 88 -5 Q60 0 39 6 Q18 12 5.5 18 Q-7 24 -10 26 L7 102 Q50 82 85.5 74 Q121 66 151 66 Q214 66 249 90 Q284 114 284 150 Q284 182 262 200 Q240 218 187 236 Q118 260 90 294 Q62 328 62 376 Q62 447 119 491.5 Q176 536 282 536 Q314 536 339.5 531.5 Q365 527 385 522 Q407 516 426 509 L409 437 Q374 450 339 456.5 Q304 463 278 463 Q221 463 186 443.5 Q151 424 151 389 Q151 361 170.5 344.5 Q190 328 240 310 Q306 286 342 253 Q378 220 378 163 Z " />
<glyph glyph-name="uni021A" unicode="&#x21a;" horiz-adv-x="549" d="M104 -250 L149 -189 L146 -177 Q129 -166 129 -144 Q129 -122 144 -104.5 Q159 -87 187 -87 Q207 -87 219.5 -98.5 Q232 -110 232 -128 Q232 -142 226.5 -153 Q221 -164 213 -175 L139 -273 L104 -250 Z M613 700 L597 625 L390 625 L258 0 L163 0 L295 625 L87 625 L104 700 L613 700 Z " />
<glyph glyph-name="uni021B" unicode="&#x21b;" horiz-adv-x="340" d="M51 -250 L96 -189 L93 -177 Q76 -166 76 -144 Q76 -122 91 -104.5 Q106 -87 134 -87 Q154 -87 166.5 -98.5 Q179 -110 179 -128 Q179 -142 173.5 -153 Q168 -164 160 -175 L86 -273 L51 -250 Z M117 -10 Q73 -10 55.5 11 Q38 32 48 81 L128 455 L52 455 L67 524 L137 524 L204 670 L262 670 L231 524 L354 524 L339 455 L216 455 L135 67 L277 67 L262 0 Q231 -3 204 -5 Q181 -7 156 -8.5 Q131 -10 117 -10 Z " />
<glyph glyph-name="uni0237" unicode="&#x237;" horiz-adv-x="235" d="M120 526 L211 526 L99 0 Q90 -44 75 -77.5 Q60 -111 37 -134 Q14 -157 -18.5 -168.5 Q-51 -180 -97 -180 Q-124 -180 -140.5 -177 Q-157 -174 -161 -173 L-148 -107 Q-145 -107 -135.5 -107.5 Q-126 -108 -115.5 -108 Q-105 -108 -96.5 -108 Q-88 -108 -87 -108 Q-14 -108 7 -4 L120 526 Z " />
<glyph glyph-name="circumflex" unicode="&#x2c6;" horiz-adv-x="392" d="M304 664 L188 578 L172 578 L150 603 L299 743 L334 743 L424 603 L394 578 L381 578 L304 664 Z " />
<glyph glyph-name="caron" unicode="&#x2c7;" horiz-adv-x="392" d="M235 582 L144 722 L175 747 L187 747 L264 661 L380 747 L397 747 L418 722 L269 582 L235 582 Z " />
<glyph glyph-name="uni02C9" unicode="&#x2c9;" horiz-adv-x="384" d="M155 690 L405 690 L393 635 L143 635 L155 690 Z " />
<glyph glyph-name="breve" unicode="&#x2d8;" horiz-adv-x="392" d="M411 713 Q403 690 389.5 669 Q376 648 357 631.5 Q338 615 315 605 Q292 595 264 595 Q237 595 218 604.5 Q199 614 187 630 Q175 646 169.5 667 Q164 688 164 711 L215 723 Q215 694 228 671 Q241 648 272 648 Q306 648 328.5 670.5 Q351 693 365 723 L411 713 L411 713 Z " />
<glyph glyph-name="dotaccent" unicode="&#x2d9;" horiz-adv-x="201" d="M152 652 Q152 678 170.5 697.5 Q189 717 220 717 Q242 717 255 703 Q268 689 268 670 Q268 644 249.5 625.5 Q231 607 199 607 Q178 607 165 620 Q152 633 152 652 Z " />
<glyph glyph-name="ring" unicode="&#x2da;" horiz-adv-x="392" d="M208 646 Q208 609 259 609 Q291 609 311 624 Q331 639 331 667 Q331 703 279 703 Q248 703 228 688 Q208 673 208 646 Z M284 740 Q327 740 354 721.5 Q381 703 381 668 Q381 643 370.5 625 Q360 607 342.5 595.5 Q325 584 302.5 578.5 Q280 573 255 573 Q213 573 185.5 590.5 Q158 608 158 642 Q158 667 168 685.5 Q178 704 195 716 Q212 728 235 734 Q258 740 284 740 Z " />
<glyph glyph-name="ogonek" unicode="&#x2db;" horiz-adv-x="392" d="M193 -151 Q175 -163 146 -171.5 Q117 -180 87 -180 Q46 -180 20 -163 Q-6 -146 -6 -110 Q-6 -78 13 -53.5 Q32 -29 61.5 -11.5 Q91 6 127 16.5 Q163 27 197 30 L194 0 Q167 -5 142.5 -13.5 Q118 -22 100 -33.5 Q82 -45 71.5 -60 Q61 -75 61 -92 Q61 -114 74.5 -122.5 Q88 -131 110 -131 Q129 -131 150.5 -124 Q172 -117 182 -110 L193 -151 L193 -151 Z " />
<glyph glyph-name="tilde" unicode="&#x2dc;" horiz-adv-x="392" d="M443 720 L435 682 Q427 642 405.5 621 Q384 600 344 600 Q324 600 305 608.5 Q286 617 268.5 626.5 Q251 636 235 644.5 Q219 653 206 653 Q186 653 175.5 645 Q165 637 162 625 L154 590 L103 590 L110 627 Q120 671 142 692.5 Q164 714 203 714 Q222 714 240.5 705.5 Q259 697 277 686.5 Q295 676 312 667.5 Q329 659 344 659 Q364 659 374 667.5 Q384 676 386 689 L392 720 L443 720 Z " />
<glyph glyph-name="hungarumlaut" unicode="&#x2dd;" horiz-adv-x="392" d="M142 582 L121 605 L255 747 L274 747 L307 712 L157 582 L142 582 Z M261 582 L242 604 L388 734 L407 734 L442 694 L276 582 L261 582 Z " />
<glyph glyph-name="uni0394" unicode="&#x394;" horiz-adv-x="621" d="M-54 0 L-43 49 L360 702 L455 702 L544 49 L534 0 L-54 0 Z M381 577 L76 78 L440 78 L381 577 Z " />
<glyph glyph-name="uni03A9" unicode="&#x3a9;" horiz-adv-x="717" d="M338 0 L367 137 Q426 165 466 197.5 Q506 230 531 269 Q556 308 566.5 354.5 Q577 401 577 458 Q577 498 567.5 530 Q558 562 538.5 585 Q519 608 488 620.5 Q457 633 414 633 Q355 633 309 610.5 Q263 588 231 548 Q199 508 182 453.5 Q165 399 165 336 Q165 305 171 279 Q177 253 191 229.5 Q205 206 227 183 Q249 160 282 136 L253 0 L0 0 L15 74 L204 74 L209 103 Q134 152 100.5 211 Q67 270 67 346 Q67 430 95 497.5 Q123 565 170.5 612.5 Q218 660 281.5 685 Q345 710 416 710 Q474 710 522 695 Q570 680 604.5 649.5 Q639 619 658 573 Q677 527 677 465 Q677 340 618 248 Q559 156 426 95 L422 74 L606 74 L591 0 L338 0 Z " />
<glyph glyph-name="uni03BC" unicode="&#x3bc;" horiz-adv-x="587" d="M497 6 Q479 -1 458.5 -4.5 Q438 -8 421 -8 Q386 -8 371 11 Q356 30 355 63 Q329 29 295 9 Q261 -11 222 -11 Q182 -11 154.5 3.5 Q127 18 119 55 L97 -89 L81 -166 L-12 -176 L137 523 L230 529 L157 181 Q152 158 152 144 Q152 105 173 87.5 Q194 70 229 70 Q271 70 303.5 93.5 Q336 117 362 151 L441 523 L532 529 Q513 437 496.5 358.5 Q480 280 467.5 221 Q455 162 448 126.5 Q441 91 441 87 Q441 74 446.5 68 Q452 62 467 62 Q476 62 486 63 Q496 64 510 68 L497 6 Z " />
<glyph glyph-name="Wgrave" unicode="&#x1e80;" horiz-adv-x="907" d="M539 756 L430 871 L482 922 L499 922 L582 783 L551 756 L539 756 Z M502 533 L248 -2 L152 -2 L110 700 L209 700 L233 141 L490 700 L591 700 L613 145 L869 700 L964 700 L627 -2 L529 -2 L502 533 Z " />
<glyph glyph-name="wgrave" unicode="&#x1e81;" horiz-adv-x="770" d="M401 378 L214 -1 L127 -1 L71 526 L165 526 L196 121 L398 526 L470 526 L500 118 L703 526 L792 526 L516 -1 L429 -1 L401 378 Z M331 697 L383 747 L400 747 L483 609 L453 582 L440 582 L331 697 Z " />
<glyph glyph-name="Wacute" unicode="&#x1e82;" horiz-adv-x="907" d="M548 756 L528 783 L670 922 L690 922 L721 871 L564 756 L548 756 Z M502 533 L248 -2 L152 -2 L110 700 L209 700 L233 141 L490 700 L591 700 L613 145 L869 700 L964 700 L627 -2 L529 -2 L502 533 Z " />
<glyph glyph-name="wacute" unicode="&#x1e83;" horiz-adv-x="770" d="M578 747 L609 697 L452 582 L436 582 L417 609 L558 747 L578 747 Z M401 378 L214 -1 L127 -1 L71 526 L165 526 L196 121 L398 526 L470 526 L500 118 L703 526 L792 526 L516 -1 L429 -1 L401 378 Z " />
<glyph glyph-name="Wdieresis" unicode="&#x1e84;" horiz-adv-x="907" d="M502 533 L248 -2 L152 -2 L110 700 L209 700 L233 141 L490 700 L591 700 L613 145 L869 700 L964 700 L627 -2 L529 -2 L502 533 Z M450 826 Q450 846 465.5 862 Q481 878 507 878 Q524 878 534.5 866.5 Q545 855 545 840 Q545 819 529.5 804 Q514 789 489 789 Q471 789 460.5 800 Q450 811 450 826 Z M588 826 Q588 846 603.5 862 Q619 878 645 878 Q662 878 672.5 866.5 Q683 855 683 840 Q683 819 667 804 Q651 789 627 789 Q608 789 598 800 Q588 811 588 826 Z " />
<glyph glyph-name="wdieresis" unicode="&#x1e85;" horiz-adv-x="770" d="M347 660 Q347 680 362.5 696.5 Q378 713 404 713 Q421 713 431.5 701.5 Q442 690 442 675 Q442 653 426 638 Q410 623 386 623 Q368 623 357.5 634 Q347 645 347 660 Z M484 660 Q484 680 500 696.5 Q516 713 541 713 Q558 713 568.5 701.5 Q579 690 579 675 Q579 653 563.5 638 Q548 623 523 623 Q505 623 494.5 634 Q484 645 484 660 Z M401 378 L214 -1 L127 -1 L71 526 L165 526 L196 121 L398 526 L470 526 L500 118 L703 526 L792 526 L516 -1 L429 -1 L401 378 Z " />
<glyph glyph-name="endash" unicode="&#x2013;" horiz-adv-x="541" d="M70 355 L491 355 L477 291 L56 291 L70 355 Z " />
<glyph glyph-name="emdash" unicode="&#x2014;" horiz-adv-x="824" d="M70 355 L774 355 L760 291 L56 291 L70 355 Z " />
<glyph glyph-name="quoteleft" unicode="&#x2018;" horiz-adv-x="219" d="M208 709.993 Q209 709.993 215 706.493 Q221 702.993 228.999 697.994 L248.998 685.994 L191.001 607.999 L197.001 588 Q206 578.001 209 571.001 Q212 564.002 212 556.002 Q212 532.004 195.001 511.505 Q178.002 491.006 147.004 491.006 Q124.005 491.006 109.506 504.505 Q95.0072 518.005 95.0072 538.003 Q95.0072 554.002 102.507 566.002 Q110.006 578.001 118.006 589 L208 709.993 L208 709.993 Z " />
<glyph glyph-name="quoteright" unicode="&#x2019;" horiz-adv-x="215" d="M136 492 Q135 492 129 495.5 Q123 499 115 504 L95 516 L153 594 L147 614 Q138 624 135 631 Q132 638 132 646 Q132 670 149 690.5 Q166 711 197 711 Q220 711 234.5 697.5 Q249 684 249 664 Q249 648 241.5 636 Q234 624 226 613 L136 492 L136 492 Z " />
<glyph glyph-name="quotesinglbase" unicode="&#x201a;" horiz-adv-x="219" d="M5 -118 Q4 -118 -2 -114.5 Q-8 -111 -16 -106 L-36 -94 L22 -16 L16 4 Q7 14 4 21 Q1 28 1 36 Q1 60 18 80.5 Q35 101 66 101 Q89 101 103.5 87.5 Q118 74 118 54 Q118 38 110.5 26 Q103 14 95 3 L5 -118 L5 -118 Z " />
<glyph glyph-name="quotedblleft" unicode="&#x201c;" horiz-adv-x="375" d="M208 709.993 Q209 709.993 215 706.493 Q221 702.993 228.999 697.994 L248.998 685.994 L191.001 607.999 L197.001 588 Q206 578.001 209 571.001 Q212 564.002 212 556.002 Q212 532.004 195.001 511.505 Q178.002 491.006 147.004 491.006 Q124.005 491.006 109.506 504.505 Q95.0072 518.005 95.0072 538.003 Q95.0072 554.002 102.507 566.002 Q110.006 578.001 118.006 589 L208 709.993 L208 709.993 Z M364 709.993 Q365 709.993 371 706.493 Q377 702.993 384.999 697.994 L404.998 685.994 L347.001 607.999 L353.001 588 Q362 578.001 365 571.001 Q368 564.002 368 556.002 Q368 532.004 351.001 511.505 Q334.002 491.006 303.004 491.006 Q280.005 491.006 265.506 504.505 Q251.007 518.005 251.007 538.003 Q251.007 554.002 258.507 566.002 Q266.006 578.001 274.006 589 L364 709.993 L364 709.993 Z " />
<glyph glyph-name="quotedblright" unicode="&#x201d;" horiz-adv-x="370" d="M136 492 Q135 492 129 495.5 Q123 499 115 504 L95 516 L153 594 L147 614 Q138 624 135 631 Q132 638 132 646 Q132 670 149 690.5 Q166 711 197 711 Q220 711 234.5 697.5 Q249 684 249 664 Q249 648 241.5 636 Q234 624 226 613 L136 492 L136 492 Z M292 492 Q291 492 285 495.5 Q279 499 271 504 L251 516 L309 594 L303 614 Q294 624 291 631 Q288 638 288 646 Q288 670 305 690.5 Q322 711 353 711 Q376 711 390.5 697.5 Q405 684 405 664 Q405 648 397.5 636 Q390 624 382 613 L292 492 L292 492 Z " />
<glyph glyph-name="quotedblbase" unicode="&#x201e;" horiz-adv-x="374" d="M5 -118 Q4 -118 -2 -114.5 Q-8 -111 -16 -106 L-36 -94 L22 -16 L16 4 Q7 14 4 21 Q1 28 1 36 Q1 60 18 80.5 Q35 101 66 101 Q89 101 103.5 87.5 Q118 74 118 54 Q118 38 110.5 26 Q103 14 95 3 L5 -118 L5 -118 Z M160 -118 Q159 -118 153 -114.5 Q147 -111 139 -106 L119 -94 L177 -16 L171 4 Q162 14 159 21 Q156 28 156 36 Q156 60 173 80.5 Q190 101 221 101 Q244 101 258.5 87.5 Q273 74 273 54 Q273 38 265.5 26 Q258 14 250 3 L160 -118 L160 -118 Z " />
<glyph glyph-name="dagger" unicode="&#x2020;" horiz-adv-x="471" d="M293 0 L237 0 L221 340 L232 453 L198 453 L55 439 L55 515 L198 501 L234 501 L221 700 L310 700 L295 501 L330 501 L473 515 L473 439 L330 453 L298 453 L310 340 L293 0 Z " />
<glyph glyph-name="daggerdbl" unicode="&#x2021;" horiz-adv-x="520" d="M310 199 L324 0 L234 0 L247 199 L208 199 L69 185 L69 263 L208 248 L244 248 L234 350 L244 453 L208 453 L69 438 L69 515 L208 501 L247 501 L234 700 L324 700 L310 501 L348 501 L487 515 L487 438 L348 453 L312 453 L324 350 L312 248 L348 248 L487 263 L487 185 L348 199 L310 199 Z " />
<glyph glyph-name="bullet" unicode="&#x2022;" horiz-adv-x="336" d="M93 357 Q93 394.5 120.75 424.5 Q148.5 454.5 195 454.5 Q229.5 454.5 249 433.5 Q268.5 412.5 268.5 384 Q268.5 345 240 316.5 Q211.5 288 165 288 Q132 288 112.5 308.25 Q93 328.5 93 357 Z " />
<glyph glyph-name="ellipsis" unicode="&#x2026;" horiz-adv-x="649" d="M431 36 Q431 61 449.5 81 Q468 101 499 101 Q522 101 535 87 Q548 73 548 54 Q548 28 529 9 Q510 -10 479 -10 Q457 -10 444 3.5 Q431 17 431 36 Z M0 36 Q0 61 18.5 81 Q37 101 68 101 Q91 101 104 87 Q117 73 117 54 Q117 28 98 9 Q79 -10 48 -10 Q26 -10 13 3.5 Q0 17 0 36 Z M216 36 Q216 61 234.5 81 Q253 101 284 101 Q307 101 320 87 Q333 73 333 54 Q333 28 314 9 Q295 -10 264 -10 Q242 -10 229 3.5 Q216 17 216 36 Z " />
<glyph glyph-name="perthousand" unicode="&#x2030;" horiz-adv-x="1008" d="M146 488 Q146 459 157.5 443.5 Q169 428 196 428 Q220 428 237.5 445 Q255 462 266.5 486.5 Q278 511 283 539 Q288 567 288 589 Q288 648 239 648 Q214 648 196.5 631.5 Q179 615 167.5 591 Q156 567 151 539 Q146 511 146 488 Z M353 590 Q353 552 343 513 Q333 474 313 442.5 Q293 411 262.5 390.5 Q232 370 190 370 Q136 370 108.5 401.5 Q81 433 81 486 Q81 523 90.5 562.5 Q100 602 120.5 633.5 Q141 665 172 685.5 Q203 706 245 706 Q299 706 326 675 Q353 644 353 590 Z M435 112 Q435 83 446.5 67.5 Q458 52 485 52 Q509 52 526.5 69 Q544 86 555.5 110.5 Q567 135 572 163 Q577 191 577 213 Q577 272 528 272 Q503 272 485.5 255.5 Q468 239 456.5 215 Q445 191 440 163 Q435 135 435 112 Z M642 214 Q642 176 632 137 Q622 98 602 66.5 Q582 35 551.5 14.5 Q521 -6 479 -6 Q425 -6 397.5 25.5 Q370 57 370 110 Q370 147 379.5 186.5 Q389 226 409.5 257.5 Q430 289 461 309.5 Q492 330 534 330 Q588 330 615 299 Q642 268 642 214 Z M747 112 Q747 83 758.5 67.5 Q770 52 797 52 Q821 52 838.5 69 Q856 86 867.5 110.5 Q879 135 884 163 Q889 191 889 213 Q889 272 840 272 Q815 272 797.5 255.5 Q780 239 768.5 215 Q757 191 752 163 Q747 135 747 112 Z M954 214 Q954 176 944 137 Q934 98 914 66.5 Q894 35 863.5 14.5 Q833 -6 791 -6 Q737 -6 709.5 25.5 Q682 57 682 110 Q682 147 691.5 186.5 Q701 226 721.5 257.5 Q742 289 773 309.5 Q804 330 846 330 Q900 330 927 299 Q954 268 954 214 Z M603 700 L665 700 L125 0 L64 0 L603 700 Z " />
<glyph glyph-name="guilsinglleft" unicode="&#x2039;" horiz-adv-x="302" d="M290.999 463.003 L98.0112 248.016 L200.005 46.0283 L130.009 46.0283 L26.0156 238.017 L33.0152 270.015 L217.004 463.003 L290.999 463.003 Z " />
<glyph glyph-name="guilsinglright" unicode="&#x203a;" horiz-adv-x="302" d="M-9 46 L184 261 L82 463 L152 463 L256 271 L249 239 L65 46 L-9 46 Z " />
<glyph glyph-name="fraction" unicode="&#x2044;" horiz-adv-x="90" d="M294 700 L356 700 L-184 0 L-245 0 L294 700 Z " />
<glyph glyph-name="franc" unicode="&#x20a3;" horiz-adv-x="597" d="M212 248 L160 0 L65 0 L117 248 L34 248 L46 304 L129 304 L142 365 L60 365 L70 421 L154 421 L213 700 L653 700 L637 625 L292 625 L249 421 L431 421 L419 365 L237 365 L224 304 L407 304 L395 248 L212 248 Z " />
<glyph glyph-name="lira" unicode="&#x20a4;" horiz-adv-x="591" d="M481 0 L-8 0 L8 75 L85 75 L124 258 L47 258 L59 314 L136 314 L149 375 L73 375 L83 431 L161 431 L175 497 Q184 541 206 580 Q228 619 263 648 Q298 677 346 693.5 Q394 710 455 710 Q520 710 562 699.5 Q604 689 618 684 L602 609 Q530 638 450 638 Q374 638 330.5 605 Q287 572 271 497 L257 431 L423 431 L411 375 L246 375 L233 314 L399 314 L387 258 L221 258 L182 75 L496 75 L481 0 Z " />
<glyph glyph-name="peseta" unicode="&#x20a7;" horiz-adv-x="1400" d="M158 700 L376 700 Q481 700 539 657 Q597 614 597 523 Q597 390 516 325 Q435 260 293 260 L160 260 L104 0 L9 0 L158 700 Z M237 628 L175 332 L308 332 Q398 332 448.5 378 Q499 424 499 518 Q499 574 466 601 Q433 628 361 628 L237 628 Z M1326 163 Q1326 122 1308.5 89.5 Q1291 57 1260 35 Q1229 13 1187.5 1.5 Q1146 -10 1098 -10 Q1064 -10 1036 -5 Q1008 0 987 6 Q966 12 953.5 18 Q941 24 938 26 L955 102 Q998 82 1033.5 74 Q1069 66 1099 66 Q1162 66 1197 90 Q1232 114 1232 150 Q1232 182 1210 200 Q1188 218 1135 236 Q1066 260 1038 294 Q1010 328 1010 376 Q1010 447 1067 491.5 Q1124 536 1230 536 Q1262 536 1287.5 531.5 Q1313 527 1333 522 Q1355 516 1374 509 L1357 437 Q1322 450 1287 456.5 Q1252 463 1226 463 Q1169 463 1134 443.5 Q1099 424 1099 389 Q1099 361 1118.5 344.5 Q1138 328 1188 310 Q1254 286 1290 253 Q1326 220 1326 163 Z M724 -10 Q680 -10 662.5 11 Q645 32 655 81 L735 455 L659 455 L674 524 L744 524 L811 670 L869 670 L838 524 L961 524 L946 455 L823 455 L742 67 L884 67 L869 0 Q838 -3 811 -5 Q788 -7 763 -8.5 Q738 -10 724 -10 Z " />
<glyph glyph-name="Euro" unicode="&#x20ac;" horiz-adv-x="633" d="M68 436 L457 436 L445 381 L56 381 L68 436 Z M43 319 L433 319 L421 263 L32 263 L43 319 Z M526 16 Q497 5 458.5 -2.5 Q420 -10 371 -10 Q306 -10 257 10 Q208 30 177 67 Q146 104 132.5 156.5 Q119 209 124 274 Q125 284 125 293 Q125 302 126 312 Q128 334 131.5 355 Q135 376 140 396 Q143 413 149 430 Q188 564 282 637 Q376 710 516 710 Q563 710 599 703 Q635 696 656 687 L639 610 Q575 632 513 632 Q415 632 347 580.5 Q279 529 247 428 Q244 419 241.5 409.5 Q239 400 237 389 Q232 371 229.5 351.5 Q227 332 225 310 Q224 301 224 292 Q224 283 223 274 Q220 232 227 195 Q234 158 253.5 130 Q273 102 307.5 85.5 Q342 69 395 69 Q433 69 469 75.5 Q505 82 542 95 L526 16 Z " />
<glyph glyph-name="uni2113" unicode="&#x2113;" horiz-adv-x="407" d="M323 27 Q309 20 292 13.5 Q275 7 257 1.5 Q239 -4 220.5 -7 Q202 -10 186 -10 Q135 -10 101.5 8 Q68 26 67 73 Q67 83 68 94.5 Q69 106 72 120 L75 134 L4 74 L-27 120 Q8 150 38 176.5 Q68 203 95 229 L161 544 Q171 592 189 626 Q207 660 229.5 681.5 Q252 703 279 713 Q306 723 334 723 Q382 723 410.5 698 Q439 673 439 622 Q439 587 424.5 545.5 Q410 504 377.5 454.5 Q345 405 294 346.5 Q243 288 170 220 L152 135 Q148 119 148 102 Q148 75 163.5 66 Q179 57 207 57 Q230 57 260 66 Q290 75 313 86 L323 27 Z M193 327 Q240 377 272 419.5 Q304 462 323.5 497.5 Q343 533 351.5 561 Q360 589 360 610 Q360 638 349.5 649.5 Q339 661 323 661 Q294 661 271.5 626 Q249 591 235 523 L193 327 Z " />
<glyph glyph-name="trademark" unicode="&#x2122;" horiz-adv-x="789" d="M133 700 L386 700 L386 651 L288 651 L288 387 L230 387 L230 651 L133 651 L133 700 Z M503 387 L454 387 L454 700 L519 700 L601 542 L681 700 L749 700 L749 387 L692 387 L692 621 L622 486 L573 486 L503 617 L503 387 Z " />
<glyph glyph-name="estimated" unicode="&#x212e;" horiz-adv-x="809" d="M619 361 L629 374 L629 584 Q594 626 541 650.5 Q488 675 425 675 Q357 675 305 651.5 Q253 628 217 586 L217 374 L226 361 L619 361 Z M217 316 L217 132 Q252 80 307 51 Q362 22 434 22 Q509 22 568.5 51.5 Q628 81 670 134 L725 134 Q671 65 600 27.5 Q529 -10 434 -10 Q357 -10 290.5 18 Q224 46 174 95 Q124 144 95.5 209 Q67 274 67 349 Q67 424 95.5 489.5 Q124 555 173 603.5 Q222 652 287 679.5 Q352 707 425 707 Q497 707 560 680 Q623 653 671 606.5 Q719 560 749 497.5 Q779 435 784 365 L784 363 L752 329 L226 329 L217 316 Z " />
<glyph glyph-name="partialdiff" unicode="&#x2202;" horiz-adv-x="538" d="M113 194 Q113 125 140 92 Q167 59 222 59 Q261 59 293.5 82 Q326 105 349 144 Q372 183 385 233.5 Q398 284 398 340 Q398 467 291 467 Q252 467 219.5 444 Q187 421 163 383 Q139 345 126 296 Q113 247 113 194 Z M490 336 Q490 250 467 185.5 Q444 121 406 77.5 Q368 34 319.5 12 Q271 -10 219 -10 Q177 -10 141 2.5 Q105 15 78.5 40 Q52 65 37 103.5 Q22 142 22 195 Q22 280 45 343.5 Q68 407 106 450 Q144 493 193 514.5 Q242 536 294 536 Q325 536 351.5 525.5 Q378 515 390 493 Q358 630 251 704 L290 741 Q347 710 385.5 665.5 Q424 621 447 568 Q470 515 480 455.5 Q490 396 490 336 Z " />
<glyph glyph-name="product" unicode="&#x220f;" horiz-adv-x="710" d="M568 635 L283 635 L148 -3 L53 -3 L188 635 L107 635 L121 700 L758 700 L744 635 L663 635 L529 -3 L434 -3 L568 635 Z " />
<glyph glyph-name="summation" unicode="&#x2211;" horiz-adv-x="580" d="M-21 0 L-6 66 L316 357 L118 649 L128 700 L614 700 L599 633 L234 633 L412 375 L405 346 L103 68 L485 68 L470 0 L-21 0 Z " />
<glyph glyph-name="minus" unicode="&#x2212;" horiz-adv-x="557" d="M82 362 L485 362 L485 303 L82 303 L82 362 Z " />
<glyph glyph-name="uni2215" unicode="&#x2215;" horiz-adv-x="442" d="M471 700 L533 700 L-7 0 L-68 0 L471 700 Z " />
<glyph glyph-name="uni2219" unicode="&#x2219;" horiz-adv-x="239" d="M73 363 Q73 388 91.5 408 Q110 428 141 428 Q164 428 177 414 Q190 400 190 381 Q190 355 171 336 Q152 317 121 317 Q99 317 86 330.5 Q73 344 73 363 Z " />
<glyph glyph-name="radical" unicode="&#x221a;" horiz-adv-x="565" d="M132 433 L44 397 L33 449 L214 525 L314 165 L630 945 L681 935 L279 -47 L132 433 Z " />
<glyph glyph-name="infinity" unicode="&#x221e;" horiz-adv-x="853" d="M628 438 Q604 438 582.5 428.5 Q561 419 541.5 404 Q522 389 504.5 370 Q487 351 471 332 Q487 313 504.5 294.5 Q522 276 541.5 261.5 Q561 247 582.5 238 Q604 229 628 229 Q682 229 709 258 Q736 287 736 333 Q736 380 707.5 409 Q679 438 628 438 Z M58 333 Q58 367 70 397 Q82 427 105 449.5 Q128 472 160.5 485 Q193 498 235 498 Q268 498 296 487.5 Q324 477 348 460.5 Q372 444 393 423 Q414 402 433 380 Q452 402 472.5 423 Q493 444 517 460.5 Q541 477 568.5 487.5 Q596 498 629 498 Q670 498 702.5 485 Q735 472 757.5 449.5 Q780 427 792 397 Q804 367 804 333 Q804 300 793 270 Q782 240 760.5 217.5 Q739 195 706 181.5 Q673 168 629 168 Q597 168 569.5 178.5 Q542 189 518 205.5 Q494 222 473 242.5 Q452 263 434 284 Q415 263 394 242 Q373 221 349 204.5 Q325 188 297 178 Q269 168 235 168 Q190 168 157 181 Q124 194 102 216.5 Q80 239 69 269 Q58 299 58 333 Z M236 438 Q184 438 155 409 Q126 380 126 333 Q126 287 154 258 Q182 229 236 229 Q261 229 283 238 Q305 247 324.5 261.5 Q344 276 361.5 294.5 Q379 313 395 332 Q378 351 361 370 Q344 389 324.5 404 Q305 419 283 428.5 Q261 438 236 438 Z " />
<glyph glyph-name="integral" unicode="&#x222b;" horiz-adv-x="577" d="M10 -135 Q-15 -135 -40 -131.5 Q-65 -128 -85 -123 L-62 -62 Q-43 -66 -21.5 -69 Q0 -72 17 -72 Q41 -72 61 -67.5 Q81 -63 98 -50.5 Q115 -38 129 -16.5 Q143 5 154 38 L350 643 Q381 740 437.5 780 Q494 820 586 820 Q612 820 636.5 816.5 Q661 813 680 808 L656 747 Q638 751 617 753.5 Q596 756 579 756 Q533 756 498 733.5 Q463 711 442 647 L244 43 Q228 -6 207.5 -40 Q187 -74 158.5 -95 Q130 -116 93.5 -125.5 Q57 -135 10 -135 Z " />
<glyph glyph-name="approxequal" unicode="&#x2248;" horiz-adv-x="595" d="M209 486 Q239 486 268 473.5 Q297 461 323.5 446 Q350 431 373.5 418.5 Q397 406 417 406 Q433 406 445 415 L504 476 L537 444 Q509 400 474 374.5 Q439 349 399 349 Q370 349 341 361.5 Q312 374 285.5 389 Q259 404 235 416.5 Q211 429 192 429 Q176 429 165 421 L103 357 L70 388 Q98 433 133 459.5 Q168 486 209 486 Z M209 320 Q239 320 268 307.5 Q297 295 323.5 280 Q350 265 373.5 252.5 Q397 240 417 240 Q433 240 445 249 L504 309 L537 277 Q509 233 474 207.5 Q439 182 399 182 Q370 182 341 194.5 Q312 207 285.5 222 Q259 237 235 249.5 Q211 262 192 262 Q176 262 165 254 L103 190 L70 221 Q98 266 133 293 Q168 320 209 320 Z " />
<glyph glyph-name="notequal" unicode="&#x2260;" horiz-adv-x="536" d="M72 441 L313 441 L365 524 L414 524 L362 441 L475 441 L475 382 L326 382 L266 283 L471 283 L471 224 L230 224 L174 131 L123 131 L180 224 L68 224 L68 283 L217 283 L277 382 L72 382 L72 441 Z " />
<glyph glyph-name="lessequal" unicode="&#x2264;" horiz-adv-x="566" d="M65 143 L480 143 L480 84 L65 84 L65 143 Z M65 357 L65 406 L480 558 L480 495 L159 383 L480 267 L480 204 L65 357 Z " />
<glyph glyph-name="greaterequal" unicode="&#x2265;" horiz-adv-x="589" d="M84 84 L84 143 L498 143 L498 84 L84 84 Z M84 268 L405 380 L84 496 L84 559 L499 405 L499 357 L84 205 L84 268 Z " />
<glyph glyph-name="lozenge" unicode="&#x25ca;" horiz-adv-x="538" d="M146 -80 L38 345 L328 782 L413 782 L521 358 L231 -80 L146 -80 Z M441 351 L354 702 L119 352 L206 0 L441 351 Z " />
<glyph glyph-name="f_f" unicode="&#xfb00;" horiz-adv-x="686" d="M126 -2 Q107 -92 61 -136 Q15 -180 -74 -180 Q-102 -180 -119.5 -176 Q-137 -172 -143 -170 L-131 -105 Q-115 -108 -98.5 -110 Q-82 -112 -68 -112 Q-23 -112 0 -88.5 Q23 -65 35 -6 L133 455 L54 455 L67 524 L148 524 L155 562 Q172 652 219 696 Q266 740 356 740 Q381 740 402 737.5 Q423 735 436 732 L423 666 Q417 667 406 668 Q395 669 383.5 670 Q372 671 362.5 671 Q353 671 350 671 Q305 671 281.5 648 Q258 625 246 566 L237 524 L366 524 L352 455 L223 455 L126 -2 L126 -2 Z M478 -2 Q459 -92 413 -136 Q367 -180 278 -180 Q250 -180 232.5 -176 Q215 -172 209 -170 L221 -105 Q237 -108 253.5 -110 Q270 -112 284 -112 Q329 -112 352 -88.5 Q375 -65 387 -6 L485 455 L406 455 L419 524 L500 524 L507 562 Q524 652 571 696 Q618 740 708 740 Q733 740 754 737.5 Q775 735 788 732 L775 666 Q769 667 758 668 Q747 669 735.5 670 Q724 671 714.5 671 Q705 671 702 671 Q657 671 633.5 648 Q610 625 598 566 L589 524 L718 524 L704 455 L575 455 L478 -2 L478 -2 Z " />
<glyph glyph-name="fi" unicode="&#xfb01;" horiz-adv-x="587" d="M475 526 L565 526 L454 0 L364 0 L475 526 Z M491 665 Q491 694 507.5 712 Q524 730 556 730 Q579 730 591.5 718 Q604 706 604 687 Q604 658 587.5 640.5 Q571 623 538 623 Q515 623 503 635.5 Q491 648 491 665 Z M126 -2 Q107 -92 61 -136 Q15 -180 -74 -180 Q-102 -180 -119.5 -176 Q-137 -172 -143 -170 L-131 -105 Q-115 -108 -98.5 -110 Q-82 -112 -68 -112 Q-23 -112 0 -88.5 Q23 -65 35 -6 L133 455 L54 455 L67 524 L148 524 L155 562 Q172 652 219 696 Q266 740 356 740 Q381 740 402 737.5 Q423 735 436 732 L423 666 Q417 667 406 668 Q395 669 383.5 670 Q372 671 362.5 671 Q353 671 350 671 Q305 671 281.5 648 Q258 625 246 566 L237 524 L366 524 L352 455 L223 455 L126 -2 L126 -2 Z " />
<glyph glyph-name="fl" unicode="&#xfb02;" horiz-adv-x="591" d="M521 730 L610 730 L455 0 L366 0 L521 730 Z M126 -2 Q107 -92 61 -136 Q15 -180 -74 -180 Q-102 -180 -119.5 -176 Q-137 -172 -143 -170 L-131 -105 Q-115 -108 -98.5 -110 Q-82 -112 -68 -112 Q-23 -112 0 -88.5 Q23 -65 35 -6 L133 455 L54 455 L67 524 L148 524 L155 562 Q172 652 219 696 Q266 740 356 740 Q381 740 402 737.5 Q423 735 436 732 L423 666 Q417 667 406 668 Q395 669 383.5 670 Q372 671 362.5 671 Q353 671 350 671 Q305 671 281.5 648 Q258 625 246 566 L237 524 L366 524 L352 455 L223 455 L126 -2 L126 -2 Z " />
<glyph glyph-name="f_f_i" unicode="&#xfb03;" horiz-adv-x="939" d="M827 526 L917 526 L806 0 L716 0 L827 526 Z M843 665 Q843 694 859.5 712 Q876 730 908 730 Q931 730 943.5 718 Q956 706 956 687 Q956 658 939.5 640.5 Q923 623 890 623 Q867 623 855 635.5 Q843 648 843 665 Z M126 -2 Q107 -92 61 -136 Q15 -180 -74 -180 Q-102 -180 -119.5 -176 Q-137 -172 -143 -170 L-131 -105 Q-115 -108 -98.5 -110 Q-82 -112 -68 -112 Q-23 -112 0 -88.5 Q23 -65 35 -6 L133 455 L54 455 L67 524 L148 524 L155 562 Q172 652 219 696 Q266 740 356 740 Q381 740 402 737.5 Q423 735 436 732 L423 666 Q417 667 406 668 Q395 669 383.5 670 Q372 671 362.5 671 Q353 671 350 671 Q305 671 281.5 648 Q258 625 246 566 L237 524 L366 524 L352 455 L223 455 L126 -2 L126 -2 Z M478 -2 Q459 -92 413 -136 Q367 -180 278 -180 Q250 -180 232.5 -176 Q215 -172 209 -170 L221 -105 Q237 -108 253.5 -110 Q270 -112 284 -112 Q329 -112 352 -88.5 Q375 -65 387 -6 L485 455 L406 455 L419 524 L500 524 L507 562 Q524 652 571 696 Q618 740 708 740 Q733 740 754 737.5 Q775 735 788 732 L775 666 Q769 667 758 668 Q747 669 735.5 670 Q724 671 714.5 671 Q705 671 702 671 Q657 671 633.5 648 Q610 625 598 566 L589 524 L718 524 L704 455 L575 455 L478 -2 L478 -2 Z " />
<glyph glyph-name="f_f_l" unicode="&#xfb04;" horiz-adv-x="943" d="M874 730 L963 730 L808 0 L719 0 L874 730 Z M126 -2 Q107 -92 61 -136 Q15 -180 -74 -180 Q-102 -180 -119.5 -176 Q-137 -172 -143 -170 L-131 -105 Q-115 -108 -98.5 -110 Q-82 -112 -68 -112 Q-23 -112 0 -88.5 Q23 -65 35 -6 L133 455 L54 455 L67 524 L148 524 L155 562 Q172 652 219 696 Q266 740 356 740 Q381 740 402 737.5 Q423 735 436 732 L423 666 Q417 667 406 668 Q395 669 383.5 670 Q372 671 362.5 671 Q353 671 350 671 Q305 671 281.5 648 Q258 625 246 566 L237 524 L366 524 L352 455 L223 455 L126 -2 L126 -2 Z M478 -2 Q459 -92 413 -136 Q367 -180 278 -180 Q250 -180 232.5 -176 Q215 -172 209 -170 L221 -105 Q237 -108 253.5 -110 Q270 -112 284 -112 Q329 -112 352 -88.5 Q375 -65 387 -6 L485 455 L406 455 L419 524 L500 524 L507 562 Q524 652 571 696 Q618 740 708 740 Q733 740 754 737.5 Q775 735 788 732 L775 666 Q769 667 758 668 Q747 669 735.5 670 Q724 671 714.5 671 Q705 671 702 671 Q657 671 633.5 648 Q610 625 598 566 L589 524 L718 524 L704 455 L575 455 L478 -2 L478 -2 Z " />
<glyph glyph-name="longs_t" unicode="&#xfb05;" horiz-adv-x="630" d="M126 -2 Q107 -92 61 -136 Q15 -180 -74 -180 Q-102 -180 -119.5 -176 Q-137 -172 -143 -170 L-131 -105 Q-115 -108 -98.5 -110 Q-82 -112 -68 -112 Q-23 -112 -0.5 -88.5 Q22 -65 35 -6 L133 455 L54 455 L67 524 L148 524 L155 562 Q172 652 219 696 Q266 740 356 740 Q381 740 402 737.5 Q423 735 436 732 L423 666 Q417 667 406 668 Q395 669 383.5 670 Q372 671 362.5 671 Q353 671 350 671 Q305 671 281.5 648 Q258 625 246 566 L126 -2 L126 -2 Z M407 -10 Q363 -10 345.5 11 Q328 32 338 81 L418 455 L342 455 L357 524 L427 524 L494 670 L552 670 L521 524 L644 524 L629 455 L506 455 L425 67 L567 67 L552 0 Q521 -3 494 -5 Q471 -7 446 -8.5 Q421 -10 407 -10 Z " />
<glyph glyph-name="commaaccent" unicode="&#xf6c3;" horiz-adv-x="249" d="M31 -250 L76 -189 L73 -177 Q56 -166 56 -144 Q56 -122 71 -104.5 Q86 -87 114 -87 Q134 -87 146.5 -98.5 Q159 -110 159 -128 Q159 -142 153.5 -153 Q148 -164 140 -175 L66 -273 L31 -250 Z " />
<glyph glyph-name="uniF8FF" unicode="&#xf8ff;" horiz-adv-x="1420" d="M373 488 Q384 488 384 477 L384 471 Q393 478 406.5 485 Q420 492 442 492 Q460 492 472.5 484.5 Q485 477 493 466 Q501 473 516 482.5 Q531 492 557 492 Q583 492 598.5 476.5 Q614 461 614 438 L614 306 Q614 295 602 295 L564 295 Q551 295 551 306 L551 422 Q551 431 548.5 434.5 Q546 438 537 438 Q526 438 515.5 433 Q505 428 499 423 L499 306 Q499 295 488 295 L450 295 Q438 295 438 306 L438 422 Q438 431 435.5 434.5 Q433 438 423 438 Q412 438 401.5 433 Q391 428 386 423 L386 306 Q386 295 376 295 L335 295 Q324 295 324 306 L324 477 Q324 488 335 488 L373 488 Z M1038 488 Q1050 488 1050 477 L1051 470 Q1059 477 1073 484.5 Q1087 492 1111 492 Q1140 492 1154 476 Q1168 460 1168 432 L1168 352 Q1168 323 1154 306.5 Q1140 290 1111 290 Q1088 290 1074.5 297.5 Q1061 305 1053 311 L1053 228 Q1053 217 1042 217 L1002 217 Q991 217 991 228 L991 477 Q991 488 1002 488 L1038 488 Z M291 388 Q291 377 279 377 L186 377 L186 354 Q186 336 209 336 Q234 336 234 354 L234 355 Q234 366 245 366 L277 366 Q289 366 289 355 L289 352 Q289 324 271.5 307 Q254 290 209 290 Q164 290 144 307 Q124 324 124 352 L124 431 Q124 460 144 476 Q164 492 209 492 Q254 492 272.5 476 Q291 460 291 431 L291 388 Z M1365 388 Q1365 377 1354 377 L1260 377 L1260 354 Q1260 336 1283 336 Q1307 336 1307 354 L1307 355 Q1307 366 1319 366 L1351 366 Q1362 366 1362 355 L1362 352 Q1362 324 1345 307 Q1328 290 1283 290 Q1238 290 1218.5 307 Q1199 324 1199 352 L1199 431 Q1199 460 1218.5 476 Q1238 492 1283 492 Q1328 492 1346.5 476 Q1365 460 1365 431 L1365 388 Z M867 407 Q871 393 872.5 382 Q874 371 874 370 Q875 371 878.5 383.5 Q882 396 884 405 L908 477 Q910 482 912 485 Q914 488 920 488 L957 488 Q968 488 968 480 L968 477 L884 228 Q880 217 870 217 L842 217 Q831 217 831 225 L831 228 L847 287 L782 477 Q781 479 781 481 Q781 488 793 488 L833 488 Q839 488 841 485 Q843 482 845 477 L867 407 Z M757 487 Q768 487 768 477 L768 450 Q768 439 757 439 L726 439 L726 362 Q726 344 750 344 L760 344 Q772 344 772 333 L772 306 Q772 295 760 295 L741 295 Q696 295 679.5 309.5 Q663 324 663 355 L663 439 L646 439 Q635 439 635 450 L635 475 Q635 483 646 486 L662 487 L663 487 L663 523 Q663 535 675 535 L714 535 Q726 535 726 523 L726 487 L757 487 Z M467 98 Q467 94 463 94 L349 94 L349 46 Q349 32 359.5 22.5 Q370 13 399 13 Q428 13 437.5 22.5 Q447 32 447 46 L447 54 Q447 58 453 58 L462 58 Q467 58 467 54 L467 45 Q467 24 452.5 10.5 Q438 -3 398 -3 Q359 -3 344 10.5 Q329 24 329 45 L329 147 Q329 168 344 181.5 Q359 195 399 195 Q438 195 452.5 181.5 Q467 168 467 147 L467 98 Z M149 171 Q157 177 174.5 186 Q192 195 216 195 Q244 195 257 182 Q270 169 270 149 L270 5 Q270 0 266 0 L255 0 Q251 0 251 5 L251 145 Q251 159 241.5 167.5 Q232 176 212 176 Q189 176 172.5 167.5 Q156 159 150 153 L150 5 Q150 0 146 0 L135 0 Q130 0 130 5 L130 188 Q130 192 135 192 L144 192 Q149 192 149 188 L149 171 Z M598 191 Q602 191 602 187 L602 179 Q602 174 598 174 L551 174 L551 50 Q551 36 562 26.5 Q573 17 601 17 L607 17 Q612 17 612 12 L612 5 Q612 0 607 0 L598 0 Q559 0 545.5 12.5 Q532 25 532 48 L532 174 L507 174 Q503 174 503 179 L503 186 Q503 190 507 191 L532 191 L532 232 Q532 237 536 237 L547 237 Q551 237 551 232 L551 191 L598 191 Z M349 110 L447 110 L447 146 Q447 160 437 169 Q427 178 399 178 Q370 178 359.5 169 Q349 160 349 146 L349 110 Z M1107 423 Q1107 428 1104.5 433 Q1102 438 1090 438 Q1079 438 1069 432.5 Q1059 427 1053 423 L1053 360 Q1059 356 1069 350 Q1079 344 1090 344 Q1102 344 1104.5 350 Q1107 356 1107 361 L1107 423 Z M186 417 L234 417 L234 428 Q234 446 209 446 Q186 446 186 428 L186 417 Z M1260 417 L1307 417 L1307 428 Q1307 446 1283 446 Q1260 446 1260 428 L1260 417 Z M65 5 Q65 0 60 0 L49 0 Q45 0 45 5 L45 35 Q45 40 49 40 L60 40 Q65 40 65 35 L65 5 Z " />
<glyph glyph-name="zero.tab" unicode="&#xff10;" horiz-adv-x="600" d="M257 -10 Q201 -10 159.5 8 Q118 26 90.5 58.5 Q63 91 49.5 135.5 Q36 180 36 234 Q36 285 44 340 Q52 395 69.5 448 Q87 501 113.5 548.5 Q140 596 176.5 632 Q213 668 260 689 Q307 710 365 710 Q421 710 462.5 692 Q504 674 531.5 642 Q559 610 572.5 565 Q586 520 586 466 Q586 390 567 306.5 Q548 223 508 152.5 Q468 82 406 36 Q344 -10 257 -10 Z M261 66 Q302 66 335 86.5 Q368 107 393 140.5 Q418 174 436.5 217.5 Q455 261 466.5 307 Q478 353 483.5 399 Q489 445 489 483 Q489 555 458 595 Q427 635 360 635 Q319 635 286 614.5 Q253 594 227.5 560.5 Q202 527 184 483.5 Q166 440 154.5 394 Q143 348 137.5 302 Q132 256 132 218 Q132 144 162 105 Q192 66 261 66 Z " />
<glyph glyph-name="one.tab" unicode="&#xff11;" horiz-adv-x="600" d="M73 0 L87 65 L218 65 L332 601 L201 601 L214 667 L312 667 Q382 667 401 710 L450 710 L313 65 L445 65 L432 0 L73 0 Z " />
<glyph glyph-name="two.tab" unicode="&#xff12;" horiz-adv-x="600" d="M157 665 Q162 667 180.5 674.5 Q199 682 227.5 690 Q256 698 293 704 Q330 710 372 710 Q427 710 465 696.5 Q503 683 527 661 Q551 639 562 610.5 Q573 582 573 552 Q573 510 559 475.5 Q545 441 514.5 410 Q484 379 436 348.5 Q388 318 321 284 Q268 257 233.5 236 Q199 215 178 195.5 Q157 176 146 156 Q135 136 130 112 L123 82 L487 82 L471 0 L12 0 L35 113 Q42 147 56.5 176 Q71 205 98.5 233 Q126 261 169 289 Q212 317 276 350 Q327 376 364.5 398.5 Q402 421 426 443.5 Q450 466 461.5 489.5 Q473 513 473 541 Q473 582 445 607 Q417 632 351 632 Q303 632 248.5 620 Q194 608 142 584 L157 665 Z " />
<glyph glyph-name="three.tab" unicode="&#xff13;" horiz-adv-x="600" d="M165 677 Q173 681 190.5 686.5 Q208 692 232.5 697 Q257 702 288 706 Q319 710 353 710 Q408 710 446 697 Q484 684 508 662.5 Q532 641 542.5 614 Q553 587 553 559 Q553 470 507 422 Q461 374 388 360 L387 357 Q433 343 464 312.5 Q495 282 495 224 Q495 180 479.5 138 Q464 96 430 63 Q396 30 343.5 10 Q291 -10 216 -10 Q178 -10 145 -5.5 Q112 -1 86 5 Q60 11 43 17 Q26 23 19 26 L34 96 Q83 78 126 71 Q169 64 208 64 Q257 64 293 77.5 Q329 91 352.5 113.5 Q376 136 387 165 Q398 194 398 225 Q398 282 364.5 303.5 Q331 325 273 325 L208 325 L221 396 L290 396 Q323 396 353.5 403.5 Q384 411 406.5 428 Q429 445 442.5 472 Q456 499 456 538 Q456 557 450 575 Q444 593 429 606.5 Q414 620 389.5 628 Q365 636 329 636 Q287 636 245.5 628 Q204 620 152 600 L165 677 Z " />
<glyph glyph-name="four.tab" unicode="&#xff14;" horiz-adv-x="600" d="M433 583 L121 260 L365 260 L433 583 Z M442 184 L404 0 L310 0 L348 184 L11 184 L26 260 L461 710 L554 710 L459 260 L554 260 L539 184 L442 184 Z " />
<glyph glyph-name="five.tab" unicode="&#xff15;" horiz-adv-x="600" d="M224 -10 Q179 -10 142.5 -4 Q106 2 79 10 Q47 19 22 31 L38 106 Q83 86 127 76 Q171 66 225 66 Q276 66 312 80.5 Q348 95 371.5 118 Q395 141 406 171 Q417 201 417 232 Q417 265 406.5 286 Q396 307 377 319.5 Q358 332 331.5 337 Q305 342 274 342 L109 342 L185 700 L577 700 L560 618 L249 618 L206 419 L300 419 Q345 419 384 409.5 Q423 400 452.5 379 Q482 358 498.5 324 Q515 290 515 240 Q515 195 498 150.5 Q481 106 446 70 Q411 34 355.5 12 Q300 -10 224 -10 Z " />
<glyph glyph-name="six.tab" unicode="&#xff16;" horiz-adv-x="600" d="M537 257 Q537 191 514.5 141 Q492 91 454.5 57.5 Q417 24 368 7 Q319 -10 266 -10 Q167 -10 112 46 Q57 102 57 217 Q57 272 66 330 Q75 388 94 442.5 Q113 497 143 546 Q173 595 216 631.5 Q259 668 314.5 689 Q370 710 441 710 Q490 710 526.5 701.5 Q563 693 583 683 L566 608 Q531 623 498.5 629.5 Q466 636 436 636 Q380 636 335 615.5 Q290 595 255.5 557 Q221 519 197 466 Q173 413 161 349 Q177 362 198 375.5 Q219 389 244 399.5 Q269 410 298 417 Q327 424 359 424 Q395 424 427 414 Q459 404 483.5 383.5 Q508 363 522.5 331.5 Q537 300 537 257 Z M276 62 Q309 62 339.5 73.5 Q370 85 393.5 107.5 Q417 130 431.5 164.5 Q446 199 446 245 Q446 299 414.5 324.5 Q383 350 332 350 Q305 350 279 342.5 Q253 335 229.5 323 Q206 311 186 296.5 Q166 282 150 268 Q149 251 148.5 235 Q148 219 148 202 Q148 136 179 99 Q210 62 276 62 Z " />
<glyph glyph-name="seven.tab" unicode="&#xff17;" horiz-adv-x="600" d="M114 0 L490 618 L142 618 L159 700 L607 700 L596 649 L219 0 L114 0 Z " />
<glyph glyph-name="eight.tab" unicode="&#xff18;" horiz-adv-x="600" d="M246 -10 Q183 -10 141 3.5 Q99 17 74.5 38.5 Q50 60 39.5 88 Q29 116 29 145 Q29 198 48 235.5 Q67 273 95 298.5 Q123 324 154.5 339.5 Q186 355 212 363 Q174 386 149 419.5 Q124 453 124 504 Q124 549 142.5 587 Q161 625 194.5 652.5 Q228 680 274 695 Q320 710 376 710 Q431 710 468.5 697 Q506 684 529 664 Q552 644 561.5 619 Q571 594 571 570 Q571 532 558.5 501.5 Q546 471 525 446.5 Q504 422 475.5 404 Q447 386 416 373 Q464 348 492.5 312.5 Q521 277 521 217 Q521 163 500 120.5 Q479 78 442.5 49 Q406 20 355.5 5 Q305 -10 246 -10 Z M210 525 Q210 484 244.5 456 Q279 428 343 403 Q370 413 396.5 427.5 Q423 442 444 461 Q465 480 478 503 Q491 526 491 554 Q491 571 483.5 587 Q476 603 460.5 615 Q445 627 421 634.5 Q397 642 364 642 Q330 642 301.5 633.5 Q273 625 253 609 Q233 593 221.5 571.5 Q210 550 210 525 Z M254 59 Q293 59 325.5 69.5 Q358 80 380.5 99 Q403 118 415.5 143.5 Q428 169 428 199 Q428 226 418 245 Q408 264 389.5 278.5 Q371 293 344.5 305 Q318 317 284 329 Q269 323 240 311.5 Q211 300 183 280 Q155 260 134 230.5 Q113 201 113 159 Q113 140 120.5 122 Q128 104 144.5 90 Q161 76 188 67.5 Q215 59 254 59 Z " />
<glyph glyph-name="nine.tab" unicode="&#xff19;" horiz-adv-x="600" d="M289 350 Q316 350 342 357.5 Q368 365 391.5 377 Q415 389 435 403.5 Q455 418 471 432 Q473 449 473 465 Q473 481 473 498 Q473 564 442 601 Q411 638 345 638 Q312 638 281.5 626.5 Q251 615 227 592.5 Q203 570 188.5 535.5 Q174 501 174 455 Q174 401 206 375.5 Q238 350 289 350 Z M180 -10 Q131 -10 94 -1.5 Q57 7 37 18 L55 92 Q90 77 122.5 70.5 Q155 64 185 64 Q240 64 285.5 84.5 Q331 105 365.5 143 Q400 181 423.5 233.5 Q447 286 460 351 Q444 338 423 324.5 Q402 311 377 300.5 Q352 290 323 283 Q294 276 262 276 Q226 276 194 286 Q162 296 137.5 316.5 Q113 337 98.5 368.5 Q84 400 84 443 Q84 509 106.5 559 Q129 609 166.5 642.5 Q204 676 253 693 Q302 710 355 710 Q454 710 509 654 Q564 598 564 483 Q564 428 555 370.5 Q546 313 527 258 Q508 203 477.5 154.5 Q447 106 404.5 69.5 Q362 33 306 11.5 Q250 -10 180 -10 Z " />
<glyph glyph-name="uni215F" unicode="&#x215f;" horiz-adv-x="373" d="M100 376 L110 421 L167 421 L211 632 L155 632 L165 680 L212 680 Q227 680 238.5 688 Q250 696 253 704 L293 704 L232 421 L293 421 L282 376 L100 376 Z M584 700 L646 700 L106 0 L45 0 L584 700 Z " />
<glyph glyph-name="uni2153" unicode="&#x2153;" horiz-adv-x="643" d="M67 376 L77 421 L134 421 L178 632 L122 632 L132 680 L179 680 Q194 680 205.5 688 Q217 696 220 704 L260 704 L199 421 L260 421 L249 376 L67 376 Z M553 700 L615 700 L75 0 L14 0 L553 700 Z M333 64 Q358 55 381.5 51.5 Q405 48 426 48 Q461 48 477.5 63.5 Q494 79 494 103 Q494 124 481.5 132 Q469 140 449 140 L409 140 L420 190 L458 190 Q484 190 502 201.5 Q520 213 520 240 Q520 254 509 264 Q498 274 472 274 Q455 274 432 271.5 Q409 269 380 261 L392 312 Q406 316 423 320 Q437 323 455 326 Q473 329 493 329 Q545 329 565.5 307 Q586 285 586 257 Q586 220 566.5 197.5 Q547 175 513 167 L513 165 Q535 157 547.5 143 Q560 129 560 105 Q560 84 552.5 64.5 Q545 45 529 29.5 Q513 14 487.5 4.5 Q462 -5 426 -5 Q404 -5 385.5 -2.5 Q367 0 353 4 Q336 8 323 14 L333 64 Z " />
<glyph glyph-name="uni2154" unicode="&#x2154;" horiz-adv-x="691" d="M61 376 L73 435 Q77 453 84 466.5 Q91 480 104 492 Q117 504 136.5 516 Q156 528 184 543 Q228 566 247.5 583 Q267 600 267 620 Q267 631 257 639.5 Q247 648 221 648 Q197 648 170 642 Q143 636 117 626 L129 682 Q144 688 162 693 Q177 698 196.5 701.5 Q216 705 238 705 Q290 705 311.5 682.5 Q333 660 333 633 Q333 612 327 596 Q321 580 307.5 565.5 Q294 551 272 536 Q250 521 218 503 Q179 482 163.5 471 Q148 460 144 446 L140 433 L301 433 L289 376 L61 376 Z M600 700 L662 700 L122 0 L61 0 L600 700 Z M382 64 Q407 55 430.5 51.5 Q454 48 475 48 Q510 48 526.5 63.5 Q543 79 543 103 Q543 124 530.5 132 Q518 140 498 140 L458 140 L469 190 L507 190 Q533 190 551 201.5 Q569 213 569 240 Q569 254 558 264 Q547 274 521 274 Q504 274 481 271.5 Q458 269 429 261 L441 312 Q455 316 472 320 Q486 323 504 326 Q522 329 542 329 Q594 329 614.5 307 Q635 285 635 257 Q635 220 615.5 197.5 Q596 175 562 167 L562 165 Q584 157 596.5 143 Q609 129 609 105 Q609 84 601.5 64.5 Q594 45 578 29.5 Q562 14 536.5 4.5 Q511 -5 475 -5 Q453 -5 434.5 -2.5 Q416 0 402 4 Q385 8 372 14 L382 64 Z " />
</font>
</svg>
