<?xml version="1.0" encoding="UTF-8"?>
<svg xmlns="http://www.w3.org/2000/svg" xmlns:xlink="http://www.w3.org/1999/xlink" version="1.2" >
<font id="Catalana Sans Regular">
<font-face  font-family="Catalana Sans" units-per-em="1000" ascent="1000" descent="-300" font-style="normal" font-weight="400" font-stretch="normal" slope="-12" cap-height="700" x-height="530" underline-position="-75" underline-thickness="50" />
<missing-glyph  horiz-adv-x="815" d="M294 516 Q309 524 340 537 Q371 550 409 550 Q446 550 471 541 Q496 532 512 517 Q528 502 535 483 Q542 464 542 445 Q542 408 525 383.5 Q508 359 467 339 Q439 325 429.5 315 Q420 305 418 291 L415 236 L370 236 L366 291 Q362 320 380 337 Q398 354 430 370 Q462 387 471 403 Q480 419 480 439 Q480 462 463 481 Q446 500 404 500 Q377 500 351.5 493 Q326 486 294 469 L294 516 Z M356 149 Q356 164 366.5 174.5 Q377 185 394 185 Q411 185 421 174.5 Q431 164 431 149 Q431 135 421 124.5 Q411 114 394 114 Q377 114 366.5 124.5 Q356 135 356 149 Z M46 349 Q46 424 74.5 490 Q103 556 152 604.5 Q201 653 267 681.5 Q333 710 408 710 Q483 710 549 681.5 Q615 653 663.5 604.5 Q712 556 740.5 490 Q769 424 769 349 Q769 274 740.5 209 Q712 144 662.5 95 Q613 46 547.5 18 Q482 -10 407 -10 Q332 -10 266 18 Q200 46 151.5 95 Q103 144 74.5 209 Q46 274 46 349 Z M93 349 Q93 284 117.5 226.5 Q142 169 184.5 126 Q227 83 284 58.5 Q341 34 407 34 Q473 34 530.5 58.5 Q588 83 631 126 Q674 169 698.5 226.5 Q723 284 723 349 Q723 415 698.5 473 Q674 531 631.5 573.5 Q589 616 531.5 641 Q474 666 408 666 Q342 666 285 641 Q228 616 185 573.5 Q142 531 117.5 473 Q93 415 93 349 Z " />
<glyph glyph-name="NULL" d="" />
<glyph glyph-name="nonmarkingreturn" unicode="&#xd;" d="" />
<glyph glyph-name="space" unicode="&#x20;" horiz-adv-x="233" d="" />
<glyph glyph-name="exclam" unicode="&#x21;" horiz-adv-x="245" d="M88 189 L70 493 L70 700 L175 700 L175 493 L158 189 L88 189 Z M63 48 Q63 71 80.5 88 Q98 105 123 105 Q148 105 165.5 88 Q183 71 183 48 Q183 24 165.5 7 Q148 -10 123 -10 Q98 -10 80.5 7 Q63 24 63 48 Z " />
<glyph glyph-name="quotedbl" unicode="&#x22;" horiz-adv-x="350" d="M218 461 L206 614 L206 700 L288 700 L288 614 L276 461 L218 461 Z M74 461 L62 614 L62 700 L144 700 L144 614 L132 461 L74 461 Z " />
<glyph glyph-name="numbersign" unicode="&#x23;" horiz-adv-x="564" d="M480 157 L368 157 L317 0 L257 0 L309 157 L184 157 L133 0 L73 0 L125 157 L43 157 L43 207 L141 207 L179 321 L83 321 L83 371 L195 371 L246 526 L307 526 L255 371 L379 371 L430 526 L491 526 L439 371 L520 371 L520 321 L423 321 L385 207 L480 207 L480 157 Z M201 207 L325 207 L363 321 L239 321 L201 207 Z " />
<glyph glyph-name="dollar" unicode="&#x24;" horiz-adv-x="554" d="M513 202 Q513 155 498 118.5 Q483 82 455.5 55.5 Q428 29 389.5 13.5 Q351 -2 304 -8 L304 -102 L256 -102 L256 -10 Q211 -10 174 -6 Q137 -2 110.5 3 Q84 8 68.5 12 Q53 16 50 17 L50 95 Q92 83 140 74.5 Q188 66 256 65 L256 317 Q202 333 164 351.5 Q126 370 102 394.5 Q78 419 66.5 450 Q55 481 55 523 Q55 602 109 650.5 Q163 699 256 708 L256 787 L304 787 L304 710 Q342 709 374.5 706 Q407 703 431 698 Q459 693 482 687 L482 609 Q448 619 403 627 Q358 635 304 635 L304 400 Q355 384 394 366 Q433 348 459.5 325 Q486 302 499.5 272 Q513 242 513 202 Z M420 188 Q420 234 393 258 Q366 282 304 302 L304 68 Q361 77 390.5 107.5 Q420 138 420 188 Z M142 530 Q142 511 147 495 Q152 479 165 465.5 Q178 452 200 439.5 Q222 427 256 415 L256 630 Q201 622 171.5 596.5 Q142 571 142 530 Z " />
<glyph glyph-name="percent" unicode="&#x25;" horiz-adv-x="688" d="M239 539 Q239 594 225 622 Q211 650 176 650 Q141 650 126 622 Q111 594 111 539 Q111 484 126 456 Q141 428 176 428 Q211 428 225 456 Q239 484 239 539 Z M305 539 Q305 452 270.5 412 Q236 372 176 372 Q115 372 80.5 412 Q46 452 46 540 Q46 627 80.5 666.5 Q115 706 176 706 Q235 706 270 666 Q305 626 305 539 Z M575 162 Q575 217 561 245 Q547 273 512 273 Q477 273 462 245 Q447 217 447 162 Q447 107 462 79 Q477 51 512 51 Q547 51 561 79 Q575 107 575 162 Z M641 162 Q641 75 606.5 35 Q572 -5 512 -5 Q451 -5 416.5 35 Q382 75 382 163 Q382 250 416.5 289.5 Q451 329 512 329 Q571 329 606 289 Q641 249 641 162 Z M61 0 L571 700 L630 700 L122 0 L61 0 Z " />
<glyph glyph-name="ampersand" unicode="&#x26;" horiz-adv-x="700" d="M237 554 Q237 542 239.5 529 Q242 516 250 499.5 Q258 483 272 462 Q286 441 309 414 Q329 425 349.5 439 Q370 453 387 471.5 Q404 490 414.5 513 Q425 536 425 565 Q425 606 402.5 630 Q380 654 340 654 Q290 654 263.5 626 Q237 598 237 554 Z M278 60 Q321 60 360 78 Q399 96 431 128 L263 329 Q249 323 227.5 313.5 Q206 304 186 287.5 Q166 271 151.5 246 Q137 221 137 186 Q137 162 145.5 139 Q154 116 171.5 98.5 Q189 81 215.5 70.5 Q242 60 278 60 Z M474 77 Q432 37 377.5 13.5 Q323 -10 253 -10 Q200 -10 160 5 Q120 20 93.5 45 Q67 70 54 102 Q41 134 41 168 Q41 219 61.5 254 Q82 289 111.5 313 Q141 337 172.5 351 Q204 365 226 373 Q200 404 185.5 429.5 Q171 455 164.5 476 Q158 497 156.5 513.5 Q155 530 155 544 Q155 577 167 607 Q179 637 201.5 660 Q224 683 257.5 696.5 Q291 710 335 710 Q378 710 409 699 Q440 688 459.5 668.5 Q479 649 488.5 623.5 Q498 598 498 569 Q498 531 485.5 501 Q473 471 452 447 Q431 423 403.5 404 Q376 385 347 370 L489 200 Q514 238 532.5 283 Q551 328 564 376 L633 376 Q619 317 594.5 257.5 Q570 198 535 146 L591 79 Q598 71 604.5 68 Q611 65 618 65 L681 65 L681 0 L589 0 Q555 0 538 10.5 Q521 21 508 37 L474 77 Z " />
<glyph glyph-name="quotesingle" unicode="&#x27;" horiz-adv-x="206" d="M74 461 L62 614 L62 700 L144 700 L144 614 L132 461 L74 461 Z " />
<glyph glyph-name="parenleft" unicode="&#x28;" horiz-adv-x="328" d="M53 443 Q53 502 70 553 Q87 604 117 648 Q147 692 188 728.5 Q229 765 277 796 L311 754 Q273 723 241.5 690 Q210 657 187.5 619.5 Q165 582 153 538.5 Q141 495 141 443 L141 238 Q141 187 153 143.5 Q165 100 187.5 62 Q210 24 241.5 -9 Q273 -42 311 -72 L277 -114 Q229 -84 188 -47 Q147 -10 117 33.5 Q87 77 70 128 Q53 179 53 238 L53 443 Z " />
<glyph glyph-name="parenright" unicode="&#x29;" horiz-adv-x="328" d="M275.003 239.027 Q275.003 180.031 258.004 129.034 Q241.005 78.0369 211.007 34.0396 Q181.009 -9.95776 140.011 -46.4555 Q99.014 -82.9533 51.0169 -113.951 L17.019 -71.954 Q55.0167 -40.9559 86.5147 -7.95789 Q118.013 25.0401 140.511 62.5378 Q163.01 100.036 175.009 143.533 Q187.009 187.03 187.009 239.027 L187.009 444.015 Q187.009 495.011 175.009 538.509 Q163.01 582.006 140.511 620.004 Q118.013 658.001 86.5147 690.999 Q55.0167 723.997 17.019 753.996 L51.0169 795.993 Q99.014 765.995 140.011 728.997 Q181.009 691.999 211.007 648.502 Q241.005 605.005 258.004 554.008 Q275.003 503.011 275.003 444.015 L275.003 239.027 Z " />
<glyph glyph-name="asterisk" unicode="&#x2a;" horiz-adv-x="451" d="M243 547 L324 605 L376 631 L406 571 L355 545 L253 514 L327 443 L361 397 L308 357 L273 403 L225 492 L178 403 L143 357 L89 397 L124 443 L198 514 L96 545 L45 571 L75 631 L126 605 L207 547 L192 643 L192 700 L258 700 L258 643 L243 547 Z " />
<glyph glyph-name="plus" unicode="&#x2b;" horiz-adv-x="501" d="M49 366 L220 366 L220 538 L281 538 L281 366 L452 366 L452 307 L281 307 L281 135 L220 135 L220 307 L49 307 L49 366 Z " />
<glyph glyph-name="comma" unicode="&#x2c;" horiz-adv-x="225" d="M48 -95 L88 -20 L84 -5 Q55 11 55 46 Q55 71 69.5 86 Q84 101 112 101 Q140 101 155 86 Q170 71 170 46 Q170 34 166 23.5 Q162 13 157 4 L91 -118 L48 -95 Z " />
<glyph glyph-name="hyphen" unicode="&#x2d;" horiz-adv-x="376" d="M68 315 L309 315 L309 251 L68 251 L68 315 Z " />
<glyph glyph-name="period" unicode="&#x2e;" horiz-adv-x="222" d="M53 46 Q53 67 70 84 Q87 101 111 101 Q135 101 152 84 Q169 67 169 46 Q169 23 152 6.5 Q135 -10 111 -10 Q87 -10 70 6.5 Q53 23 53 46 Z " />
<glyph glyph-name="slash" unicode="&#x2f;" horiz-adv-x="438" d="M22 -102 L350 787 L416 787 L88 -102 L22 -102 Z " />
<glyph glyph-name="zero" unicode="0" horiz-adv-x="634" d="M579 350 Q579 258 560.5 190.5 Q542 123 507.5 78.5 Q473 34 424.5 12 Q376 -10 317 -10 Q258 -10 209.5 12 Q161 34 127 78.5 Q93 123 74.5 190.5 Q56 258 56 350 Q56 442 74.5 510 Q93 578 127 622.5 Q161 667 209.5 688.5 Q258 710 317 710 Q376 710 424.5 688.5 Q473 667 507.5 622.5 Q542 578 560.5 510 Q579 442 579 350 Z M477 350 Q477 496 439 565.5 Q401 635 317 635 Q233 635 195 565.5 Q157 496 157 350 Q157 205 195 135 Q233 65 317 65 Q401 65 439 135 Q477 205 477 350 Z " />
<glyph glyph-name="one" unicode="1" horiz-adv-x="470" d="M159 667 Q177 667 191.5 671.5 Q206 676 217 683 Q228 690 234.5 697.5 Q241 705 243 710 L295 710 L295 65 L440 65 L440 0 L52 0 L52 65 L198 65 L198 601 L52 601 L52 667 L159 667 Z " />
<glyph glyph-name="two" unicode="2" horiz-adv-x="568" d="M63 661 Q66 662 84 670 Q102 678 131.5 687 Q161 696 199.5 703 Q238 710 282 710 Q343 710 385.5 695.5 Q428 681 455 656.5 Q482 632 494 600 Q506 568 506 532 Q506 496 494.5 466 Q483 436 458.5 407.5 Q434 379 396.5 350.5 Q359 322 308 289 Q262 261 232 240.5 Q202 220 184.5 201 Q167 182 160 163.5 Q153 145 153 121 L153 82 L518 82 L518 0 L56 0 L56 117 Q56 149 65.5 176.5 Q75 204 97.5 230.5 Q120 257 157.5 285.5 Q195 314 251 349 Q294 376 323.5 398.5 Q353 421 371.5 441.5 Q390 462 398 483 Q406 504 406 529 Q406 573 374.5 603 Q343 633 269 633 Q210 633 160.5 620.5 Q111 608 63 586 L63 661 Z " />
<glyph glyph-name="three" unicode="3" horiz-adv-x="550" d="M61 672 Q86 682 116 691 Q142 698 176 704 Q210 710 249 710 Q313 710 357.5 695 Q402 680 430 655.5 Q458 631 470 598.5 Q482 566 482 532 Q482 492 472.5 463 Q463 434 446 413 Q429 392 405.5 379.5 Q382 367 354 360 L354 357 Q418 343 455.5 302 Q493 261 493 186 Q493 149 480 114 Q467 79 438 51.5 Q409 24 362 7 Q315 -10 247 -10 Q165 -10 115.5 2 Q66 14 51 20 L51 96 Q93 80 138 72 Q183 64 237 64 Q279 64 309 74.5 Q339 85 357.5 103 Q376 121 385 144.5 Q394 168 394 194 Q394 230 381.5 255 Q369 280 348 295.5 Q327 311 298.5 318 Q270 325 237 325 L176 325 L176 396 L241 396 Q269 396 295 401.5 Q321 407 341 421.5 Q361 436 372.5 460 Q384 484 384 520 Q384 545 376.5 566 Q369 587 351.5 602.5 Q334 618 306.5 627 Q279 636 239 636 Q188 636 145.5 626.5 Q103 617 61 601 L61 672 Z " />
<glyph glyph-name="four" unicode="4" horiz-adv-x="594" d="M31 260 L374 710 L464 710 L464 260 L560 260 L560 184 L464 184 L464 0 L367 0 L367 184 L31 184 L31 260 Z M367 583 L118 260 L367 260 L367 583 Z " />
<glyph glyph-name="five" unicode="5" horiz-adv-x="564" d="M482 619 L158 619 L158 420 L263 420 Q381 420 449.5 370 Q518 320 518 211 Q518 171 504 131.5 Q490 92 459 60.5 Q428 29 380 9.5 Q332 -10 264 -10 Q221 -10 186 -6 Q151 -2 124.5 4 Q98 10 81 16 Q64 22 57 25 L57 104 Q100 87 147 76 Q194 65 256 65 Q300 65 331.5 77 Q363 89 382.5 108.5 Q402 128 411 152.5 Q420 177 420 203 Q420 245 407 271.5 Q394 298 371 313.5 Q348 329 316.5 335 Q285 341 249 341 L78 341 L78 700 L482 700 L482 619 Z " />
<glyph glyph-name="six" unicode="6" horiz-adv-x="583" d="M541 219 Q541 161 522.5 118 Q504 75 472 46.5 Q440 18 397.5 4 Q355 -10 307 -10 Q189 -10 122.5 66.5 Q56 143 56 307 Q56 396 72 470 Q88 544 123.5 597.5 Q159 651 215.5 680.5 Q272 710 354 710 Q402 710 437.5 702 Q473 694 485 687 L485 612 Q455 626 425.5 631.5 Q396 637 364 637 Q307 637 268 618 Q229 599 204 562 Q179 525 166.5 471.5 Q154 418 152 349 Q180 377 226 400.5 Q272 424 332 424 Q374 424 412 411.5 Q450 399 478.5 373.5 Q507 348 524 309.5 Q541 271 541 219 Z M309 62 Q372 62 410.5 99 Q449 136 449 214 Q449 283 411 318 Q373 353 312 353 Q286 353 262.5 345 Q239 337 218.5 324.5 Q198 312 181 297 Q164 282 152 269 Q158 161 197.5 111.5 Q237 62 309 62 Z " />
<glyph glyph-name="seven" unicode="7" horiz-adv-x="504" d="M129 0 L377 618 L27 618 L27 700 L483 700 L483 649 L231 0 L129 0 Z " />
<glyph glyph-name="eight" unicode="8" horiz-adv-x="598" d="M296 -10 Q228 -10 182 5 Q136 20 107 45 Q78 70 65.5 101 Q53 132 53 165 Q53 211 68 244 Q83 277 105.5 299.5 Q128 322 153.5 336 Q179 350 200 358 Q174 371 151 386.5 Q128 402 111.5 422.5 Q95 443 85.5 468 Q76 493 76 524 Q76 566 92.5 600.5 Q109 635 139 659.5 Q169 684 211.5 697 Q254 710 307 710 Q368 710 409.5 695 Q451 680 476 656 Q501 632 511.5 603 Q522 574 522 547 Q522 516 512.5 490.5 Q503 465 486.5 444 Q470 423 448.5 407 Q427 391 402 379 Q434 367 460.5 351 Q487 335 505.5 313 Q524 291 534.5 262 Q545 233 545 194 Q545 144 527 106 Q509 68 476 42 Q443 16 397 3 Q351 -10 296 -10 Z M159 539 Q159 514 169 495 Q179 476 200 460.5 Q221 445 252.5 431.5 Q284 418 326 405 Q348 414 369 427 Q390 440 406 456.5 Q422 473 432 492.5 Q442 512 442 535 Q442 578 408 610 Q374 642 301 642 Q235 642 197 614 Q159 586 159 539 Z M297 59 Q371 59 411.5 91.5 Q452 124 452 179 Q452 211 439 234.5 Q426 258 403 275 Q380 292 347.5 305 Q315 318 275 330 Q263 326 239.5 315 Q216 304 193 285.5 Q170 267 153 240.5 Q136 214 136 178 Q136 155 144.5 133.5 Q153 112 171.5 95.5 Q190 79 221 69 Q252 59 297 59 Z " />
<glyph glyph-name="nine" unicode="9" horiz-adv-x="583" d="M271 347 Q296 347 320 355 Q344 363 364.5 375.5 Q385 388 402 403 Q419 418 431 431 Q425 539 385.5 588 Q346 637 273 637 Q210 637 172 600 Q134 563 134 486 Q134 417 172 382 Q210 347 271 347 Z M229 -10 Q181 -10 145.5 -2 Q110 6 98 13 L98 88 Q128 74 157.5 68.5 Q187 63 219 63 Q276 63 315 82 Q354 101 379 138 Q404 175 416.5 228 Q429 281 431 350 Q403 322 356.5 299 Q310 276 250 276 Q208 276 170.5 288.5 Q133 301 104.5 326.5 Q76 352 59 390.5 Q42 429 42 481 Q42 538 60.5 581 Q79 624 111 652.5 Q143 681 185.5 695.5 Q228 710 276 710 Q394 710 460.5 633 Q527 556 527 393 Q527 304 511 230 Q495 156 459.5 102.5 Q424 49 367.5 19.5 Q311 -10 229 -10 Z " />
<glyph glyph-name="colon" unicode="&#x3a;" horiz-adv-x="251" d="M67 46 Q67 67 84.5 84 Q102 101 125 101 Q149 101 166.5 84 Q184 67 184 46 Q184 23 166.5 6.5 Q149 -10 125 -10 Q102 -10 84.5 6.5 Q67 23 67 46 Z M67 481 Q67 503 84.5 519.5 Q102 536 125 536 Q149 536 166.5 519.5 Q184 503 184 481 Q184 458 166.5 442 Q149 426 125 426 Q102 426 84.5 442 Q67 458 67 481 Z " />
<glyph glyph-name="semicolon" unicode="&#x3b;" horiz-adv-x="260" d="M74 481 Q74 503 91 519.5 Q108 536 132 536 Q156 536 173 519.5 Q190 503 190 481 Q190 458 173 442 Q156 426 132 426 Q108 426 91 442 Q74 458 74 481 Z M74 46 Q74 71 88.5 86 Q103 101 131 101 Q159 101 174 86 Q189 71 189 46 Q189 34 185 23.5 Q181 13 176 4 L110 -118 L67 -95 L107 -20 L102 -5 Q74 10 74 46 Z " />
<glyph glyph-name="less" unicode="&#x3c;" horiz-adv-x="528" d="M45 311 L45 356 L459 531 L459 466 L137 334 L459 199 L459 135 L45 311 Z " />
<glyph glyph-name="equal" unicode="&#x3d;" horiz-adv-x="542" d="M70 441 L473 441 L473 382 L70 382 L70 441 Z M70 283 L473 283 L473 224 L70 224 L70 283 Z " />
<glyph glyph-name="greater" unicode="&#x3e;" horiz-adv-x="528" d="M69 135 L69 199 L390 334 L69 466 L69 531 L483 356 L483 311 L69 135 Z " />
<glyph glyph-name="question" unicode="&#x3f;" horiz-adv-x="477" d="M135 48 Q135 73 152 90 Q169 107 197 107 Q225 107 241.5 90 Q258 73 258 48 Q258 24 241.5 7 Q225 -10 197 -10 Q169 -10 152 7 Q135 24 135 48 Z M36 657 Q48 664 67.5 673 Q87 682 111 690.5 Q135 699 163.5 704.5 Q192 710 224 710 Q284 710 325.5 695.5 Q367 681 393 657 Q419 633 431 602 Q443 571 443 539 Q443 477 414.5 436 Q386 395 319 363 Q272 340 255.5 322.5 Q239 305 238 281 L233 189 L160 189 L155 281 Q153 305 159.5 323.5 Q166 342 179.5 357 Q193 372 213 384.5 Q233 397 259 411 Q286 425 302.5 438.5 Q319 452 328.5 466 Q338 480 341 495.5 Q344 511 344 529 Q344 549 337 567.5 Q330 586 315 600 Q300 614 275 622.5 Q250 631 214 631 Q167 631 124.5 618.5 Q82 606 36 583 L36 657 Z " />
<glyph glyph-name="at" unicode="&#x40;" horiz-adv-x="862" d="M237 248 Q237 308 253 359 Q269 410 296.5 447.5 Q324 485 362 506.5 Q400 528 444 528 Q476 528 499 516.5 Q522 505 535 487 L538 487 L541 499 Q543 508 548.5 514.5 Q554 521 569 521 L618 521 L560 254 Q556 238 556 220 Q556 191 572.5 170 Q589 149 631 149 Q654 149 678.5 162 Q703 175 723 202.5 Q743 230 755.5 274 Q768 318 768 380 Q768 436 750 487.5 Q732 539 697 578 Q662 617 609 640.5 Q556 664 486 664 Q401 664 331.5 634 Q262 604 212.5 550.5 Q163 497 135.5 423.5 Q108 350 108 263 Q108 192 127 141 Q146 90 176 55 Q206 20 243.5 -0.5 Q281 -21 317.5 -32 Q354 -43 386.5 -46 Q419 -49 440 -49 Q503 -49 552.5 -39.5 Q602 -30 642 -15 L648 -51 Q607 -70 553.5 -82.5 Q500 -95 435 -95 Q410 -95 372.5 -91 Q335 -87 292 -74.5 Q249 -62 206 -38.5 Q163 -15 128.5 25 Q94 65 72.5 123 Q51 181 51 263 Q51 359 82.5 441 Q114 523 171 583 Q228 643 308 676.5 Q388 710 486 710 Q570 710 633.5 683 Q697 656 739.5 610 Q782 564 803 504.5 Q824 445 824 380 Q824 302 803 248.5 Q782 195 749.5 162 Q717 129 678.5 114.5 Q640 100 605 100 Q556 100 522 120.5 Q488 141 479 179 Q460 149 426.5 126 Q393 103 353 103 Q299 103 268 141 Q237 179 237 248 Z M377 164 Q392 164 406.5 171 Q421 178 434.5 189.5 Q448 201 460 215 Q472 229 482 244 L523 432 Q509 449 489.5 459 Q470 469 450 469 Q423 469 399 453 Q375 437 357 409 Q339 381 328.5 342.5 Q318 304 318 258 Q318 214 333 189 Q348 164 377 164 Z " />
<glyph glyph-name="A" unicode="A" horiz-adv-x="613" d="M434 174 L171 174 L114 0 L20 0 L258 702 L355 702 L593 0 L492 0 L434 174 Z M195 247 L410 247 L303 572 L195 247 Z " />
<glyph glyph-name="B" unicode="B" horiz-adv-x="623" d="M85 700 L305 700 Q417 700 481 658 Q545 616 545 527 Q545 464 515.5 426 Q486 388 429 370 L429 368 Q499 351 538 307.5 Q577 264 577 189 Q577 92 512.5 46 Q448 0 333 0 L85 0 L85 700 Z M180 628 L180 399 L298 399 Q373 399 411 427 Q449 455 449 516 Q449 628 298 628 L180 628 Z M180 327 L180 72 L329 72 Q404 72 441 102.5 Q478 133 478 198 Q478 264 441 295.5 Q404 327 329 327 L180 327 Z " />
<glyph glyph-name="C" unicode="C" horiz-adv-x="549" d="M511 20 Q482 7 442 -1.5 Q402 -10 345 -10 Q277 -10 222.5 11.5 Q168 33 130 77.5 Q92 122 71.5 189 Q51 256 51 347 Q51 438 73.5 506.5 Q96 575 137 620 Q178 665 234.5 687.5 Q291 710 360 710 Q414 710 452 702.5 Q490 695 504 688 L504 608 Q474 619 444 625 Q414 631 372 631 Q258 631 205.5 562.5 Q153 494 153 353 Q153 211 202 140 Q251 69 362 69 Q406 69 440 77 Q474 85 511 99 L511 20 Z " />
<glyph glyph-name="D" unicode="D" horiz-adv-x="666" d="M85 700 L304 700 Q376 700 433.5 679.5 Q491 659 531.5 616.5 Q572 574 593.5 509 Q615 444 615 355 Q615 264 593.5 197.5 Q572 131 531.5 87 Q491 43 433.5 21.5 Q376 0 304 0 L85 0 L85 700 Z M181 75 L304 75 Q413 75 463 143.5 Q513 212 513 355 Q513 494 463 559.5 Q413 625 304 625 L181 625 L181 75 Z " />
<glyph glyph-name="E" unicode="E" horiz-adv-x="567" d="M181 625 L181 395 L471 395 L471 320 L181 320 L181 75 L521 75 L521 0 L85 0 L85 700 L514 700 L514 625 L181 625 Z " />
<glyph glyph-name="F" unicode="F" horiz-adv-x="561" d="M181 625 L181 376 L485 376 L485 300 L181 300 L181 0 L85 0 L85 700 L528 700 L528 625 L181 625 Z " />
<glyph glyph-name="G" unicode="G" horiz-adv-x="602" d="M542 27 Q510 13 463 1.5 Q416 -10 352 -10 Q282 -10 226 11.5 Q170 33 131 77 Q92 121 71.5 188 Q51 255 51 346 Q51 437 73 505 Q95 573 136 618.5 Q177 664 234 687 Q291 710 362 710 Q420 710 465 701.5 Q510 693 525 685 L525 606 Q492 617 454 625 Q416 633 371 633 Q257 633 205 561.5 Q153 490 153 354 Q153 209 204.5 137 Q256 65 369 65 Q420 65 455 81 L455 343 L542 343 L542 27 Z " />
<glyph glyph-name="H" unicode="H" horiz-adv-x="662" d="M480 320 L181 320 L181 0 L85 0 L85 700 L181 700 L181 396 L480 396 L480 700 L577 700 L577 0 L480 0 L480 320 Z " />
<glyph glyph-name="I" unicode="I" horiz-adv-x="266" d="M85 700 L181 700 L181 0 L85 0 L85 700 Z " />
<glyph glyph-name="J" unicode="J" horiz-adv-x="429" d="M252 700 L349 700 L349 209 Q349 100 300.5 45 Q252 -10 150 -10 Q105 -10 73.5 -2 Q42 6 23 17 L23 94 Q74 68 137 68 Q197 68 224.5 98.5 Q252 129 252 205 L252 700 Z " />
<glyph glyph-name="K" unicode="K" horiz-adv-x="611" d="M282 320 L181 320 L181 0 L85 0 L85 700 L181 700 L181 396 L281 396 L485 700 L587 700 L362 365 L599 0 L485 0 L282 320 Z " />
<glyph glyph-name="L" unicode="L" horiz-adv-x="534" d="M181 75 L515 75 L515 0 L85 0 L85 700 L181 700 L181 75 Z " />
<glyph glyph-name="M" unicode="M" horiz-adv-x="755" d="M172 533 L172 0 L85 0 L85 700 L188 700 L381 341 L576 700 L670 700 L670 0 L580 0 L580 541 L406 229 L345 229 L172 533 Z " />
<glyph glyph-name="N" unicode="N" horiz-adv-x="661" d="M505 -2 L169 533 L169 0 L84 0 L84 700 L168 700 L491 185 L491 700 L576 700 L576 -2 L505 -2 Z " />
<glyph glyph-name="O" unicode="O" horiz-adv-x="674" d="M52 350 Q52 442 73 510 Q94 578 131.5 622.5 Q169 667 221.5 688.5 Q274 710 337 710 Q400 710 452.5 688.5 Q505 667 542.5 622.5 Q580 578 601 510 Q622 442 622 349 Q622 257 601 189 Q580 121 542.5 77 Q505 33 452.5 11.5 Q400 -10 337 -10 Q274 -10 221.5 11.5 Q169 33 131.5 77.5 Q94 122 73 190 Q52 258 52 350 Z M154 350 Q154 204 199.5 136 Q245 68 337 68 Q428 68 474 136 Q520 204 520 349 Q520 496 474.5 564.5 Q429 633 337 633 Q245 633 199.5 564.5 Q154 496 154 350 Z " />
<glyph glyph-name="P" unicode="P" horiz-adv-x="610" d="M85 700 L321 700 Q440 700 507 648 Q574 596 574 484 Q574 369 506.5 314.5 Q439 260 318 260 L181 260 L181 0 L85 0 L85 700 Z M181 628 L181 332 L318 332 Q400 332 437 368 Q474 404 474 480 Q474 556 437.5 592 Q401 628 321 628 L181 628 Z " />
<glyph glyph-name="Q" unicode="Q" horiz-adv-x="674" d="M52 349 Q52 441 73 509 Q94 577 131.5 621.5 Q169 666 221.5 687.5 Q274 709 337 709 Q400 709 452.5 687.5 Q505 666 542.5 621.5 Q580 577 601 509 Q622 441 622 348 Q622 206 574.5 122.5 Q527 39 446 8 L517 -63 L546 -75 L619 -75 L619 -142 L514 -142 Q492 -142 473.5 -133 Q455 -124 443 -112 L343 -11 L337 -11 Q274 -11 221.5 10.5 Q169 32 131.5 76.5 Q94 121 73 189 Q52 257 52 349 Z M154 349 Q154 203 199.5 135 Q245 67 337 67 Q428 67 474 135 Q520 203 520 348 Q520 495 474.5 563.5 Q429 632 337 632 Q245 632 199.5 563.5 Q154 495 154 349 Z " />
<glyph glyph-name="R" unicode="R" horiz-adv-x="621" d="M85 700 L313 700 Q371 700 417.5 689 Q464 678 496 654 Q528 630 545.5 593.5 Q563 557 563 506 Q563 464 550.5 432.5 Q538 401 517 379.5 Q496 358 467.5 345.5 Q439 333 407 330 L407 328 Q429 324 444.5 312.5 Q460 301 472 283 Q484 265 493 241 Q502 217 513 189 L581 0 L474 0 L398 221 Q382 267 359.5 280.5 Q337 294 306 294 L181 294 L181 0 L85 0 L85 700 Z M181 628 L181 366 L308 366 Q386 366 424.5 399 Q463 432 463 501 Q463 628 311 628 L181 628 Z " />
<glyph glyph-name="S" unicode="S" horiz-adv-x="539" d="M497 198 Q497 147 478.5 108 Q460 69 426.5 43 Q393 17 346.5 3.5 Q300 -10 245 -10 Q206 -10 173.5 -6 Q141 -2 116 3.5 Q91 9 74.5 14 Q58 19 51 22 L51 100 Q87 89 136 78 Q185 67 245 67 Q321 67 362 98 Q403 129 403 188 Q403 215 395 234 Q387 253 369 267 Q351 281 322.5 292.5 Q294 304 253 316 Q200 332 162.5 350.5 Q125 369 101 393.5 Q77 418 66 449.5 Q55 481 55 523 Q55 567 71.5 601.5 Q88 636 119 660 Q150 684 193.5 697 Q237 710 290 710 Q324 710 354 706.5 Q384 703 407.5 698 Q431 693 446 688.5 Q461 684 467 682 L467 604 Q435 615 390.5 624.5 Q346 634 295 634 Q223 634 184 606 Q145 578 145 530 Q145 508 151 490.5 Q157 473 173.5 457.5 Q190 442 218 428.5 Q246 415 291 402 Q342 387 380.5 369 Q419 351 445 327.5 Q471 304 484 272.5 Q497 241 497 198 Z " />
<glyph glyph-name="T" unicode="T" horiz-adv-x="564" d="M21 700 L542 700 L542 625 L330 625 L330 0 L234 0 L234 625 L21 625 L21 700 Z " />
<glyph glyph-name="U" unicode="U" horiz-adv-x="645" d="M476 700 L566 700 L566 238 Q566 111 500 50.5 Q434 -10 319 -10 Q207 -10 143 50 Q79 110 79 238 L79 700 L177 700 L177 237 Q177 151 213 109.5 Q249 68 325 68 Q406 68 441 109.5 Q476 151 476 237 L476 700 Z " />
<glyph glyph-name="V" unicode="V" horiz-adv-x="593" d="M249 -2 L22 700 L125 700 L302 131 L477 700 L570 700 L345 -2 L249 -2 Z " />
<glyph glyph-name="W" unicode="W" horiz-adv-x="915" d="M457 534 L316 -2 L219 -2 L27 700 L128 700 L271 131 L413 700 L510 700 L654 130 L797 700 L887 700 L697 -2 L601 -2 L457 534 Z " />
<glyph glyph-name="X" unicode="X" horiz-adv-x="600" d="M295 286 L113 0 L10 0 L246 356 L28 700 L137 700 L305 428 L479 700 L580 700 L355 359 L584 0 L473 0 L295 286 Z " />
<glyph glyph-name="Y" unicode="Y" horiz-adv-x="592" d="M251 0 L251 281 L18 700 L127 700 L301 377 L470 700 L565 700 L347 291 L347 0 L251 0 Z " />
<glyph glyph-name="Z" unicode="Z" horiz-adv-x="566" d="M35 0 L35 52 L397 625 L50 625 L50 700 L516 700 L516 648 L157 76 L531 76 L531 0 L35 0 Z " />
<glyph glyph-name="bracketleft" unicode="&#x5b;" horiz-adv-x="304" d="M71 -102 L71 786 L274 786 L274 722 L156 722 L156 -38 L274 -38 L274 -102 L71 -102 Z " />
<glyph glyph-name="backslash" unicode="&#x5c;" horiz-adv-x="438" d="M22 787 L88 787 L416 -102 L350 -102 L22 787 Z " />
<glyph glyph-name="bracketright" unicode="&#x5d;" horiz-adv-x="304" d="M233.004 -102 L233.004 786 L30.0167 786 L30.0167 722 L148.01 722 L148.01 -38 L30.0167 -38 L30.0167 -102 L233.004 -102 Z " />
<glyph glyph-name="asciicircum" unicode="&#x5e;" horiz-adv-x="436" d="M324 383 L216 632 L112 383 L49 383 L186 700 L247 700 L387 383 L324 383 Z " />
<glyph glyph-name="underscore" unicode="&#x5f;" horiz-adv-x="492" d="M0 -80 L492 -80 L492 -130 L0 -130 L0 -80 Z " />
<glyph glyph-name="grave" unicode="&#x60;" horiz-adv-x="359" d="M242 582 L228 582 L92 697 L134 747 L153 747 L267 609 L242 582 Z " />
<glyph glyph-name="a" unicode="a" horiz-adv-x="503" d="M215 66 Q238 66 258.5 74.5 Q279 83 296 94 Q313 105 325.5 117 Q338 129 344 137 L344 231 L226 231 Q183 231 155.5 212.5 Q128 194 128 151 Q128 66 215 66 Z M345 61 Q336 52 321.5 40 Q307 28 287.5 17 Q268 6 243.5 -2 Q219 -10 190 -10 Q152 -10 123 2 Q94 14 75 35 Q56 56 46.5 84.5 Q37 113 37 146 Q37 184 49.5 212.5 Q62 241 84.5 260.5 Q107 280 137.5 289.5 Q168 299 204 299 L344 299 L344 348 Q344 371 340 391 Q336 411 323.5 426 Q311 441 288 450 Q265 459 227 459 Q177 459 136.5 448 Q96 437 73 428 L73 503 Q104 514 150.5 525 Q197 536 254 536 Q306 536 340.5 522 Q375 508 396 484 Q417 460 425.5 428 Q434 396 434 360 L434 0 L379 0 Q360 0 355 9 Q350 18 350 29 L350 61 L345 61 Z " />
<glyph glyph-name="b" unicode="b" horiz-adv-x="552" d="M294 -10 Q253 -10 219 4.5 Q185 19 163 39 L159 39 L159 29 Q159 18 153.5 9 Q148 0 130 0 L73 0 L73 730 L164 730 L164 463 Q188 491 226.5 513.5 Q265 536 318 536 Q357 536 391.5 520 Q426 504 451.5 471 Q477 438 491.5 388 Q506 338 506 269 Q506 200 489 148 Q472 96 443.5 60.5 Q415 25 376 7.5 Q337 -10 294 -10 Z M281 67 Q308 67 332 78.5 Q356 90 373.5 114.5 Q391 139 401 177 Q411 215 411 268 Q411 321 402 357 Q393 393 377 415 Q361 437 339 446.5 Q317 456 291 456 Q253 456 220.5 433.5 Q188 411 164 382 L164 127 Q185 102 216.5 84.5 Q248 67 281 67 Z " />
<glyph glyph-name="c" unicode="c" horiz-adv-x="451" d="M409 19 Q382 4 346.5 -3 Q311 -10 273 -10 Q226 -10 185 6 Q144 22 112.5 54.5 Q81 87 63 136.5 Q45 186 45 254 Q45 326 64 379 Q83 432 116 467 Q149 502 193 519 Q237 536 287 536 Q322 536 352.5 531 Q383 526 407 517 L407 441 Q380 449 355.5 454 Q331 459 299 459 Q224 459 182 409.5 Q140 360 140 258 Q140 159 183.5 113 Q227 67 298 67 Q329 67 357.5 73 Q386 79 409 90 L409 19 Z " />
<glyph glyph-name="d" unicode="d" horiz-adv-x="552" d="M261 70 Q299 70 331.5 92 Q364 114 388 142 L388 398 Q367 424 335.5 441.5 Q304 459 271 459 Q216 459 178.5 410.5 Q141 362 141 256 Q141 203 150 167.5 Q159 132 175 110.5 Q191 89 213 79.5 Q235 70 261 70 Z M387 60 Q363 34 324.5 12 Q286 -10 234 -10 Q195 -10 160.5 6 Q126 22 100.5 54.5 Q75 87 60.5 137 Q46 187 46 255 Q46 324 63 377 Q80 430 108.5 465 Q137 500 175.5 518 Q214 536 258 536 Q298 536 331.5 521.5 Q365 507 388 487 L388 730 L479 730 L479 0 L422 0 Q404 0 398 9 Q392 18 392 29 L392 60 L387 60 Z " />
<glyph glyph-name="e" unicode="e" horiz-adv-x="507" d="M265 467 Q210 467 177.5 426.5 Q145 386 139 299 L376 299 L376 331 Q376 400 345 433.5 Q314 467 265 467 Z M440 25 Q414 10 375 0 Q336 -10 281 -10 Q233 -10 190.5 5.5 Q148 21 115.5 53.5 Q83 86 64 136.5 Q45 187 45 258 Q45 327 62 379.5 Q79 432 108.5 466.5 Q138 501 178.5 518.5 Q219 536 266 536 Q309 536 345.5 521.5 Q382 507 408.5 479 Q435 451 449.5 410 Q464 369 464 317 L464 244 L450 231 L139 231 Q142 184 156 151.5 Q170 119 192 99.5 Q214 80 243.5 71.5 Q273 63 309 63 Q348 63 383.5 71 Q419 79 440 88 L440 25 Z " />
<glyph glyph-name="f" unicode="f" horiz-adv-x="343" d="M195 455 L195 0 L104 0 L104 455 L23 455 L23 524 L104 524 L104 562 Q104 604 113 637 Q122 670 142 693 Q162 716 193.5 728 Q225 740 271 740 Q293 740 315 737.5 Q337 735 351 732 L351 667 Q345 668 334.5 669 Q324 670 313 670.5 Q302 671 292 671.5 Q282 672 278 672 Q231 672 213 648.5 Q195 625 195 567 L195 524 L327 524 L327 455 L195 455 Z " />
<glyph glyph-name="g" unicode="g" horiz-adv-x="548" d="M373 367 Q373 421 341 447 Q309 473 261 473 Q213 473 181.5 447 Q150 421 150 367 Q150 313 181.5 286 Q213 259 261 259 Q309 259 341 286 Q373 313 373 367 Z M516 -3 Q516 -49 494.5 -82.5 Q473 -116 436 -137.5 Q399 -159 349.5 -169.5 Q300 -180 244 -180 Q145 -180 88.5 -154.5 Q32 -129 32 -68 Q32 -45 39.5 -26.5 Q47 -8 58 6 Q69 20 83 30 Q97 40 111 47 Q57 69 57 127 Q57 156 75.5 183.5 Q94 211 130 231 Q98 251 79 285 Q60 319 60 367 Q60 410 76 442 Q92 474 119.5 495 Q147 516 183.5 526 Q220 536 261 536 Q304 536 337 526 L513 526 L513 455 L445 455 L441 451 Q462 416 462 367 Q462 324 446 292 Q430 260 402 239 Q374 218 337.5 207.5 Q301 197 261 197 Q218 197 184 207 Q164 196 152 182.5 Q140 169 140 155 Q140 138 155.5 128 Q171 118 206 118 L351 118 Q429 118 472.5 89 Q516 60 516 -3 Z M256 -115 Q290 -115 321 -109.5 Q352 -104 375 -92.5 Q398 -81 412 -64 Q426 -47 426 -23 Q426 7 404 21 Q382 35 331 35 L181 35 Q171 30 160 22.5 Q149 15 139.5 4.5 Q130 -6 123.5 -19.5 Q117 -33 117 -49 Q117 -115 256 -115 Z " />
<glyph glyph-name="h" unicode="h" horiz-adv-x="558" d="M306 456 Q283 456 260.5 447.5 Q238 439 219.5 427.5 Q201 416 186.5 403.5 Q172 391 164 382 L164 0 L73 0 L73 730 L164 730 L164 465 Q173 474 188.5 486 Q204 498 224.5 509 Q245 520 270 528 Q295 536 324 536 Q370 536 401.5 523 Q433 510 452.5 488.5 Q472 467 480.5 438 Q489 409 489 376 L489 0 L398 0 L398 351 Q398 371 394.5 390 Q391 409 381.5 423.5 Q372 438 354 447 Q336 456 306 456 Z " />
<glyph glyph-name="i" unicode="i" horiz-adv-x="237" d="M164 526 L164 0 L73 0 L73 526 L164 526 Z M62 677 Q62 701 76.5 715.5 Q91 730 118 730 Q146 730 160.5 715.5 Q175 701 175 677 Q175 653 160.5 638 Q146 623 118 623 Q91 623 76.5 638 Q62 653 62 677 Z " />
<glyph glyph-name="j" unicode="j" horiz-adv-x="237" d="M-63 -105 Q-56 -107 -47 -107.5 Q-38 -108 -29.5 -108.5 Q-21 -109 -14 -109 Q-7 -109 -4 -109 Q38 -109 55.5 -85 Q73 -61 73 -4 L73 526 L164 526 L164 0 Q164 -41 155.5 -74 Q147 -107 127.5 -130.5 Q108 -154 77 -167 Q46 -180 1 -180 Q-17 -180 -34 -178 Q-51 -176 -63 -174 L-63 -105 Z M62 677 Q62 701 76.5 715.5 Q91 730 118 730 Q146 730 160.5 715.5 Q175 701 175 677 Q175 653 160.5 638 Q146 623 118 623 Q91 623 76.5 638 Q62 653 62 677 Z " />
<glyph glyph-name="k" unicode="k" horiz-adv-x="532" d="M244 252 L164 252 L164 0 L73 0 L73 730 L164 730 L164 322 L238 322 L410 526 L515 526 L319 296 L514 0 L407 0 L244 252 Z " />
<glyph glyph-name="l" unicode="l" horiz-adv-x="242" d="M167 730 L167 0 L76 0 L76 730 L167 730 Z " />
<glyph glyph-name="m" unicode="m" horiz-adv-x="864" d="M301 456 Q278 456 256.5 447.5 Q235 439 217 427.5 Q199 416 185 403.5 Q171 391 164 382 L164 0 L73 0 L73 526 L130 526 Q148 526 153.5 517 Q159 508 159 497 L159 465 L163 465 Q172 473 187 485 Q202 497 222 508.5 Q242 520 266.5 528 Q291 536 320 536 Q380 536 414.5 514 Q449 492 465 456 Q471 463 486 476 Q501 489 522.5 502.5 Q544 516 572.5 526 Q601 536 635 536 Q680 536 710.5 523 Q741 510 760 488.5 Q779 467 787 438 Q795 409 795 376 L795 0 L704 0 L704 351 Q704 371 701 390 Q698 409 688.5 423.5 Q679 438 661.5 447 Q644 456 616 456 Q594 456 573.5 448.5 Q553 441 535 430.5 Q517 420 503 408 Q489 396 480 387 L480 376 L480 0 L389 0 L389 351 Q389 371 386 390 Q383 409 373.5 423.5 Q364 438 346.5 447 Q329 456 301 456 Z " />
<glyph glyph-name="n" unicode="n" horiz-adv-x="558" d="M306 456 Q283 456 260.5 447.5 Q238 439 219.5 427.5 Q201 416 186.5 403.5 Q172 391 164 382 L164 0 L73 0 L73 526 L130 526 Q148 526 153.5 517 Q159 508 159 497 L159 465 L163 465 Q172 473 187.5 485 Q203 497 223.5 508.5 Q244 520 269.5 528 Q295 536 324 536 Q370 536 401.5 523 Q433 510 452.5 488.5 Q472 467 480.5 438 Q489 409 489 376 L489 0 L398 0 L398 351 Q398 371 394.5 390 Q391 409 381.5 423.5 Q372 438 354 447 Q336 456 306 456 Z " />
<glyph glyph-name="o" unicode="o" horiz-adv-x="547" d="M502 263 Q502 194 484 143 Q466 92 435 58 Q404 24 362.5 7 Q321 -10 273 -10 Q226 -10 184.5 7 Q143 24 112 58 Q81 92 63 143 Q45 194 45 263 Q45 332 63 383.5 Q81 435 112 468.5 Q143 502 184.5 519 Q226 536 273 536 Q321 536 362.5 519 Q404 502 435 468.5 Q466 435 484 383.5 Q502 332 502 263 Z M407 263 Q407 363 372 412 Q337 461 273 461 Q210 461 175 412 Q140 363 140 263 Q140 163 175 113.5 Q210 64 273 64 Q337 64 372 113.5 Q407 163 407 263 Z " />
<glyph glyph-name="p" unicode="p" horiz-adv-x="552" d="M281 67 Q308 67 332 78.5 Q356 90 373.5 114.5 Q391 139 401 177 Q411 215 411 268 Q411 321 402 357 Q393 393 377 415 Q361 437 339 446.5 Q317 456 291 456 Q253 456 220.5 433.5 Q188 411 164 382 L164 127 Q185 102 216.5 84.5 Q248 67 281 67 Z M294 -10 Q254 -10 220.5 4 Q187 18 164 38 L164 -170 L73 -170 L73 526 L130 526 Q148 526 153.5 517 Q159 508 159 497 L159 463 L164 463 Q187 491 225.5 513.5 Q264 536 318 536 Q357 536 391.5 520 Q426 504 451.5 471 Q477 438 491.5 388 Q506 338 506 269 Q506 200 489 148 Q472 96 443.5 60.5 Q415 25 376 7.5 Q337 -10 294 -10 Z " />
<glyph glyph-name="q" unicode="q" horiz-adv-x="551" d="M387 -170 L387 61 Q363 34 325 12 Q287 -10 233 -10 Q194 -10 160 6 Q126 22 100.5 54.5 Q75 87 60.5 137 Q46 187 46 255 Q46 324 63 377 Q80 430 108.5 465 Q137 500 175.5 518 Q214 536 258 536 Q299 536 333 521 Q367 506 389 486 L393 486 L393 497 Q393 508 398 517 Q403 526 422 526 L478 526 L478 -170 L387 -170 Z M261 70 Q298 70 330.5 91.5 Q363 113 387 142 L387 399 Q366 424 334.5 441.5 Q303 459 271 459 Q216 459 178.5 410.5 Q141 362 141 256 Q141 203 150 167.5 Q159 132 175 110.5 Q191 89 213 79.5 Q235 70 261 70 Z " />
<glyph glyph-name="r" unicode="r" horiz-adv-x="375" d="M300 453 Q277 453 256 446 Q235 439 218 428 Q201 417 187 403.5 Q173 390 164 377 L164 0 L73 0 L73 526 L130 526 Q148 526 153.5 517 Q159 508 159 497 L159 457 L163 457 Q172 467 186 480.5 Q200 494 220 506.5 Q240 519 265 527.5 Q290 536 320 536 Q347 536 359 533 L359 447 L347 447 Q337 449 325.5 451 Q314 453 300 453 Z " />
<glyph glyph-name="s" unicode="s" horiz-adv-x="454" d="M416 153 Q416 113 400.5 82.5 Q385 52 358 31.5 Q331 11 293 0.5 Q255 -10 210 -10 Q173 -10 144.5 -6.5 Q116 -3 95.5 1 Q75 5 62.5 9 Q50 13 46 14 L46 90 Q73 81 110 71.5 Q147 62 198 62 Q258 62 291.5 81.5 Q325 101 325 141 Q325 174 299.5 194.5 Q274 215 207 230 Q160 241 130 257 Q100 273 82.5 293.5 Q65 314 58 338 Q51 362 51 389 Q51 455 102.5 495.5 Q154 536 247 536 Q277 536 303 533 Q329 530 349 526 Q372 522 391 517 L391 442 Q372 447 334 455 Q296 463 256 463 Q199 463 168.5 445.5 Q138 428 138 396 Q138 381 142.5 369 Q147 357 158.5 347 Q170 337 190 328.5 Q210 320 242 312 Q333 288 374.5 253 Q416 218 416 153 Z " />
<glyph glyph-name="t" unicode="t" horiz-adv-x="351" d="M188 -10 Q143 -10 120.5 10.5 Q98 31 98 77 L98 455 L21 455 L21 524 L94 524 L132 670 L189 670 L189 524 L314 524 L314 455 L189 455 L189 66 L334 66 L334 0 Q304 -3 276 -5 Q252 -7 227 -8.5 Q202 -10 188 -10 Z " />
<glyph glyph-name="u" unicode="u" horiz-adv-x="547" d="M383 61 Q374 52 359.5 40 Q345 28 324.5 17 Q304 6 279.5 -2 Q255 -10 227 -10 Q183 -10 152.5 3 Q122 16 103.5 37.5 Q85 59 77 88 Q69 117 69 150 L69 526 L160 526 L160 174 Q160 154 163 135.5 Q166 117 175 102.5 Q184 88 201 79 Q218 70 246 70 Q268 70 289.5 78 Q311 86 329.5 97.5 Q348 109 361.5 121 Q375 133 383 142 L383 526 L474 526 L474 0 L417 0 Q398 0 392.5 8.5 Q387 17 387 29 L387 61 L383 61 Z " />
<glyph glyph-name="v" unicode="v" horiz-adv-x="510" d="M23 526 L123 526 L259 121 L399 526 L487 526 L297 -1 L213 -1 L23 526 Z " />
<glyph glyph-name="w" unicode="w" horiz-adv-x="777" d="M27 526 L121 526 L239 118 L355 526 L433 526 L550 115 L668 526 L750 526 L587 -1 L502 -1 L389 373 L276 -1 L192 -1 L27 526 Z " />
<glyph glyph-name="x" unicode="x" horiz-adv-x="512" d="M253 203 L113 0 L14 0 L207 267 L26 526 L132 526 L261 336 L395 526 L495 526 L305 273 L491 0 L385 0 L253 203 Z " />
<glyph glyph-name="y" unicode="y" horiz-adv-x="509" d="M162 -170 L216 -11 L24 526 L123 526 L259 118 L396 526 L485 526 L240 -170 L162 -170 Z " />
<glyph glyph-name="z" unicode="z" horiz-adv-x="497" d="M35 0 L35 43 L329 453 L47 453 L47 526 L449 526 L449 479 L160 72 L460 72 L460 0 L35 0 Z " />
<glyph glyph-name="braceleft" unicode="&#x7b;" horiz-adv-x="349" d="M322 -104 Q292 -107 266 -107 Q185 -107 144.5 -68 Q104 -29 104 59 L104 228 Q104 255 102 271.5 Q100 288 93 298 Q86 308 72 312.5 Q58 317 35 319 L35 378 Q58 380 71.5 384.5 Q85 389 92.5 399 Q100 409 102 426 Q104 443 104 470 L104 624 Q104 712 144.5 751 Q185 790 266 790 Q292 790 322 787 L322 732 Q315 733 302 733 Q289 733 283 733 Q241 733 217 708.5 Q193 684 193 624 L193 483 Q193 447 189.5 423 Q186 399 178.5 384.5 Q171 370 158.5 362 Q146 354 127 350 L127 348 Q146 343 159 335.5 Q172 328 179.5 313.5 Q187 299 190 275.5 Q193 252 193 215 L193 59 Q193 -1 216.5 -25.5 Q240 -50 282 -50 Q288 -50 301.5 -50 Q315 -50 322 -49 L322 -104 L322 -104 Z " />
<glyph glyph-name="bar" unicode="&#x7c;" horiz-adv-x="204" d="M71 -102 L71 787 L134 787 L134 -102 L71 -102 Z " />
<glyph glyph-name="braceright" unicode="&#x7d;" horiz-adv-x="349" d="M27.0197 -104 Q57.0178 -107 83.0162 -107 Q164.011 -107 204.509 -68 Q245.006 -29 245.006 59 L245.006 228 Q245.006 255 247.006 271.5 Q249.006 288 256.006 298 Q263.005 308 277.004 312.5 Q291.004 317 314.002 319 L314.002 378 Q291.004 380 277.504 384.5 Q264.005 389 256.506 399 Q249.006 409 247.006 426 Q245.006 443 245.006 470 L245.006 624 Q245.006 712 204.509 751 Q164.011 790 83.0162 790 Q57.0178 790 27.0197 787 L27.0197 732 Q34.0192 733 47.0184 733 Q60.0176 733 66.0173 733 Q108.015 733 132.013 708.5 Q156.012 684 156.012 624 L156.012 483 Q156.012 447 159.512 423 Q163.011 399 170.511 384.5 Q178.01 370 190.51 362 Q203.009 354 222.008 350 L222.008 348 Q203.009 343 190.01 335.5 Q177.01 328 169.511 313.5 Q162.011 299 159.012 275.5 Q156.012 252 156.012 215 L156.012 59 Q156.012 -1 132.513 -25.5 Q109.015 -50 67.0172 -50 Q61.0176 -50 47.5184 -50 Q34.0192 -50 27.0197 -49 L27.0197 -104 L27.0197 -104 Z " />
<glyph glyph-name="asciitilde" unicode="&#x7e;" horiz-adv-x="630" d="M68 294 Q96 341 132 368 Q168 395 209 395 Q243 395 273.5 383 Q304 371 331.5 356.5 Q359 342 384.5 330 Q410 318 434 318 Q453 318 468 326 L530 390 L548 374 Q556 367 566 359 Q537 312 500.5 285.5 Q464 259 422 259 Q389 259 359.5 271 Q330 283 302.5 298 Q275 313 250 325 Q225 337 201 337 Q183 337 165 328 L103 264 L68 294 L68 294 Z " />
<glyph glyph-name="uni00A0" unicode="&#xa0;" horiz-adv-x="234" d="" />
<glyph glyph-name="exclamdown" unicode="&#xa1;" horiz-adv-x="238" d="M84 341.012 L66 37.0301 L66 -169.957 L171 -169.957 L171 37.0301 L154 341.012 L84 341.012 Z M59 482.003 Q59 459.004 76.5 442.005 Q94 425.006 119 425.006 Q144 425.006 161.5 442.005 Q179 459.004 179 482.003 Q179 506.001 161.5 523 Q144 539.999 119 539.999 Q94 539.999 76.5 523 Q59 506.001 59 482.003 Z " />
<glyph glyph-name="cent" unicode="&#xa2;" horiz-adv-x="482" d="M426 108 Q402 95 372 88.5 Q342 82 308 80 L308 -10 L260 -10 L260 81 Q216 85 178 103 Q140 121 111.5 153 Q83 185 66.5 232.5 Q50 280 50 344 Q50 409 66 458 Q82 507 110.5 541.5 Q139 576 177 596 Q215 616 260 622 L260 710 L308 710 L308 625 Q341 624 371 619.5 Q401 615 424 607 L424 531 Q398 539 372 544 Q346 549 308 549 L308 156 Q337 156 366 160.5 Q395 165 426 178 L426 108 Z M144 348 Q144 266 175 220.5 Q206 175 260 161 L260 542 Q203 528 173.5 480.5 Q144 433 144 348 Z " />
<glyph glyph-name="sterling" unicode="&#xa3;" horiz-adv-x="586" d="M533 0 L49 0 L49 75 L126 75 L126 317 L49 317 L49 373 L126 373 L126 497 Q126 541 139.5 580 Q153 619 181.5 648 Q210 677 254.5 693.5 Q299 710 360 710 Q426 710 470 699.5 Q514 689 529 684 L529 609 Q491 623 450.5 630.5 Q410 638 370 638 Q295 638 258.5 605 Q222 572 222 497 L222 373 L391 373 L391 317 L222 317 L222 75 L533 75 L533 0 Z " />
<glyph glyph-name="currency" unicode="&#xa4;" horiz-adv-x="509" d="M324 214 Q309 205 291.5 199.5 Q274 194 254 194 Q235 194 217 199.5 Q199 205 184 214 L101 131 L56 175 L140 258 Q121 287 121 327 Q121 366 141 397 L57 481 L102 525 L185 441 Q217 462 254 462 Q292 462 324 441 L406 525 L451 481 L368 397 Q377 382 382.5 364.5 Q388 347 388 327 Q388 307 382.5 289.5 Q377 272 368 257 L451 175 L406 131 L324 214 Z M173 327 Q173 310 179.5 294.5 Q186 279 197 267.5 Q208 256 222.5 249.5 Q237 243 254 243 Q288 243 312 267.5 Q336 292 336 327 Q336 345 329.5 360.5 Q323 376 312 387.5 Q301 399 286 405.5 Q271 412 254 412 Q237 412 222.5 405.5 Q208 399 197 387.5 Q186 376 179.5 360.5 Q173 345 173 327 Z " />
<glyph glyph-name="yen" unicode="&#xa5;" horiz-adv-x="611" d="M80 355 L225 355 L33 700 L142 700 L316 377 L485 700 L580 700 L396 355 L532 355 L532 300 L367 300 L362 291 L362 229 L532 229 L532 173 L362 173 L362 0 L266 0 L266 173 L80 173 L80 229 L266 229 L266 281 L255 300 L80 300 L80 355 Z " />
<glyph glyph-name="brokenbar" unicode="&#xa6;" horiz-adv-x="218" d="M75 396 L75 762 L142 762 L142 396 L75 396 Z M75 -110 L75 256 L142 256 L142 -110 L75 -110 Z " />
<glyph glyph-name="section" unicode="&#xa7;" horiz-adv-x="558" d="M294 172 Q316 166 335 160 Q354 154 371 146 Q422 180 422 232 Q422 256 413 272.5 Q404 289 384.5 302 Q365 315 335 325 Q305 335 264 346 Q244 351 227 357 Q210 363 195 369 Q141 341 141 287 Q141 264 148.5 247 Q156 230 174 217.5 Q192 205 221.5 194 Q251 183 294 172 Z M250 -202 Q211 -202 177.5 -199 Q144 -196 119 -191 Q90 -186 65 -179 L65 -102 Q106 -111 152.5 -119 Q199 -127 250 -127 Q326 -127 364 -100.5 Q402 -74 402 -26 Q402 -5 394.5 11 Q387 27 370 40 Q353 53 325 64 Q297 75 256 86 Q206 100 168 116 Q130 132 104.5 154 Q79 176 66 205 Q53 234 53 274 Q53 319 73.5 350.5 Q94 382 130 404 Q98 428 82.5 460.5 Q67 493 67 539 Q67 579 84 611 Q101 643 132 665 Q163 687 206 698.5 Q249 710 301 710 Q338 710 370.5 706.5 Q403 703 427 698 Q455 693 479 687 L479 608 Q441 619 398 627 Q355 635 308 635 Q231 635 193.5 610 Q156 585 156 542 Q156 522 162.5 507 Q169 492 185.5 479.5 Q202 467 230.5 455.5 Q259 444 302 432 Q352 417 390.5 401 Q429 385 455.5 363.5 Q482 342 496 314 Q510 286 510 249 Q510 202 490 168.5 Q470 135 435 111 Q496 66 496 -11 Q496 -58 478 -93.5 Q460 -129 427.5 -153 Q395 -177 350 -189.5 Q305 -202 250 -202 Z " />
<glyph glyph-name="dieresis" unicode="&#xa8;" horiz-adv-x="333" d="M54 662 Q54 680 66.5 693.5 Q79 707 99 707 Q119 707 131 693.5 Q143 680 143 662 Q143 643 131 630.5 Q119 618 99 618 Q79 618 66.5 630.5 Q54 643 54 662 Z M190 662 Q190 680 202.5 693.5 Q215 707 235 707 Q255 707 267.5 693.5 Q280 680 280 662 Q280 643 267.5 630.5 Q255 618 235 618 Q215 618 202.5 630.5 Q190 643 190 662 Z " />
<glyph glyph-name="copyright" unicode="&#xa9;" horiz-adv-x="820" d="M51 349 Q51 423 79 488.5 Q107 554 156 603 Q205 652 270 680.5 Q335 709 410 709 Q484 709 549.5 680.5 Q615 652 664 603 Q713 554 741.5 488.5 Q770 423 770 349 Q770 274 741.5 209 Q713 144 664 95 Q615 46 549.5 18 Q484 -10 410 -10 Q335 -10 270 18 Q205 46 156 95 Q107 144 79 209 Q51 274 51 349 Z M92 349 Q92 282 117 223.5 Q142 165 185 121.5 Q228 78 286 53 Q344 28 410 28 Q476 28 533.5 53 Q591 78 634.5 121.5 Q678 165 703 223.5 Q728 282 728 349 Q728 416 703 474.5 Q678 533 634.5 576.5 Q591 620 533.5 645.5 Q476 671 410 671 Q344 671 286 645.5 Q228 620 185 576.5 Q142 533 117 474.5 Q92 416 92 349 Z M530 138 Q483 116 417 116 Q374 116 337 129.5 Q300 143 273 171.5 Q246 200 231 243 Q216 286 216 346 Q216 405 232 448.5 Q248 492 276 521 Q304 550 342 564.5 Q380 579 425 579 Q458 579 483.5 574.5 Q509 570 529 562 L529 499 Q505 507 484 511 Q463 515 435 515 Q367 515 331 473.5 Q295 432 295 349 Q295 261 332.5 221 Q370 181 438 181 Q464 181 487 186 Q510 191 530 199 L530 138 Z " />
<glyph glyph-name="ordfeminine" unicode="&#xaa;" horiz-adv-x="366" d="M167 426 Q192 426 210.5 440.5 Q229 455 237 464 L237 523 L169 523 Q147 523 129.5 513.5 Q112 504 112 476 Q112 453 123.5 439.5 Q135 426 167 426 Z M237 419 Q226 408 202 393.5 Q178 379 144 379 Q93 379 71 407 Q49 435 49 474 Q49 517 78 542 Q107 567 151 567 L237 567 L237 595 Q237 609 234.5 621.5 Q232 634 224.5 643 Q217 652 203 657.5 Q189 663 167 663 Q136 663 110 656 Q84 649 70 642 L70 689 Q79 694 111 702 Q143 710 190 710 Q221 710 242 702 Q263 694 276 679.5 Q289 665 294 646 Q299 627 299 606 L299 384 L259 384 Q248 384 244 389.5 Q240 395 240 401 L240 419 L237 419 Z " />
<glyph glyph-name="guillemotleft" unicode="&#xab;" horiz-adv-x="507" d="M42.0162 239 L186.007 46 L258.003 46 L114.012 255 L258.003 463 L186.007 463 L42.0162 271 L42.0162 239 Z M242.016 239 L386.007 46 L458.003 46 L314.012 255 L458.003 463 L386.007 463 L242.016 271 L242.016 239 Z " />
<glyph glyph-name="logicalnot" unicode="&#xac;" horiz-adv-x="543" d="M70 329 L473 329 L473 115 L414 115 L414 270 L70 270 L70 329 Z " />
<glyph glyph-name="uni00AD" unicode="&#xad;" horiz-adv-x="533" d="" />
<glyph glyph-name="registered" unicode="&#xae;" horiz-adv-x="680" d="M54 421 Q54 481 76.5 533.5 Q99 586 138 625 Q177 664 229 687 Q281 710 340 710 Q400 710 452 687 Q504 664 543 625 Q582 586 604.5 533.5 Q627 481 627 421 Q627 361 604.5 308.5 Q582 256 543 217 Q504 178 452 155 Q400 132 340 132 Q281 132 229 155 Q177 178 138 217 Q99 256 76.5 308.5 Q54 361 54 421 Z M91 421 Q91 368 110.5 321.5 Q130 275 163.5 240.5 Q197 206 242.5 186 Q288 166 341 166 Q393 166 438 186.5 Q483 207 517 241.5 Q551 276 570.5 322.5 Q590 369 590 421 Q590 474 570.5 520.5 Q551 567 517 602 Q483 637 438 657 Q393 677 341 677 Q288 677 242.5 657 Q197 637 163.5 602 Q130 567 110.5 520.5 Q91 474 91 421 Z M228 579 L345 579 Q401 579 432.5 558 Q464 537 464 492 Q464 455 442 436 Q420 417 394 412 L394 411 Q408 406 416 396.5 Q424 387 432 368 L472 264 L406 264 L375 360 Q368 382 358.5 387 Q349 392 337 392 L286 392 L286 264 L228 264 L228 579 Z M286 537 L286 434 L344 434 Q405 434 405 486 Q405 537 344 537 L286 537 Z " />
<glyph glyph-name="macron" unicode="&#xaf;" horiz-adv-x="392" d="M68 684 L323 684 L323 630 L68 630 L68 684 Z " />
<glyph glyph-name="degree" unicode="&#xb0;" horiz-adv-x="390" d="M44 559 Q44 590 56 617.5 Q68 645 88.5 665.5 Q109 686 136 698 Q163 710 194 710 Q225 710 252.5 698 Q280 686 300.5 665.5 Q321 645 333 617.5 Q345 590 345 559 Q345 528 333 501 Q321 474 300.5 453.5 Q280 433 252.5 421 Q225 409 194 409 Q163 409 136 421 Q109 433 88.5 453.5 Q68 474 56 501 Q44 528 44 559 Z M97 559 Q97 538 104.5 520 Q112 502 125.5 488.5 Q139 475 156.5 467 Q174 459 194 459 Q214 459 232 467 Q250 475 263.5 488.5 Q277 502 285 520 Q293 538 293 559 Q293 580 285 598 Q277 616 263.5 630 Q250 644 232 652 Q214 660 194 660 Q174 660 156.5 652 Q139 644 125.5 630 Q112 616 104.5 598 Q97 580 97 559 Z " />
<glyph glyph-name="plusminus" unicode="&#xb1;" horiz-adv-x="544" d="M71 428 L242 428 L242 586 L301 586 L301 428 L473 428 L473 370 L301 370 L301 211 L242 211 L242 370 L71 370 L71 428 Z M71 145 L473 145 L473 87 L71 87 L71 145 Z " />
<glyph glyph-name="twosuperior" unicode="&#xb2;" horiz-adv-x="298" d="M37 506 L37 562 Q37 581 41 594.5 Q45 608 55 620 Q65 632 82 644 Q99 656 125 672 Q164 696 178 711 Q192 726 192 743 Q192 760 179 769 Q166 778 137 778 Q92 778 40 759 L40 812 Q53 818 70 823 Q84 828 103.5 831.5 Q123 835 146 835 Q177 835 198 827.5 Q219 820 232 807.5 Q245 795 251 778.5 Q257 762 257 745 Q257 710 235 685.5 Q213 661 163 631 Q132 612 119.5 602 Q107 592 107 578 L107 562 L265 562 L265 506 L37 506 Z " />
<glyph glyph-name="threesuperior" unicode="&#xb3;" horiz-adv-x="288" d="M41 821 Q53 824 68 828 Q80 830 96.5 832.5 Q113 835 132 835 Q164 835 186 827.5 Q208 820 222 808.5 Q236 797 242 782 Q248 767 248 752 Q248 715 231 697 Q214 679 188 672 L188 670 Q218 663 236 646 Q254 629 254 594 Q254 576 247.5 559.5 Q241 543 226.5 529.5 Q212 516 188.5 508 Q165 500 131 500 Q92 500 68.5 506 Q45 512 36 514 L36 569 Q57 564 78.5 559.5 Q100 555 125 555 Q158 555 172.5 567.5 Q187 580 187 600 Q187 625 171 635 Q155 645 129 645 L94 645 L94 695 L129 695 Q154 695 168.5 705 Q183 715 183 740 Q183 756 170.5 768 Q158 780 127 780 Q108 780 84.5 776.5 Q61 773 41 768 L41 821 Z " />
<glyph glyph-name="acute" unicode="&#xb4;" horiz-adv-x="359" d="M117 582 L92 609 L206 747 L225 747 L267 697 L132 582 L117 582 Z " />
<glyph glyph-name="paragraph" unicode="&#xb6;" horiz-adv-x="613" d="M366 700 L366 -170 L302 -170 L302 250 Q239 250 188.5 264 Q138 278 102.5 306.5 Q67 335 47.5 377.5 Q28 420 28 478 Q28 536 47.5 578 Q67 620 103.5 647 Q140 674 191.5 687 Q243 700 306 700 L366 700 Z M474 -170 L474 700 L538 700 L538 -170 L474 -170 Z " />
<glyph glyph-name="periodcentered" unicode="&#xb7;" horiz-adv-x="243" d="M63 373 Q63 394 80 411 Q97 428 121 428 Q145 428 162 411 Q179 394 179 373 Q179 350 162 333.5 Q145 317 121 317 Q97 317 80 333.5 Q63 350 63 373 Z " />
<glyph glyph-name="cedilla" unicode="&#xb8;" horiz-adv-x="400" d="M173 -180 Q144 -180 117 -173 Q90 -166 74 -156 L88 -119 Q99 -125 121.5 -131.5 Q144 -138 166 -138 Q186 -138 202 -132.5 Q218 -127 218 -110 Q218 -92 191.5 -82.5 Q165 -73 123 -70 L123 -50 L171 11 L222 9 L185 -37 Q233 -44 256.5 -60 Q280 -76 280 -107 Q280 -127 270.5 -140.5 Q261 -154 246 -163 Q231 -172 212 -176 Q193 -180 173 -180 Z " />
<glyph glyph-name="onesuperior" unicode="&#xb9;" horiz-adv-x="248" d="M37 506 L37 552 L96 552 L96 762 L37 762 L37 810 L86 810 Q101 810 111 818 Q121 826 123 834 L163 834 L163 552 L222 552 L222 506 L37 506 Z " />
<glyph glyph-name="ordmasculine" unicode="&#xba;" horiz-adv-x="385" d="M336 545 Q336 502 325 471 Q314 440 294.5 419.5 Q275 399 248.5 389.5 Q222 380 192 380 Q162 380 135.5 389.5 Q109 399 89.5 419.5 Q70 440 59 471 Q48 502 48 545 Q48 588 59 619 Q70 650 89.5 670 Q109 690 135.5 700 Q162 710 192 710 Q222 710 248.5 700 Q275 690 294.5 670 Q314 650 325 619 Q336 588 336 545 Z M273 545 Q273 606 252 633.5 Q231 661 192 661 Q154 661 133 633.5 Q112 606 112 545 Q112 485 133 457.5 Q154 430 192 430 Q231 430 252 457.5 Q273 485 273 545 Z " />
<glyph glyph-name="guillemotright" unicode="&#xbb;" horiz-adv-x="507" d="M265 239 L121 46 L49 46 L193 255 L49 463 L121 463 L265 271 L265 239 Z M465 239 L321 46 L249 46 L393 255 L249 463 L321 463 L465 271 L465 239 Z " />
<glyph glyph-name="onequarter" unicode="&#xbc;" horiz-adv-x="637" d="M320 129 L477 329 L536 329 L536 129 L578 129 L578 76 L536 76 L536 0 L472 0 L472 76 L320 76 L320 129 Z M472 249 L374 129 L472 129 L472 249 Z M72 376 L72 422 L131 422 L131 632 L72 632 L72 680 L121 680 Q136 680 146 688 Q156 696 158 704 L198 704 L198 422 L257 422 L257 376 L72 376 Z M36 0 L546 700 L605 700 L97 0 L36 0 Z " />
<glyph glyph-name="onehalf" unicode="&#xbd;" horiz-adv-x="652" d="M371 0 L371 56 Q371 75 375 88.5 Q379 102 389 114 Q399 126 416 138 Q433 150 459 166 Q498 190 512 205 Q526 220 526 237 Q526 254 513 263 Q500 272 471 272 Q426 272 374 253 L374 306 Q387 312 404 317 Q418 322 437.5 325.5 Q457 329 480 329 Q511 329 532 321.5 Q553 314 566 301.5 Q579 289 585 272.5 Q591 256 591 239 Q591 204 569 179.5 Q547 155 497 125 Q466 106 453.5 96 Q441 86 441 72 L441 56 L599 56 L599 0 L371 0 Z M72 376 L72 422 L131 422 L131 632 L72 632 L72 680 L121 680 Q136 680 146 688 Q156 696 158 704 L198 704 L198 422 L257 422 L257 376 L72 376 Z M35 0 L545 700 L604 700 L96 0 L35 0 Z " />
<glyph glyph-name="threequarters" unicode="&#xbe;" horiz-adv-x="644" d="M327 129 L484 329 L543 329 L543 129 L585 129 L585 76 L543 76 L543 0 L479 0 L479 76 L327 76 L327 129 Z M479 249 L381 129 L479 129 L479 249 Z M42 0 L552 700 L611 700 L103 0 L42 0 Z M70 691 Q82 694 97 698 Q109 700 125.5 702.5 Q142 705 161 705 Q193 705 215 697.5 Q237 690 251 678.5 Q265 667 271 652 Q277 637 277 622 Q277 585 260 567 Q243 549 217 542 L217 540 Q247 533 265 516 Q283 499 283 464 Q283 446 276.5 429.5 Q270 413 255.5 399.5 Q241 386 217.5 378 Q194 370 160 370 Q121 370 97.5 376 Q74 382 65 384 L65 439 Q86 434 107.5 429.5 Q129 425 154 425 Q187 425 201.5 437.5 Q216 450 216 470 Q216 495 200 505 Q184 515 158 515 L123 515 L123 565 L158 565 Q183 565 197.5 575 Q212 585 212 610 Q212 626 199.5 638 Q187 650 156 650 Q137 650 113.5 646.5 Q90 643 70 638 L70 691 Z " />
<glyph glyph-name="questiondown" unicode="&#xbf;" horiz-adv-x="470" d="M339.008 482.003 Q339.008 457.004 322.009 440.005 Q305.01 423.007 277.012 423.007 Q249.014 423.007 232.515 440.005 Q216.016 457.004 216.016 482.003 Q216.016 506.001 232.515 523 Q249.014 539.999 277.012 539.999 Q305.01 539.999 322.009 523 Q339.008 506.001 339.008 482.003 Z M438.002 -126.96 Q426.003 -133.959 406.504 -142.959 Q387.005 -151.958 363.007 -160.458 Q339.008 -168.957 310.51 -174.457 Q282.012 -179.957 250.014 -179.957 Q190.017 -179.957 148.52 -165.458 Q107.022 -150.958 81.024 -126.96 Q55.0256 -102.961 43.0263 -71.9633 Q31.027 -40.9651 31.027 -8.9671 Q31.027 53.0291 59.5253 94.0266 Q88.0236 135.024 155.019 167.022 Q202.017 190.021 218.516 207.52 Q235.015 225.019 236.015 249.017 L241.014 341.012 L314.01 341.012 L319.009 249.017 Q321.009 225.019 314.51 206.52 Q308.01 188.021 294.511 173.022 Q281.012 158.023 261.013 145.523 Q241.014 133.024 215.016 119.025 Q188.017 105.026 171.518 91.5268 Q155.019 78.0276 145.52 64.0284 Q136.021 50.0293 133.021 34.5302 Q130.021 19.0312 130.021 1.03229 Q130.021 -18.9665 137.021 -37.4654 Q144.02 -55.9642 159.019 -69.9634 Q174.018 -83.9625 199.017 -92.462 Q224.015 -100.961 260.013 -100.961 Q307.01 -100.961 349.508 -88.4622 Q392.005 -75.963 438.002 -52.9644 L438.002 -126.96 Z " />
<glyph glyph-name="Agrave" unicode="&#xc0;" horiz-adv-x="613" d="M434 174 L171 174 L114 0 L20 0 L258 702 L355 702 L593 0 L492 0 L434 174 Z M195 247 L410 247 L303 572 L195 247 Z M319 756 L305 756 L169 871 L212 922 L230 922 L344 783 L319 756 Z " />
<glyph glyph-name="Aacute" unicode="&#xc1;" horiz-adv-x="613" d="M434 174 L171 174 L114 0 L20 0 L258 702 L355 702 L593 0 L492 0 L434 174 Z M195 247 L410 247 L303 572 L195 247 Z M307 756 L282 783 L396 922 L415 922 L457 871 L322 756 L307 756 Z " />
<glyph glyph-name="Acircumflex" unicode="&#xc2;" horiz-adv-x="613" d="M434 174 L171 174 L114 0 L20 0 L258 702 L355 702 L593 0 L492 0 L434 174 Z M195 247 L410 247 L303 572 L195 247 Z M201 758 L177 784 L297 924 L330 924 L449 784 L425 758 L410 758 L312 842 L216 758 L201 758 Z " />
<glyph glyph-name="Atilde" unicode="&#xc3;" horiz-adv-x="613" d="M434 174 L171 174 L114 0 L20 0 L258 702 L355 702 L593 0 L492 0 L434 174 Z M195 247 L410 247 L303 572 L195 247 Z M472 894 L472 855 Q472 815 452 794.5 Q432 774 395 774 Q371 774 349.5 782.5 Q328 791 309.5 800.5 Q291 810 274 818.5 Q257 827 241 827 Q223 827 214.5 817.5 Q206 808 206 800 L206 765 L153 765 L153 801 Q153 846 174.5 866.5 Q196 887 232 887 Q255 887 275.5 878.5 Q296 870 315 859.5 Q334 849 351.5 840.5 Q369 832 387 832 Q406 832 413 842 Q420 852 420 861 L420 894 L472 894 Z " />
<glyph glyph-name="Adieresis" unicode="&#xc4;" horiz-adv-x="613" d="M434 174 L171 174 L114 0 L20 0 L258 702 L355 702 L593 0 L492 0 L434 174 Z M195 247 L410 247 L303 572 L195 247 Z M200 833 Q200 851 212.5 864.5 Q225 878 245 878 Q265 878 277 864.5 Q289 851 289 833 Q289 814 277 801.5 Q265 789 245 789 Q225 789 212.5 801.5 Q200 814 200 833 Z M336 833 Q336 851 348.5 864.5 Q361 878 381 878 Q401 878 413.5 864.5 Q426 851 426 833 Q426 814 413.5 801.5 Q401 789 381 789 Q361 789 348.5 801.5 Q336 814 336 833 Z " />
<glyph glyph-name="Aring" unicode="&#xc5;" horiz-adv-x="613" d="M434 174 L171 174 L114 0 L20 0 L258 702 L355 702 L593 0 L492 0 L434 174 Z M195 247 L410 247 L303 572 L195 247 Z M373 831 Q373 854 356.5 865.5 Q340 877 312 877 Q285 877 269 865.5 Q253 854 253 831 Q253 808 269 796 Q285 784 312 784 Q340 784 356.5 796 Q373 808 373 831 Z M425 831 Q425 788 392.5 767.5 Q360 747 312 747 Q265 747 233 767.5 Q201 788 201 831 Q201 874 233 894 Q265 914 312 914 Q360 914 392.5 894 Q425 874 425 831 Z " />
<glyph glyph-name="AE" unicode="&#xc6;" horiz-adv-x="946" d="M465 173 L209 173 L110 0 L6 0 L398 700 L894 700 L894 625 L561 625 L561 395 L851 395 L851 320 L561 320 L561 75 L901 75 L901 0 L465 0 L465 173 Z M244 245 L465 245 L465 625 L455 625 L244 245 Z " />
<glyph glyph-name="Ccedilla" unicode="&#xc7;" horiz-adv-x="549" d="M318 -180 Q289 -180 262 -173 Q235 -166 219 -156 L233 -119 Q244 -125 266.5 -131.5 Q289 -138 311 -138 Q331 -138 347 -132.5 Q363 -127 363 -110 Q363 -92 336.5 -82.5 Q310 -73 268 -70 L268 -50 L301 -7 Q243 -1 196.5 24 Q150 49 118 93 Q86 137 68.5 200 Q51 263 51 347 Q51 438 73.5 506.5 Q96 575 137 620 Q178 665 234.5 687.5 Q291 710 360 710 Q414 710 452 702.5 Q490 695 504 688 L504 608 Q474 619 444 625 Q414 631 372 631 Q258 631 205.5 562.5 Q153 494 153 353 Q153 211 202 140 Q251 69 362 69 Q406 69 440 77 Q474 85 511 99 L511 20 Q482 7 444 -1 Q406 -9 351 -10 L330 -37 Q378 -44 401.5 -60 Q425 -76 425 -107 Q425 -127 415.5 -140.5 Q406 -154 391 -163 Q376 -172 357 -176 Q338 -180 318 -180 Z " />
<glyph glyph-name="Egrave" unicode="&#xc8;" horiz-adv-x="567" d="M323 756 L309 756 L173 871 L216 922 L234 922 L348 783 L323 756 Z M181 625 L181 395 L471 395 L471 320 L181 320 L181 75 L521 75 L521 0 L85 0 L85 700 L514 700 L514 625 L181 625 Z " />
<glyph glyph-name="Eacute" unicode="&#xc9;" horiz-adv-x="567" d="M181 625 L181 395 L471 395 L471 320 L181 320 L181 75 L521 75 L521 0 L85 0 L85 700 L514 700 L514 625 L181 625 Z M311 756 L286 783 L400 922 L419 922 L461 871 L326 756 L311 756 Z " />
<glyph glyph-name="Ecircumflex" unicode="&#xca;" horiz-adv-x="567" d="M205 758 L181 784 L301 924 L334 924 L453 784 L429 758 L414 758 L316 842 L220 758 L205 758 Z M181 625 L181 395 L471 395 L471 320 L181 320 L181 75 L521 75 L521 0 L85 0 L85 700 L514 700 L514 625 L181 625 Z " />
<glyph glyph-name="Edieresis" unicode="&#xcb;" horiz-adv-x="567" d="M181 625 L181 395 L471 395 L471 320 L181 320 L181 75 L521 75 L521 0 L85 0 L85 700 L514 700 L514 625 L181 625 Z M204 833 Q204 851 216.5 864.5 Q229 878 249 878 Q269 878 281 864.5 Q293 851 293 833 Q293 814 281 801.5 Q269 789 249 789 Q229 789 216.5 801.5 Q204 814 204 833 Z M340 833 Q340 851 352.5 864.5 Q365 878 385 878 Q405 878 417.5 864.5 Q430 851 430 833 Q430 814 417.5 801.5 Q405 789 385 789 Q365 789 352.5 801.5 Q340 814 340 833 Z " />
<glyph glyph-name="Igrave" unicode="&#xcc;" horiz-adv-x="266" d="M85 700 L181 700 L181 0 L85 0 L85 700 Z M140 756 L126 756 L-10 871 L33 922 L51 922 L165 783 L140 756 Z " />
<glyph glyph-name="Iacute" unicode="&#xcd;" horiz-adv-x="266" d="M85 700 L181 700 L181 0 L85 0 L85 700 Z M128 756 L103 783 L217 922 L236 922 L278 871 L143 756 L128 756 Z " />
<glyph glyph-name="Icircumflex" unicode="&#xce;" horiz-adv-x="266" d="M85 700 L181 700 L181 0 L85 0 L85 700 Z M21 758 L-3 784 L117 924 L150 924 L269 784 L245 758 L230 758 L132 842 L36 758 L21 758 Z " />
<glyph glyph-name="Idieresis" unicode="&#xcf;" horiz-adv-x="266" d="M85 700 L181 700 L181 0 L85 0 L85 700 Z M20 833 Q20 851 32.5 864.5 Q45 878 65 878 Q85 878 97 864.5 Q109 851 109 833 Q109 814 97 801.5 Q85 789 65 789 Q45 789 32.5 801.5 Q20 814 20 833 Z M156 833 Q156 851 168.5 864.5 Q181 878 201 878 Q221 878 233.5 864.5 Q246 851 246 833 Q246 814 233.5 801.5 Q221 789 201 789 Q181 789 168.5 801.5 Q156 814 156 833 Z " />
<glyph glyph-name="Eth" unicode="&#xd0;" horiz-adv-x="674" d="M92 0 L92 331 L20 331 L20 385 L92 385 L92 700 L311 700 Q383 700 440.5 679.5 Q498 659 538.5 616.5 Q579 574 600.5 509 Q622 444 622 355 Q622 264 600.5 197.5 Q579 131 538.5 87 Q498 43 440.5 21.5 Q383 0 311 0 L92 0 Z M311 75 Q420 75 470 143.5 Q520 212 520 355 Q520 494 470 559.5 Q420 625 311 625 L188 625 L188 385 L366 385 L366 331 L188 331 L188 75 L311 75 Z " />
<glyph glyph-name="Ntilde" unicode="&#xd1;" horiz-adv-x="661" d="M501 894 L501 855 Q501 815 481 794.5 Q461 774 424 774 Q400 774 378.5 782.5 Q357 791 338.5 800.5 Q320 810 303 818.5 Q286 827 270 827 Q252 827 243.5 817.5 Q235 808 235 800 L235 765 L182 765 L182 801 Q182 846 203.5 866.5 Q225 887 261 887 Q284 887 304.5 878.5 Q325 870 344 859.5 Q363 849 380.5 840.5 Q398 832 416 832 Q435 832 442 842 Q449 852 449 861 L449 894 L501 894 Z M505 -2 L169 533 L169 0 L84 0 L84 700 L168 700 L491 185 L491 700 L576 700 L576 -2 L505 -2 Z " />
<glyph glyph-name="Ograve" unicode="&#xd2;" horiz-adv-x="674" d="M348 756 L334 756 L198 871 L241 922 L259 922 L373 783 L348 756 Z M52 350 Q52 442 73 510 Q94 578 131.5 622.5 Q169 667 221.5 688.5 Q274 710 337 710 Q400 710 452.5 688.5 Q505 667 542.5 622.5 Q580 578 601 510 Q622 442 622 349 Q622 257 601 189 Q580 121 542.5 77 Q505 33 452.5 11.5 Q400 -10 337 -10 Q274 -10 221.5 11.5 Q169 33 131.5 77.5 Q94 122 73 190 Q52 258 52 350 Z M154 350 Q154 204 199.5 136 Q245 68 337 68 Q428 68 474 136 Q520 204 520 349 Q520 496 474.5 564.5 Q429 633 337 633 Q245 633 199.5 564.5 Q154 496 154 350 Z " />
<glyph glyph-name="Oacute" unicode="&#xd3;" horiz-adv-x="674" d="M335 756 L310 783 L424 922 L443 922 L485 871 L350 756 L335 756 Z M52 350 Q52 442 73 510 Q94 578 131.5 622.5 Q169 667 221.5 688.5 Q274 710 337 710 Q400 710 452.5 688.5 Q505 667 542.5 622.5 Q580 578 601 510 Q622 442 622 349 Q622 257 601 189 Q580 121 542.5 77 Q505 33 452.5 11.5 Q400 -10 337 -10 Q274 -10 221.5 11.5 Q169 33 131.5 77.5 Q94 122 73 190 Q52 258 52 350 Z M154 350 Q154 204 199.5 136 Q245 68 337 68 Q428 68 474 136 Q520 204 520 349 Q520 496 474.5 564.5 Q429 633 337 633 Q245 633 199.5 564.5 Q154 496 154 350 Z " />
<glyph glyph-name="Ocircumflex" unicode="&#xd4;" horiz-adv-x="674" d="M229 758 L205 784 L325 924 L358 924 L477 784 L453 758 L438 758 L340 842 L244 758 L229 758 Z M52 350 Q52 442 73 510 Q94 578 131.5 622.5 Q169 667 221.5 688.5 Q274 710 337 710 Q400 710 452.5 688.5 Q505 667 542.5 622.5 Q580 578 601 510 Q622 442 622 349 Q622 257 601 189 Q580 121 542.5 77 Q505 33 452.5 11.5 Q400 -10 337 -10 Q274 -10 221.5 11.5 Q169 33 131.5 77.5 Q94 122 73 190 Q52 258 52 350 Z M154 350 Q154 204 199.5 136 Q245 68 337 68 Q428 68 474 136 Q520 204 520 349 Q520 496 474.5 564.5 Q429 633 337 633 Q245 633 199.5 564.5 Q154 496 154 350 Z " />
<glyph glyph-name="Otilde" unicode="&#xd5;" horiz-adv-x="674" d="M52 350 Q52 442 73 510 Q94 578 131.5 622.5 Q169 667 221.5 688.5 Q274 710 337 710 Q400 710 452.5 688.5 Q505 667 542.5 622.5 Q580 578 601 510 Q622 442 622 349 Q622 257 601 189 Q580 121 542.5 77 Q505 33 452.5 11.5 Q400 -10 337 -10 Q274 -10 221.5 11.5 Q169 33 131.5 77.5 Q94 122 73 190 Q52 258 52 350 Z M154 350 Q154 204 199.5 136 Q245 68 337 68 Q428 68 474 136 Q520 204 520 349 Q520 496 474.5 564.5 Q429 633 337 633 Q245 633 199.5 564.5 Q154 496 154 350 Z M501 894 L501 855 Q501 815 481 794.5 Q461 774 424 774 Q400 774 378.5 782.5 Q357 791 338.5 800.5 Q320 810 303 818.5 Q286 827 270 827 Q252 827 243.5 817.5 Q235 808 235 800 L235 765 L182 765 L182 801 Q182 846 203.5 866.5 Q225 887 261 887 Q284 887 304.5 878.5 Q325 870 344 859.5 Q363 849 380.5 840.5 Q398 832 416 832 Q435 832 442 842 Q449 852 449 861 L449 894 L501 894 Z " />
<glyph glyph-name="Odieresis" unicode="&#xd6;" horiz-adv-x="674" d="M52 350 Q52 442 73 510 Q94 578 131.5 622.5 Q169 667 221.5 688.5 Q274 710 337 710 Q400 710 452.5 688.5 Q505 667 542.5 622.5 Q580 578 601 510 Q622 442 622 349 Q622 257 601 189 Q580 121 542.5 77 Q505 33 452.5 11.5 Q400 -10 337 -10 Q274 -10 221.5 11.5 Q169 33 131.5 77.5 Q94 122 73 190 Q52 258 52 350 Z M154 350 Q154 204 199.5 136 Q245 68 337 68 Q428 68 474 136 Q520 204 520 349 Q520 496 474.5 564.5 Q429 633 337 633 Q245 633 199.5 564.5 Q154 496 154 350 Z M228 833 Q228 851 240.5 864.5 Q253 878 273 878 Q293 878 305 864.5 Q317 851 317 833 Q317 814 305 801.5 Q293 789 273 789 Q253 789 240.5 801.5 Q228 814 228 833 Z M364 833 Q364 851 376.5 864.5 Q389 878 409 878 Q429 878 441.5 864.5 Q454 851 454 833 Q454 814 441.5 801.5 Q429 789 409 789 Q389 789 376.5 801.5 Q364 814 364 833 Z " />
<glyph glyph-name="multiply" unicode="&#xd7;" horiz-adv-x="471" d="M61 200 L191 330 L61 460 L106 504 L235 374 L365 504 L409 460 L279 330 L410 200 L366 156 L235 287 L105 156 L61 200 Z " />
<glyph glyph-name="Oslash" unicode="&#xd8;" horiz-adv-x="675" d="M53 350 Q53 442 74 510 Q95 578 132.5 622.5 Q170 667 222.5 688.5 Q275 710 338 710 Q391 710 436 695 Q481 680 517 649 L560 710 L627 710 L555 608 Q587 563 605 499 Q623 435 623 349 Q623 257 602 189 Q581 121 543.5 77 Q506 33 453.5 11.5 Q401 -10 338 -10 Q285 -10 240 4.5 Q195 19 159 50 L117 -10 L49 -10 L121 92 Q88 137 70.5 200.5 Q53 264 53 350 Z M155 350 Q155 240 180 175 L465 577 Q421 633 338 633 Q246 633 200.5 564.5 Q155 496 155 350 Z M521 349 Q521 457 495 524 L211 122 Q255 68 338 68 Q429 68 475 136 Q521 204 521 349 Z " />
<glyph glyph-name="Ugrave" unicode="&#xd9;" horiz-adv-x="645" d="M333 756 L319 756 L183 871 L226 922 L244 922 L358 783 L333 756 Z M476 700 L566 700 L566 238 Q566 111 500 50.5 Q434 -10 319 -10 Q207 -10 143 50 Q79 110 79 238 L79 700 L177 700 L177 237 Q177 151 213 109.5 Q249 68 325 68 Q406 68 441 109.5 Q476 151 476 237 L476 700 Z " />
<glyph glyph-name="Uacute" unicode="&#xda;" horiz-adv-x="645" d="M476 700 L566 700 L566 238 Q566 111 500 50.5 Q434 -10 319 -10 Q207 -10 143 50 Q79 110 79 238 L79 700 L177 700 L177 237 Q177 151 213 109.5 Q249 68 325 68 Q406 68 441 109.5 Q476 151 476 237 L476 700 Z M320 756 L295 783 L409 922 L428 922 L470 871 L335 756 L320 756 Z " />
<glyph glyph-name="Ucircumflex" unicode="&#xdb;" horiz-adv-x="645" d="M214 758 L190 784 L310 924 L343 924 L462 784 L438 758 L423 758 L325 842 L229 758 L214 758 Z M476 700 L566 700 L566 238 Q566 111 500 50.5 Q434 -10 319 -10 Q207 -10 143 50 Q79 110 79 238 L79 700 L177 700 L177 237 Q177 151 213 109.5 Q249 68 325 68 Q406 68 441 109.5 Q476 151 476 237 L476 700 Z " />
<glyph glyph-name="Udieresis" unicode="&#xdc;" horiz-adv-x="645" d="M476 700 L566 700 L566 238 Q566 111 500 50.5 Q434 -10 319 -10 Q207 -10 143 50 Q79 110 79 238 L79 700 L177 700 L177 237 Q177 151 213 109.5 Q249 68 325 68 Q406 68 441 109.5 Q476 151 476 237 L476 700 Z M213 833 Q213 851 225.5 864.5 Q238 878 258 878 Q278 878 290 864.5 Q302 851 302 833 Q302 814 290 801.5 Q278 789 258 789 Q238 789 225.5 801.5 Q213 814 213 833 Z M349 833 Q349 851 361.5 864.5 Q374 878 394 878 Q414 878 426.5 864.5 Q439 851 439 833 Q439 814 426.5 801.5 Q414 789 394 789 Q374 789 361.5 801.5 Q349 814 349 833 Z " />
<glyph glyph-name="Yacute" unicode="&#xdd;" horiz-adv-x="591" d="M251 0 L251 281 L18 700 L127 700 L301 377 L470 700 L565 700 L347 291 L347 0 L251 0 Z M304 756 L279 783 L393 922 L412 922 L454 871 L319 756 L304 756 Z " />
<glyph glyph-name="Ygrave" unicode="&#x1ef2;" horiz-adv-x="591" d="M251 0 L251 281 L18 700 L127 700 L301 377 L470 700 L565 700 L347 291 L347 0 L251 0 Z M303 756 L289 756 L153 871 L196 922 L214 922 L328 783 L303 756 Z " />
<glyph glyph-name="Thorn" unicode="&#xde;" horiz-adv-x="606" d="M181 490 L181 221 L318 221 Q398 221 434 254 Q470 287 470 357 Q470 426 434 458 Q398 490 318 490 L181 490 Z M85 0 L85 700 L181 700 L181 562 L318 562 Q437 562 503 514 Q569 466 569 362 Q569 252 502.5 200.5 Q436 149 318 149 L181 149 L181 0 L85 0 Z " />
<glyph glyph-name="germandbls" unicode="&#xdf;" horiz-adv-x="610" d="M302 82 Q327 69 353.5 62 Q380 55 412 55 Q451 55 473.5 73.5 Q496 92 496 129 Q496 148 489 163 Q482 178 469 192 Q456 206 439 220.5 Q422 235 403 253 Q356 295 331.5 323 Q307 351 307 387 Q307 416 323.5 440 Q340 464 360 486.5 Q380 509 396.5 532.5 Q413 556 413 585 Q413 624 385 648 Q357 672 312 672 Q284 672 262.5 667.5 Q241 663 226 651 Q211 639 203 617.5 Q195 596 195 562 L195 0 L104 0 L104 457 L23 457 L23 524 L104 524 L104 556 Q104 641 155 690.5 Q206 740 312 740 Q346 740 379 731 Q412 722 438 703 Q464 684 479.5 655 Q495 626 495 587 Q495 554 479 529.5 Q463 505 444 484 Q425 463 409 444 Q393 425 393 403 Q393 376 412 356 Q431 336 467 303 Q491 280 512.5 260.5 Q534 241 550 221 Q566 201 575 178 Q584 155 584 125 Q584 62 542 26 Q500 -10 425 -10 Q382 -10 348.5 -1.5 Q315 7 302 12 L302 82 L302 82 Z " />
<glyph glyph-name="agrave" unicode="&#xe0;" horiz-adv-x="503" d="M215 66 Q238 66 258.5 74.5 Q279 83 296 94 Q313 105 325.5 117 Q338 129 344 137 L344 231 L226 231 Q183 231 155.5 212.5 Q128 194 128 151 Q128 66 215 66 Z M345 61 Q336 52 321.5 40 Q307 28 287.5 17 Q268 6 243.5 -2 Q219 -10 190 -10 Q152 -10 123 2 Q94 14 75 35 Q56 56 46.5 84.5 Q37 113 37 146 Q37 184 49.5 212.5 Q62 241 84.5 260.5 Q107 280 137.5 289.5 Q168 299 204 299 L344 299 L344 348 Q344 371 340 391 Q336 411 323.5 426 Q311 441 288 450 Q265 459 227 459 Q177 459 136.5 448 Q96 437 73 428 L73 503 Q104 514 150.5 525 Q197 536 254 536 Q306 536 340.5 522 Q375 508 396 484 Q417 460 425.5 428 Q434 396 434 360 L434 0 L379 0 Q360 0 355 9 Q350 18 350 29 L350 61 L345 61 Z M263 582 L249 582 L113 697 L155 747 L174 747 L288 609 L263 582 Z " />
<glyph glyph-name="aacute" unicode="&#xe1;" horiz-adv-x="503" d="M215 66 Q238 66 258.5 74.5 Q279 83 296 94 Q313 105 325.5 117 Q338 129 344 137 L344 231 L226 231 Q183 231 155.5 212.5 Q128 194 128 151 Q128 66 215 66 Z M345 61 Q336 52 321.5 40 Q307 28 287.5 17 Q268 6 243.5 -2 Q219 -10 190 -10 Q152 -10 123 2 Q94 14 75 35 Q56 56 46.5 84.5 Q37 113 37 146 Q37 184 49.5 212.5 Q62 241 84.5 260.5 Q107 280 137.5 289.5 Q168 299 204 299 L344 299 L344 348 Q344 371 340 391 Q336 411 323.5 426 Q311 441 288 450 Q265 459 227 459 Q177 459 136.5 448 Q96 437 73 428 L73 503 Q104 514 150.5 525 Q197 536 254 536 Q306 536 340.5 522 Q375 508 396 484 Q417 460 425.5 428 Q434 396 434 360 L434 0 L379 0 Q360 0 355 9 Q350 18 350 29 L350 61 L345 61 Z M251 582 L226 609 L340 747 L359 747 L401 697 L266 582 L251 582 Z " />
<glyph glyph-name="acircumflex" unicode="&#xe2;" horiz-adv-x="503" d="M215 66 Q238 66 258.5 74.5 Q279 83 296 94 Q313 105 325.5 117 Q338 129 344 137 L344 231 L226 231 Q183 231 155.5 212.5 Q128 194 128 151 Q128 66 215 66 Z M345 61 Q336 52 321.5 40 Q307 28 287.5 17 Q268 6 243.5 -2 Q219 -10 190 -10 Q152 -10 123 2 Q94 14 75 35 Q56 56 46.5 84.5 Q37 113 37 146 Q37 184 49.5 212.5 Q62 241 84.5 260.5 Q107 280 137.5 289.5 Q168 299 204 299 L344 299 L344 348 Q344 371 340 391 Q336 411 323.5 426 Q311 441 288 450 Q265 459 227 459 Q177 459 136.5 448 Q96 437 73 428 L73 503 Q104 514 150.5 525 Q197 536 254 536 Q306 536 340.5 522 Q375 508 396 484 Q417 460 425.5 428 Q434 396 434 360 L434 0 L379 0 Q360 0 355 9 Q350 18 350 29 L350 61 L345 61 Z M145 582 L122 607 L241 747 L273 747 L392 607 L369 582 L354 582 L256 666 L160 582 L145 582 Z " />
<glyph glyph-name="atilde" unicode="&#xe3;" horiz-adv-x="503" d="M215 66 Q238 66 258.5 74.5 Q279 83 296 94 Q313 105 325.5 117 Q338 129 344 137 L344 231 L226 231 Q183 231 155.5 212.5 Q128 194 128 151 Q128 66 215 66 Z M345 61 Q336 52 321.5 40 Q307 28 287.5 17 Q268 6 243.5 -2 Q219 -10 190 -10 Q152 -10 123 2 Q94 14 75 35 Q56 56 46.5 84.5 Q37 113 37 146 Q37 184 49.5 212.5 Q62 241 84.5 260.5 Q107 280 137.5 289.5 Q168 299 204 299 L344 299 L344 348 Q344 371 340 391 Q336 411 323.5 426 Q311 441 288 450 Q265 459 227 459 Q177 459 136.5 448 Q96 437 73 428 L73 503 Q104 514 150.5 525 Q197 536 254 536 Q306 536 340.5 522 Q375 508 396 484 Q417 460 425.5 428 Q434 396 434 360 L434 0 L379 0 Q360 0 355 9 Q350 18 350 29 L350 61 L345 61 Z M417 719 L417 680 Q417 641 397 620.5 Q377 600 340 600 Q316 600 294.5 608 Q273 616 254.5 626 Q236 636 219 644 Q202 652 186 652 Q168 652 159.5 643 Q151 634 151 625 L151 591 L98 591 L98 626 Q98 671 119.5 691.5 Q141 712 177 712 Q200 712 220.5 703.5 Q241 695 260 685 Q279 675 296.5 666.5 Q314 658 332 658 Q351 658 358 667.5 Q365 677 365 687 L365 719 L417 719 Z " />
<glyph glyph-name="adieresis" unicode="&#xe4;" horiz-adv-x="503" d="M215 66 Q238 66 258.5 74.5 Q279 83 296 94 Q313 105 325.5 117 Q338 129 344 137 L344 231 L226 231 Q183 231 155.5 212.5 Q128 194 128 151 Q128 66 215 66 Z M345 61 Q336 52 321.5 40 Q307 28 287.5 17 Q268 6 243.5 -2 Q219 -10 190 -10 Q152 -10 123 2 Q94 14 75 35 Q56 56 46.5 84.5 Q37 113 37 146 Q37 184 49.5 212.5 Q62 241 84.5 260.5 Q107 280 137.5 289.5 Q168 299 204 299 L344 299 L344 348 Q344 371 340 391 Q336 411 323.5 426 Q311 441 288 450 Q265 459 227 459 Q177 459 136.5 448 Q96 437 73 428 L73 503 Q104 514 150.5 525 Q197 536 254 536 Q306 536 340.5 522 Q375 508 396 484 Q417 460 425.5 428 Q434 396 434 360 L434 0 L379 0 Q360 0 355 9 Q350 18 350 29 L350 61 L345 61 Z M144 662 Q144 680 156.5 693.5 Q169 707 189 707 Q209 707 221 693.5 Q233 680 233 662 Q233 643 221 630.5 Q209 618 189 618 Q169 618 156.5 630.5 Q144 643 144 662 Z M280 662 Q280 680 292.5 693.5 Q305 707 325 707 Q345 707 357.5 693.5 Q370 680 370 662 Q370 643 357.5 630.5 Q345 618 325 618 Q305 618 292.5 630.5 Q280 643 280 662 Z " />
<glyph glyph-name="aring" unicode="&#xe5;" horiz-adv-x="503" d="M215 66 Q238 66 258.5 74.5 Q279 83 296 94 Q313 105 325.5 117 Q338 129 344 137 L344 231 L226 231 Q183 231 155.5 212.5 Q128 194 128 151 Q128 66 215 66 Z M345 61 Q336 52 321.5 40 Q307 28 287.5 17 Q268 6 243.5 -2 Q219 -10 190 -10 Q152 -10 123 2 Q94 14 75 35 Q56 56 46.5 84.5 Q37 113 37 146 Q37 184 49.5 212.5 Q62 241 84.5 260.5 Q107 280 137.5 289.5 Q168 299 204 299 L344 299 L344 348 Q344 371 340 391 Q336 411 323.5 426 Q311 441 288 450 Q265 459 227 459 Q177 459 136.5 448 Q96 437 73 428 L73 503 Q104 514 150.5 525 Q197 536 254 536 Q306 536 340.5 522 Q375 508 396 484 Q417 460 425.5 428 Q434 396 434 360 L434 0 L379 0 Q360 0 355 9 Q350 18 350 29 L350 61 L345 61 Z M369 656 Q369 614 336.5 593.5 Q304 573 256 573 Q209 573 177 593.5 Q145 614 145 656 Q145 699 177 719.5 Q209 740 256 740 Q304 740 336.5 719.5 Q369 699 369 656 Z M317 656 Q317 679 300.5 691 Q284 703 256 703 Q229 703 213 691 Q197 679 197 656 Q197 633 213 621 Q229 609 256 609 Q284 609 300.5 621 Q317 633 317 656 Z " />
<glyph glyph-name="ae" unicode="&#xe6;" horiz-adv-x="802" d="M559 469 Q505 469 472 428 Q439 387 434 299 L671 299 L671 331 Q671 400 640 434.5 Q609 469 559 469 Z M734 25 Q708 10 669.5 0 Q631 -10 575 -10 Q521 -10 471.5 12 Q422 34 388 82 Q378 71 360 55.5 Q342 40 317.5 25.5 Q293 11 261 0.5 Q229 -10 190 -10 Q149 -10 120 2 Q91 14 73 35 Q55 56 46.5 84.5 Q38 113 38 146 Q38 184 50.5 212.5 Q63 241 85.5 260 Q108 279 138 288.5 Q168 298 204 298 L344 298 L344 348 Q344 371 340 391.5 Q336 412 323.5 427 Q311 442 288 451 Q265 460 227 460 Q177 460 136.5 449.5 Q96 439 73 430 L73 503 Q104 514 150.5 525 Q197 536 254 536 Q315 536 349.5 512 Q384 488 399 450 Q427 493 468.5 514.5 Q510 536 560 536 Q603 536 640 521.5 Q677 507 703 479.5 Q729 452 744 411 Q759 370 759 317 L759 247 L745 234 L434 234 Q437 186 450.5 153 Q464 120 486.5 100 Q509 80 538.5 71.5 Q568 63 604 63 Q646 63 679.5 71 Q713 79 734 88 L734 25 Z M222 64 Q246 64 266.5 71 Q287 78 304.5 88.5 Q322 99 336 112 Q350 125 361 136 Q344 179 341 234 L226 234 Q208 234 190.5 230.5 Q173 227 159 218 Q145 209 136.5 193 Q128 177 128 153 Q128 111 148 87.5 Q168 64 222 64 Z " />
<glyph glyph-name="ccedilla" unicode="&#xe7;" horiz-adv-x="451" d="M238 -180 Q209 -180 182.5 -173 Q156 -166 139 -156 L153 -119 Q164 -125 186.5 -131.5 Q209 -138 232 -138 Q252 -138 268 -132.5 Q284 -127 284 -110 Q284 -92 257 -82.5 Q230 -73 188 -70 L188 -50 L223 -5 Q185 2 152.5 21.5 Q120 41 96 73.5 Q72 106 58.5 150.5 Q45 195 45 254 Q45 326 64 379 Q83 432 116 467 Q149 502 193 519 Q237 536 287 536 Q322 536 352.5 531 Q383 526 407 517 L407 441 Q380 449 355.5 454 Q331 459 299 459 Q224 459 182 409.5 Q140 360 140 258 Q140 159 183.5 113 Q227 67 298 67 Q329 67 357.5 73 Q386 79 409 90 L409 19 Q382 4 346.5 -3 Q311 -10 273 -10 L272 -10 L250 -37 Q298 -44 321.5 -60 Q345 -76 345 -107 Q345 -127 335.5 -140.5 Q326 -154 311 -163 Q296 -172 277 -176 Q258 -180 238 -180 Z " />
<glyph glyph-name="egrave" unicode="&#xe8;" horiz-adv-x="507" d="M265 467 Q210 467 177.5 426.5 Q145 386 139 299 L376 299 L376 331 Q376 400 345 433.5 Q314 467 265 467 Z M440 25 Q414 10 375 0 Q336 -10 281 -10 Q233 -10 190.5 5.5 Q148 21 115.5 53.5 Q83 86 64 136.5 Q45 187 45 258 Q45 327 62 379.5 Q79 432 108.5 466.5 Q138 501 178.5 518.5 Q219 536 266 536 Q309 536 345.5 521.5 Q382 507 408.5 479 Q435 451 449.5 410 Q464 369 464 317 L464 244 L450 231 L139 231 Q142 184 156 151.5 Q170 119 192 99.5 Q214 80 243.5 71.5 Q273 63 309 63 Q348 63 383.5 71 Q419 79 440 88 L440 25 Z M272 582 L258 582 L122 697 L164 747 L183 747 L297 609 L272 582 Z " />
<glyph glyph-name="eacute" unicode="&#xe9;" horiz-adv-x="507" d="M261 582 L236 609 L350 747 L369 747 L411 697 L276 582 L261 582 Z M265 467 Q210 467 177.5 426.5 Q145 386 139 299 L376 299 L376 331 Q376 400 345 433.5 Q314 467 265 467 Z M440 25 Q414 10 375 0 Q336 -10 281 -10 Q233 -10 190.5 5.5 Q148 21 115.5 53.5 Q83 86 64 136.5 Q45 187 45 258 Q45 327 62 379.5 Q79 432 108.5 466.5 Q138 501 178.5 518.5 Q219 536 266 536 Q309 536 345.5 521.5 Q382 507 408.5 479 Q435 451 449.5 410 Q464 369 464 317 L464 244 L450 231 L139 231 Q142 184 156 151.5 Q170 119 192 99.5 Q214 80 243.5 71.5 Q273 63 309 63 Q348 63 383.5 71 Q419 79 440 88 L440 25 Z " />
<glyph glyph-name="ecircumflex" unicode="&#xea;" horiz-adv-x="507" d="M154 582 L131 607 L250 747 L282 747 L401 607 L378 582 L363 582 L265 666 L169 582 L154 582 Z M265 467 Q210 467 177.5 426.5 Q145 386 139 299 L376 299 L376 331 Q376 400 345 433.5 Q314 467 265 467 Z M440 25 Q414 10 375 0 Q336 -10 281 -10 Q233 -10 190.5 5.5 Q148 21 115.5 53.5 Q83 86 64 136.5 Q45 187 45 258 Q45 327 62 379.5 Q79 432 108.5 466.5 Q138 501 178.5 518.5 Q219 536 266 536 Q309 536 345.5 521.5 Q382 507 408.5 479 Q435 451 449.5 410 Q464 369 464 317 L464 244 L450 231 L139 231 Q142 184 156 151.5 Q170 119 192 99.5 Q214 80 243.5 71.5 Q273 63 309 63 Q348 63 383.5 71 Q419 79 440 88 L440 25 Z " />
<glyph glyph-name="edieresis" unicode="&#xeb;" horiz-adv-x="507" d="M153 662 Q153 680 165.5 693.5 Q178 707 198 707 Q218 707 230 693.5 Q242 680 242 662 Q242 643 230 630.5 Q218 618 198 618 Q178 618 165.5 630.5 Q153 643 153 662 Z M289 662 Q289 680 301.5 693.5 Q314 707 334 707 Q354 707 366.5 693.5 Q379 680 379 662 Q379 643 366.5 630.5 Q354 618 334 618 Q314 618 301.5 630.5 Q289 643 289 662 Z M265 467 Q210 467 177.5 426.5 Q145 386 139 299 L376 299 L376 331 Q376 400 345 433.5 Q314 467 265 467 Z M440 25 Q414 10 375 0 Q336 -10 281 -10 Q233 -10 190.5 5.5 Q148 21 115.5 53.5 Q83 86 64 136.5 Q45 187 45 258 Q45 327 62 379.5 Q79 432 108.5 466.5 Q138 501 178.5 518.5 Q219 536 266 536 Q309 536 345.5 521.5 Q382 507 408.5 479 Q435 451 449.5 410 Q464 369 464 317 L464 244 L450 231 L139 231 Q142 184 156 151.5 Q170 119 192 99.5 Q214 80 243.5 71.5 Q273 63 309 63 Q348 63 383.5 71 Q419 79 440 88 L440 25 Z " />
<glyph glyph-name="igrave" unicode="&#xec;" horiz-adv-x="237" d="M164 526 L164 0 L73 0 L73 526 L164 526 Z M125 582 L111 582 L-25 697 L17 747 L36 747 L150 609 L125 582 Z " />
<glyph glyph-name="iacute" unicode="&#xed;" horiz-adv-x="237" d="M114 582 L89 609 L203 747 L222 747 L264 697 L129 582 L114 582 Z M164 526 L164 0 L73 0 L73 526 L164 526 Z " />
<glyph glyph-name="icircumflex" unicode="&#xee;" horiz-adv-x="237" d="M7 582 L-16 607 L103 747 L135 747 L254 607 L231 582 L216 582 L118 666 L22 582 L7 582 Z M164 526 L164 0 L73 0 L73 526 L164 526 Z " />
<glyph glyph-name="idieresis" unicode="&#xef;" horiz-adv-x="237" d="M6 662 Q6 680 18.5 693.5 Q31 707 51 707 Q71 707 83 693.5 Q95 680 95 662 Q95 643 83 630.5 Q71 618 51 618 Q31 618 18.5 630.5 Q6 643 6 662 Z M142 662 Q142 680 154.5 693.5 Q167 707 187 707 Q207 707 219.5 693.5 Q232 680 232 662 Q232 643 219.5 630.5 Q207 618 187 618 Q167 618 154.5 630.5 Q142 643 142 662 Z M164 526 L164 0 L73 0 L73 526 L164 526 Z " />
<glyph glyph-name="eth" unicode="&#xf0;" horiz-adv-x="549" d="M273 -10 Q226 -10 184.5 6.5 Q143 23 112 56.5 Q81 90 63 141.5 Q45 193 45 263 Q45 333 63 384.5 Q81 436 111.5 469.5 Q142 503 183.5 519.5 Q225 536 272 536 Q298 536 320 529 Q342 522 361 509 Q345 538 325 565.5 Q305 593 282 616 L202 579 L185 620 L247 649 Q212 678 175 698 L212 739 Q238 726 263 711.5 Q288 697 310 679 L390 716 L408 674 L348 646 Q423 574 462.5 474.5 Q502 375 502 263 Q502 193 484 141.5 Q466 90 435 56.5 Q404 23 362.5 6.5 Q321 -10 273 -10 Z M273 60 Q337 60 372 110 Q407 160 407 263 Q407 366 372 416 Q337 466 273 466 Q210 466 175 416 Q140 366 140 263 Q140 160 175 110 Q210 60 273 60 Z " />
<glyph glyph-name="ntilde" unicode="&#xf1;" horiz-adv-x="558" d="M306 456 Q283 456 260.5 447.5 Q238 439 219.5 427.5 Q201 416 186.5 403.5 Q172 391 164 382 L164 0 L73 0 L73 526 L130 526 Q148 526 153.5 517 Q159 508 159 497 L159 465 L163 465 Q172 473 187.5 485 Q203 497 223.5 508.5 Q244 520 269.5 528 Q295 536 324 536 Q370 536 401.5 523 Q433 510 452.5 488.5 Q472 467 480.5 438 Q489 409 489 376 L489 0 L398 0 L398 351 Q398 371 394.5 390 Q391 409 381.5 423.5 Q372 438 354 447 Q336 456 306 456 Z M448 719 L448 680 Q448 641 428 620.5 Q408 600 371 600 Q347 600 325.5 608 Q304 616 285.5 626 Q267 636 250 644 Q233 652 217 652 Q199 652 190.5 643 Q182 634 182 625 L182 591 L129 591 L129 626 Q129 671 150.5 691.5 Q172 712 208 712 Q231 712 251.5 703.5 Q272 695 291 685 Q310 675 327.5 666.5 Q345 658 363 658 Q382 658 389 667.5 Q396 677 396 687 L396 719 L448 719 Z " />
<glyph glyph-name="ograve" unicode="&#xf2;" horiz-adv-x="547" d="M502 263 Q502 194 484 143 Q466 92 435 58 Q404 24 362.5 7 Q321 -10 273 -10 Q226 -10 184.5 7 Q143 24 112 58 Q81 92 63 143 Q45 194 45 263 Q45 332 63 383.5 Q81 435 112 468.5 Q143 502 184.5 519 Q226 536 273 536 Q321 536 362.5 519 Q404 502 435 468.5 Q466 435 484 383.5 Q502 332 502 263 Z M407 263 Q407 363 372 412 Q337 461 273 461 Q210 461 175 412 Q140 363 140 263 Q140 163 175 113.5 Q210 64 273 64 Q337 64 372 113.5 Q407 163 407 263 Z M280 582 L266 582 L130 697 L172 747 L191 747 L305 609 L280 582 Z " />
<glyph glyph-name="oacute" unicode="&#xf3;" horiz-adv-x="547" d="M268 582 L243 609 L357 747 L376 747 L418 697 L283 582 L268 582 Z M502 263 Q502 194 484 143 Q466 92 435 58 Q404 24 362.5 7 Q321 -10 273 -10 Q226 -10 184.5 7 Q143 24 112 58 Q81 92 63 143 Q45 194 45 263 Q45 332 63 383.5 Q81 435 112 468.5 Q143 502 184.5 519 Q226 536 273 536 Q321 536 362.5 519 Q404 502 435 468.5 Q466 435 484 383.5 Q502 332 502 263 Z M407 263 Q407 363 372 412 Q337 461 273 461 Q210 461 175 412 Q140 363 140 263 Q140 163 175 113.5 Q210 64 273 64 Q337 64 372 113.5 Q407 163 407 263 Z " />
<glyph glyph-name="ocircumflex" unicode="&#xf4;" horiz-adv-x="547" d="M162 582 L139 607 L258 747 L290 747 L409 607 L386 582 L371 582 L273 666 L177 582 L162 582 Z M502 263 Q502 194 484 143 Q466 92 435 58 Q404 24 362.5 7 Q321 -10 273 -10 Q226 -10 184.5 7 Q143 24 112 58 Q81 92 63 143 Q45 194 45 263 Q45 332 63 383.5 Q81 435 112 468.5 Q143 502 184.5 519 Q226 536 273 536 Q321 536 362.5 519 Q404 502 435 468.5 Q466 435 484 383.5 Q502 332 502 263 Z M407 263 Q407 363 372 412 Q337 461 273 461 Q210 461 175 412 Q140 363 140 263 Q140 163 175 113.5 Q210 64 273 64 Q337 64 372 113.5 Q407 163 407 263 Z " />
<glyph glyph-name="otilde" unicode="&#xf5;" horiz-adv-x="547" d="M502 263 Q502 194 484 143 Q466 92 435 58 Q404 24 362.5 7 Q321 -10 273 -10 Q226 -10 184.5 7 Q143 24 112 58 Q81 92 63 143 Q45 194 45 263 Q45 332 63 383.5 Q81 435 112 468.5 Q143 502 184.5 519 Q226 536 273 536 Q321 536 362.5 519 Q404 502 435 468.5 Q466 435 484 383.5 Q502 332 502 263 Z M407 263 Q407 363 372 412 Q337 461 273 461 Q210 461 175 412 Q140 363 140 263 Q140 163 175 113.5 Q210 64 273 64 Q337 64 372 113.5 Q407 163 407 263 Z M434 719 L434 680 Q434 641 414 620.5 Q394 600 357 600 Q333 600 311.5 608 Q290 616 271.5 626 Q253 636 236 644 Q219 652 203 652 Q185 652 176.5 643 Q168 634 168 625 L168 591 L115 591 L115 626 Q115 671 136.5 691.5 Q158 712 194 712 Q217 712 237.5 703.5 Q258 695 277 685 Q296 675 313.5 666.5 Q331 658 349 658 Q368 658 375 667.5 Q382 677 382 687 L382 719 L434 719 Z " />
<glyph glyph-name="odieresis" unicode="&#xf6;" horiz-adv-x="547" d="M161 662 Q161 680 173.5 693.5 Q186 707 206 707 Q226 707 238 693.5 Q250 680 250 662 Q250 643 238 630.5 Q226 618 206 618 Q186 618 173.5 630.5 Q161 643 161 662 Z M297 662 Q297 680 309.5 693.5 Q322 707 342 707 Q362 707 374.5 693.5 Q387 680 387 662 Q387 643 374.5 630.5 Q362 618 342 618 Q322 618 309.5 630.5 Q297 643 297 662 Z M502 263 Q502 194 484 143 Q466 92 435 58 Q404 24 362.5 7 Q321 -10 273 -10 Q226 -10 184.5 7 Q143 24 112 58 Q81 92 63 143 Q45 194 45 263 Q45 332 63 383.5 Q81 435 112 468.5 Q143 502 184.5 519 Q226 536 273 536 Q321 536 362.5 519 Q404 502 435 468.5 Q466 435 484 383.5 Q502 332 502 263 Z M407 263 Q407 363 372 412 Q337 461 273 461 Q210 461 175 412 Q140 363 140 263 Q140 163 175 113.5 Q210 64 273 64 Q337 64 372 113.5 Q407 163 407 263 Z " />
<glyph glyph-name="divide" unicode="&#xf7;" horiz-adv-x="533" d="M65 362 L468 362 L468 303 L65 303 L65 362 Z M220 170 Q220 190 234 203.5 Q248 217 267 217 Q286 217 300 203.5 Q314 190 314 170 Q314 151 300 137 Q286 123 267 123 Q248 123 234 137 Q220 151 220 170 Z M220 494 Q220 514 234 527.5 Q248 541 267 541 Q286 541 300 527.5 Q314 514 314 494 Q314 475 300 461 Q286 447 267 447 Q248 447 234 461 Q220 475 220 494 Z " />
<glyph glyph-name="oslash" unicode="&#xf8;" horiz-adv-x="549" d="M42 -10 L102 72 Q76 106 61.5 153 Q47 200 47 263 Q47 332 65 383.5 Q83 435 114 468.5 Q145 502 186.5 519 Q228 536 275 536 Q354 536 410 493 L442 536 L503 536 L446 458 Q473 424 488.5 375.5 Q504 327 504 263 Q504 194 486 143 Q468 92 437 58 Q406 24 364.5 7 Q323 -10 275 -10 Q195 -10 138 35 L105 -10 L42 -10 Z M409 263 Q409 299 404 328.5 Q399 358 390 381 L186 101 Q219 64 275 64 Q339 64 374 113.5 Q409 163 409 263 Z M142 263 Q142 195 159 149 L362 426 Q329 461 275 461 Q212 461 177 412 Q142 363 142 263 Z " />
<glyph glyph-name="ugrave" unicode="&#xf9;" horiz-adv-x="547" d="M383 61 Q374 52 359.5 40 Q345 28 324.5 17 Q304 6 279.5 -2 Q255 -10 227 -10 Q183 -10 152.5 3 Q122 16 103.5 37.5 Q85 59 77 88 Q69 117 69 150 L69 526 L160 526 L160 174 Q160 154 163 135.5 Q166 117 175 102.5 Q184 88 201 79 Q218 70 246 70 Q268 70 289.5 78 Q311 86 329.5 97.5 Q348 109 361.5 121 Q375 133 383 142 L383 526 L474 526 L474 0 L417 0 Q398 0 392.5 8.5 Q387 17 387 29 L387 61 L383 61 Z M273 582 L259 582 L123 697 L165 747 L184 747 L298 609 L273 582 Z " />
<glyph glyph-name="uacute" unicode="&#xfa;" horiz-adv-x="547" d="M261 582 L236 609 L350 747 L369 747 L411 697 L276 582 L261 582 Z M383 61 Q374 52 359.5 40 Q345 28 324.5 17 Q304 6 279.5 -2 Q255 -10 227 -10 Q183 -10 152.5 3 Q122 16 103.5 37.5 Q85 59 77 88 Q69 117 69 150 L69 526 L160 526 L160 174 Q160 154 163 135.5 Q166 117 175 102.5 Q184 88 201 79 Q218 70 246 70 Q268 70 289.5 78 Q311 86 329.5 97.5 Q348 109 361.5 121 Q375 133 383 142 L383 526 L474 526 L474 0 L417 0 Q398 0 392.5 8.5 Q387 17 387 29 L387 61 L383 61 Z " />
<glyph glyph-name="ucircumflex" unicode="&#xfb;" horiz-adv-x="547" d="M155 582 L132 607 L251 747 L283 747 L402 607 L379 582 L364 582 L266 666 L170 582 L155 582 Z M383 61 Q374 52 359.5 40 Q345 28 324.5 17 Q304 6 279.5 -2 Q255 -10 227 -10 Q183 -10 152.5 3 Q122 16 103.5 37.5 Q85 59 77 88 Q69 117 69 150 L69 526 L160 526 L160 174 Q160 154 163 135.5 Q166 117 175 102.5 Q184 88 201 79 Q218 70 246 70 Q268 70 289.5 78 Q311 86 329.5 97.5 Q348 109 361.5 121 Q375 133 383 142 L383 526 L474 526 L474 0 L417 0 Q398 0 392.5 8.5 Q387 17 387 29 L387 61 L383 61 Z " />
<glyph glyph-name="udieresis" unicode="&#xfc;" horiz-adv-x="547" d="M154 662 Q154 680 166.5 693.5 Q179 707 199 707 Q219 707 231 693.5 Q243 680 243 662 Q243 643 231 630.5 Q219 618 199 618 Q179 618 166.5 630.5 Q154 643 154 662 Z M290 662 Q290 680 302.5 693.5 Q315 707 335 707 Q355 707 367.5 693.5 Q380 680 380 662 Q380 643 367.5 630.5 Q355 618 335 618 Q315 618 302.5 630.5 Q290 643 290 662 Z M383 61 Q374 52 359.5 40 Q345 28 324.5 17 Q304 6 279.5 -2 Q255 -10 227 -10 Q183 -10 152.5 3 Q122 16 103.5 37.5 Q85 59 77 88 Q69 117 69 150 L69 526 L160 526 L160 174 Q160 154 163 135.5 Q166 117 175 102.5 Q184 88 201 79 Q218 70 246 70 Q268 70 289.5 78 Q311 86 329.5 97.5 Q348 109 361.5 121 Q375 133 383 142 L383 526 L474 526 L474 0 L417 0 Q398 0 392.5 8.5 Q387 17 387 29 L387 61 L383 61 Z " />
<glyph glyph-name="yacute" unicode="&#xfd;" horiz-adv-x="509" d="M162 -170 L216 -11 L24 526 L123 526 L259 118 L396 526 L485 526 L240 -170 L162 -170 Z M255 582 L230 609 L344 747 L363 747 L405 697 L270 582 L255 582 Z " />
<glyph glyph-name="ygrave" unicode="&#x1ef3;" horiz-adv-x="509" d="M162 -170 L216 -11 L24 526 L123 526 L259 118 L396 526 L485 526 L240 -170 L162 -170 Z M270 582 L256 582 L120 697 L162 747 L181 747 L295 609 L270 582 Z " />
<glyph glyph-name="thorn" unicode="&#xfe;" horiz-adv-x="552" d="M281 67 Q308 67 332 78.5 Q356 90 373.5 114.5 Q391 139 401 177 Q411 215 411 268 Q411 321 402 357 Q393 393 377 415 Q361 437 339 446.5 Q317 456 291 456 Q253 456 220.5 433.5 Q188 411 164 382 L164 127 Q185 102 216.5 84.5 Q248 67 281 67 Z M294 -10 Q254 -10 220.5 4 Q187 18 164 38 L164 -170 L73 -170 L73 730 L164 730 L164 463 Q188 491 226.5 513.5 Q265 536 318 536 Q357 536 391.5 520 Q426 504 451.5 471 Q477 438 491.5 388 Q506 338 506 269 Q506 200 489 148 Q472 96 443.5 60.5 Q415 25 376 7.5 Q337 -10 294 -10 Z " />
<glyph glyph-name="ydieresis" unicode="&#xff;" horiz-adv-x="509" d="M162 -170 L216 -11 L24 526 L123 526 L259 118 L396 526 L485 526 L240 -170 L162 -170 Z M147 662 Q147 680 159.5 693.5 Q172 707 192 707 Q212 707 224 693.5 Q236 680 236 662 Q236 643 224 630.5 Q212 618 192 618 Q172 618 159.5 630.5 Q147 643 147 662 Z M283 662 Q283 680 295.5 693.5 Q308 707 328 707 Q348 707 360.5 693.5 Q373 680 373 662 Q373 643 360.5 630.5 Q348 618 328 618 Q308 618 295.5 630.5 Q283 643 283 662 Z " />
<glyph glyph-name="Amacron" unicode="&#x100;" horiz-adv-x="613" d="M434 174 L171 174 L114 0 L20 0 L258 702 L355 702 L593 0 L492 0 L434 174 Z M195 247 L410 247 L303 572 L195 247 Z M185 855 L440 855 L440 801 L185 801 L185 855 Z " />
<glyph glyph-name="amacron" unicode="&#x101;" horiz-adv-x="503" d="M215 66 Q238 66 258.5 74.5 Q279 83 296 94 Q313 105 325.5 117 Q338 129 344 137 L344 231 L226 231 Q183 231 155.5 212.5 Q128 194 128 151 Q128 66 215 66 Z M345 61 Q336 52 321.5 40 Q307 28 287.5 17 Q268 6 243.5 -2 Q219 -10 190 -10 Q152 -10 123 2 Q94 14 75 35 Q56 56 46.5 84.5 Q37 113 37 146 Q37 184 49.5 212.5 Q62 241 84.5 260.5 Q107 280 137.5 289.5 Q168 299 204 299 L344 299 L344 348 Q344 371 340 391 Q336 411 323.5 426 Q311 441 288 450 Q265 459 227 459 Q177 459 136.5 448 Q96 437 73 428 L73 503 Q104 514 150.5 525 Q197 536 254 536 Q306 536 340.5 522 Q375 508 396 484 Q417 460 425.5 428 Q434 396 434 360 L434 0 L379 0 Q360 0 355 9 Q350 18 350 29 L350 61 L345 61 Z M128 684 L383 684 L383 630 L128 630 L128 684 Z " />
<glyph glyph-name="Abreve" unicode="&#x102;" horiz-adv-x="613" d="M434 174 L171 174 L114 0 L20 0 L258 702 L355 702 L593 0 L492 0 L434 174 Z M195 247 L410 247 L303 572 L195 247 Z M441 889 Q437 865 427 843.5 Q417 822 401 805.5 Q385 789 363 779 Q341 769 312 769 Q283 769 261 778.5 Q239 788 223 804.5 Q207 821 197 842.5 Q187 864 183 887 L236 899 Q243 869 261 845.5 Q279 822 313 822 Q331 822 344.5 828.5 Q358 835 367.5 845.5 Q377 856 383.5 869.5 Q390 883 394 898 L441 889 L441 889 Z " />
<glyph glyph-name="abreve" unicode="&#x103;" horiz-adv-x="503" d="M215 66 Q238 66 258.5 74.5 Q279 83 296 94 Q313 105 325.5 117 Q338 129 344 137 L344 231 L226 231 Q183 231 155.5 212.5 Q128 194 128 151 Q128 66 215 66 Z M345 61 Q336 52 321.5 40 Q307 28 287.5 17 Q268 6 243.5 -2 Q219 -10 190 -10 Q152 -10 123 2 Q94 14 75 35 Q56 56 46.5 84.5 Q37 113 37 146 Q37 184 49.5 212.5 Q62 241 84.5 260.5 Q107 280 137.5 289.5 Q168 299 204 299 L344 299 L344 348 Q344 371 340 391 Q336 411 323.5 426 Q311 441 288 450 Q265 459 227 459 Q177 459 136.5 448 Q96 437 73 428 L73 503 Q104 514 150.5 525 Q197 536 254 536 Q306 536 340.5 522 Q375 508 396 484 Q417 460 425.5 428 Q434 396 434 360 L434 0 L379 0 Q360 0 355 9 Q350 18 350 29 L350 61 L345 61 Z M384 715 Q379 691 369.5 669.5 Q360 648 344.5 631 Q329 614 308 604 Q287 594 259 594 Q230 594 208.5 604 Q187 614 171 630.5 Q155 647 145 668.5 Q135 690 131 713 L184 725 Q191 694 209 671 Q227 648 260 648 Q277 648 289.5 654.5 Q302 661 311.5 672 Q321 683 327 696.5 Q333 710 337 725 L384 715 L384 715 Z " />
<glyph glyph-name="Aogonek" unicode="&#x104;" horiz-adv-x="612" d="M411 -100 Q411 -63 434 -36 Q457 -9 489 7 L433 174 L171 174 L114 0 L20 0 L257 702 L355 702 L593 0 L561 0 Q542 0 526 -7 Q510 -14 499 -25.5 Q488 -37 481.5 -51.5 Q475 -66 475 -81 Q475 -107 492 -119 Q509 -131 535 -131 Q553 -131 572.5 -125.5 Q592 -120 609 -109 L621 -151 Q602 -163 574 -171.5 Q546 -180 515 -180 Q470 -180 440.5 -160.5 Q411 -141 411 -100 Z M195 247 L410 247 L303 572 L195 247 Z " />
<glyph glyph-name="aogonek" unicode="&#x105;" horiz-adv-x="503" d="M345 61 Q336 52 321.5 40 Q307 28 287.5 17 Q268 6 243.5 -2 Q219 -10 190 -10 Q152 -10 123 2 Q94 14 75 35 Q56 56 46.5 84.5 Q37 113 37 146 Q37 184 49.5 212.5 Q62 241 84.5 260.5 Q107 280 137.5 289.5 Q168 299 204 299 L344 299 L344 348 Q344 371 340 391 Q336 411 323.5 426 Q311 441 288 450 Q265 459 227 459 Q177 459 136.5 448 Q96 437 73 428 L73 503 Q104 514 150.5 525 Q197 536 254 536 Q306 536 340.5 522 Q375 508 396 484 Q417 460 425.5 428 Q434 396 434 360 L434 0 L403 0 Q384 0 368 -7 Q352 -14 341 -25.5 Q330 -37 323.5 -51.5 Q317 -66 317 -81 Q317 -107 334 -119 Q351 -131 377 -131 Q395 -131 415 -125.5 Q435 -120 452 -109 L463 -151 Q444 -163 416.5 -171.5 Q389 -180 357 -180 Q312 -180 282.5 -160.5 Q253 -141 253 -100 Q253 -56 282.5 -27.5 Q312 1 351 16 Q350 20 350 29 L350 61 L345 61 Z M215 66 Q238 66 258.5 74.5 Q279 83 296 94 Q313 105 325.5 117 Q338 129 344 137 L344 231 L226 231 Q183 231 155.5 212.5 Q128 194 128 151 Q128 66 215 66 Z " />
<glyph glyph-name="Cacute" unicode="&#x106;" horiz-adv-x="549" d="M511 20 Q482 7 442 -1.5 Q402 -10 345 -10 Q277 -10 222.5 11.5 Q168 33 130 77.5 Q92 122 71.5 189 Q51 256 51 347 Q51 438 73.5 506.5 Q96 575 137 620 Q178 665 234.5 687.5 Q291 710 360 710 Q414 710 452 702.5 Q490 695 504 688 L504 608 Q474 619 444 625 Q414 631 372 631 Q258 631 205.5 562.5 Q153 494 153 353 Q153 211 202 140 Q251 69 362 69 Q406 69 440 77 Q474 85 511 99 L511 20 Z M341 756 L316 783 L430 922 L449 922 L491 871 L356 756 L341 756 Z " />
<glyph glyph-name="cacute" unicode="&#x107;" horiz-adv-x="451" d="M275 582 L250 609 L364 747 L383 747 L425 697 L290 582 L275 582 Z M409 19 Q382 4 346.5 -3 Q311 -10 273 -10 Q226 -10 185 6 Q144 22 112.5 54.5 Q81 87 63 136.5 Q45 186 45 254 Q45 326 64 379 Q83 432 116 467 Q149 502 193 519 Q237 536 287 536 Q322 536 352.5 531 Q383 526 407 517 L407 441 Q380 449 355.5 454 Q331 459 299 459 Q224 459 182 409.5 Q140 360 140 258 Q140 159 183.5 113 Q227 67 298 67 Q329 67 357.5 73 Q386 79 409 90 L409 19 Z " />
<glyph glyph-name="Ccircumflex" unicode="&#x108;" horiz-adv-x="549" d="M511 20 Q482 7 442 -1.5 Q402 -10 345 -10 Q277 -10 222.5 11.5 Q168 33 130 77.5 Q92 122 71.5 189 Q51 256 51 347 Q51 438 73.5 506.5 Q96 575 137 620 Q178 665 234.5 687.5 Q291 710 360 710 Q414 710 452 702.5 Q490 695 504 688 L504 608 Q474 619 444 625 Q414 631 372 631 Q258 631 205.5 562.5 Q153 494 153 353 Q153 211 202 140 Q251 69 362 69 Q406 69 440 77 Q474 85 511 99 L511 20 Z M243 758 L219 784 L339 924 L372 924 L491 784 L467 758 L452 758 L354 842 L258 758 L243 758 Z " />
<glyph glyph-name="ccircumflex" unicode="&#x109;" horiz-adv-x="451" d="M177 582 L154 607 L273 747 L305 747 L424 607 L401 582 L386 582 L288 666 L192 582 L177 582 Z M409 19 Q382 4 346.5 -3 Q311 -10 273 -10 Q226 -10 185 6 Q144 22 112.5 54.5 Q81 87 63 136.5 Q45 186 45 254 Q45 326 64 379 Q83 432 116 467 Q149 502 193 519 Q237 536 287 536 Q322 536 352.5 531 Q383 526 407 517 L407 441 Q380 449 355.5 454 Q331 459 299 459 Q224 459 182 409.5 Q140 360 140 258 Q140 159 183.5 113 Q227 67 298 67 Q329 67 357.5 73 Q386 79 409 90 L409 19 Z " />
<glyph glyph-name="Cdotaccent" unicode="&#x10a;" horiz-adv-x="549" d="M298 827 Q298 850 315 866 Q332 882 356 882 Q380 882 397 866 Q414 850 414 827 Q414 805 397 788.5 Q380 772 356 772 Q332 772 315 788.5 Q298 805 298 827 Z M511 20 Q482 7 442 -1.5 Q402 -10 345 -10 Q277 -10 222.5 11.5 Q168 33 130 77.5 Q92 122 71.5 189 Q51 256 51 347 Q51 438 73.5 506.5 Q96 575 137 620 Q178 665 234.5 687.5 Q291 710 360 710 Q414 710 452 702.5 Q490 695 504 688 L504 608 Q474 619 444 625 Q414 631 372 631 Q258 631 205.5 562.5 Q153 494 153 353 Q153 211 202 140 Q251 69 362 69 Q406 69 440 77 Q474 85 511 99 L511 20 Z " />
<glyph glyph-name="cdotaccent" unicode="&#x10b;" horiz-adv-x="451" d="M409 19 Q382 4 346.5 -3 Q311 -10 273 -10 Q226 -10 185 6 Q144 22 112.5 54.5 Q81 87 63 136.5 Q45 186 45 254 Q45 326 64 379 Q83 432 116 467 Q149 502 193 519 Q237 536 287 536 Q322 536 352.5 531 Q383 526 407 517 L407 441 Q380 449 355.5 454 Q331 459 299 459 Q224 459 182 409.5 Q140 360 140 258 Q140 159 183.5 113 Q227 67 298 67 Q329 67 357.5 73 Q386 79 409 90 L409 19 Z M230 663 Q230 684 247 701 Q264 718 288 718 Q312 718 329 701 Q346 684 346 663 Q346 640 329 623.5 Q312 607 288 607 Q264 607 247 623.5 Q230 640 230 663 Z " />
<glyph glyph-name="Ccaron" unicode="&#x10c;" horiz-adv-x="549" d="M511 20 Q482 7 442 -1.5 Q402 -10 345 -10 Q277 -10 222.5 11.5 Q168 33 130 77.5 Q92 122 71.5 189 Q51 256 51 347 Q51 438 73.5 506.5 Q96 575 137 620 Q178 665 234.5 687.5 Q291 710 360 710 Q414 710 452 702.5 Q490 695 504 688 L504 608 Q474 619 444 625 Q414 631 372 631 Q258 631 205.5 562.5 Q153 494 153 353 Q153 211 202 140 Q251 69 362 69 Q406 69 440 77 Q474 85 511 99 L511 20 Z M468 922 L492 896 L373 756 L340 756 L220 896 L244 922 L259 922 L357 838 L453 922 L468 922 Z " />
<glyph glyph-name="ccaron" unicode="&#x10d;" horiz-adv-x="451" d="M399 747 L423 721 L304 582 L271 582 L152 721 L175 747 L190 747 L289 663 L384 747 L399 747 Z M409 19 Q382 4 346.5 -3 Q311 -10 273 -10 Q226 -10 185 6 Q144 22 112.5 54.5 Q81 87 63 136.5 Q45 186 45 254 Q45 326 64 379 Q83 432 116 467 Q149 502 193 519 Q237 536 287 536 Q322 536 352.5 531 Q383 526 407 517 L407 441 Q380 449 355.5 454 Q331 459 299 459 Q224 459 182 409.5 Q140 360 140 258 Q140 159 183.5 113 Q227 67 298 67 Q329 67 357.5 73 Q386 79 409 90 L409 19 Z " />
<glyph glyph-name="Dcaron" unicode="&#x10e;" horiz-adv-x="666" d="M85 700 L304 700 Q376 700 433.5 679.5 Q491 659 531.5 616.5 Q572 574 593.5 509 Q615 444 615 355 Q615 264 593.5 197.5 Q572 131 531.5 87 Q491 43 433.5 21.5 Q376 0 304 0 L85 0 L85 700 Z M181 75 L304 75 Q413 75 463 143.5 Q513 212 513 355 Q513 494 463 559.5 Q413 625 304 625 L181 625 L181 75 Z M420 922 L444 896 L325 756 L292 756 L172 896 L196 922 L211 922 L309 838 L405 922 L420 922 Z " />
<glyph glyph-name="dcaron" unicode="&#x10f;" horiz-adv-x="582" d="M551 582 L551 780 L618 780 L618 699 L607 582 L551 582 Z M261 70 Q299 70 331.5 92 Q364 114 388 142 L388 398 Q367 424 335.5 441.5 Q304 459 271 459 Q216 459 178.5 410.5 Q141 362 141 256 Q141 203 150 167.5 Q159 132 175 110.5 Q191 89 213 79.5 Q235 70 261 70 Z M387 60 Q363 34 324.5 12 Q286 -10 234 -10 Q195 -10 160.5 6 Q126 22 100.5 54.5 Q75 87 60.5 137 Q46 187 46 255 Q46 324 63 377 Q80 430 108.5 465 Q137 500 175.5 518 Q214 536 258 536 Q298 536 331.5 521.5 Q365 507 388 487 L388 730 L479 730 L479 0 L422 0 Q404 0 398 9 Q392 18 392 29 L392 60 L387 60 Z " />
<glyph glyph-name="Dcroat" unicode="&#x110;" horiz-adv-x="674" d="M92 0 L92 331 L20 331 L20 385 L92 385 L92 700 L311 700 Q383 700 440.5 679.5 Q498 659 538.5 616.5 Q579 574 600.5 509 Q622 444 622 355 Q622 264 600.5 197.5 Q579 131 538.5 87 Q498 43 440.5 21.5 Q383 0 311 0 L92 0 Z M311 75 Q420 75 470 143.5 Q520 212 520 355 Q520 494 470 559.5 Q420 625 311 625 L188 625 L188 385 L366 385 L366 331 L188 331 L188 75 L311 75 Z " />
<glyph glyph-name="dcroat" unicode="&#x111;" horiz-adv-x="552" d="M247 641 L388 641 L388 730 L479 730 L479 641 L538 641 L538 588 L479 588 L479 0 L422 0 Q404 0 398 9 Q392 18 392 29 L392 60 L387 60 Q363 34 324.5 12 Q286 -10 234 -10 Q195 -10 160.5 6 Q126 22 100.5 54.5 Q75 87 60.5 137 Q46 187 46 255 Q46 324 63 377 Q80 430 108.5 465 Q137 500 175.5 518 Q214 536 258 536 Q298 536 331.5 521.5 Q365 507 388 487 L388 588 L247 588 L247 641 Z M261 70 Q299 70 331.5 92 Q364 114 388 142 L388 398 Q367 424 335.5 441.5 Q304 459 271 459 Q216 459 178.5 410.5 Q141 362 141 256 Q141 203 150 167.5 Q159 132 175 110.5 Q191 89 213 79.5 Q235 70 261 70 Z " />
<glyph glyph-name="Emacron" unicode="&#x112;" horiz-adv-x="567" d="M181 625 L181 395 L471 395 L471 320 L181 320 L181 75 L521 75 L521 0 L85 0 L85 700 L514 700 L514 625 L181 625 Z M189 855 L444 855 L444 801 L189 801 L189 855 Z " />
<glyph glyph-name="emacron" unicode="&#x113;" horiz-adv-x="507" d="M265 467 Q210 467 177.5 426.5 Q145 386 139 299 L376 299 L376 331 Q376 400 345 433.5 Q314 467 265 467 Z M440 25 Q414 10 375 0 Q336 -10 281 -10 Q233 -10 190.5 5.5 Q148 21 115.5 53.5 Q83 86 64 136.5 Q45 187 45 258 Q45 327 62 379.5 Q79 432 108.5 466.5 Q138 501 178.5 518.5 Q219 536 266 536 Q309 536 345.5 521.5 Q382 507 408.5 479 Q435 451 449.5 410 Q464 369 464 317 L464 244 L450 231 L139 231 Q142 184 156 151.5 Q170 119 192 99.5 Q214 80 243.5 71.5 Q273 63 309 63 Q348 63 383.5 71 Q419 79 440 88 L440 25 Z M138 684 L393 684 L393 630 L138 630 L138 684 Z " />
<glyph glyph-name="Ebreve" unicode="&#x114;" horiz-adv-x="567" d="M181 625 L181 395 L471 395 L471 320 L181 320 L181 75 L521 75 L521 0 L85 0 L85 700 L514 700 L514 625 L181 625 Z M445 889 Q441 865 431 843.5 Q421 822 405 805.5 Q389 789 367 779 Q345 769 316 769 Q287 769 265 778.5 Q243 788 227 804.5 Q211 821 201 842.5 Q191 864 187 887 L240 899 Q247 869 265 845.5 Q283 822 317 822 Q335 822 348.5 828.5 Q362 835 371.5 845.5 Q381 856 387.5 869.5 Q394 883 398 898 L445 889 L445 889 Z " />
<glyph glyph-name="ebreve" unicode="&#x115;" horiz-adv-x="507" d="M265 467 Q210 467 177.5 426.5 Q145 386 139 299 L376 299 L376 331 Q376 400 345 433.5 Q314 467 265 467 Z M440 25 Q414 10 375 0 Q336 -10 281 -10 Q233 -10 190.5 5.5 Q148 21 115.5 53.5 Q83 86 64 136.5 Q45 187 45 258 Q45 327 62 379.5 Q79 432 108.5 466.5 Q138 501 178.5 518.5 Q219 536 266 536 Q309 536 345.5 521.5 Q382 507 408.5 479 Q435 451 449.5 410 Q464 369 464 317 L464 244 L450 231 L139 231 Q142 184 156 151.5 Q170 119 192 99.5 Q214 80 243.5 71.5 Q273 63 309 63 Q348 63 383.5 71 Q419 79 440 88 L440 25 Z M393 715 Q388 691 378.5 669.5 Q369 648 353.5 631 Q338 614 317 604 Q296 594 268 594 Q239 594 217.5 604 Q196 614 180 630.5 Q164 647 154 668.5 Q144 690 140 713 L193 725 Q200 694 218 671 Q236 648 269 648 Q286 648 298.5 654.5 Q311 661 320.5 672 Q330 683 336 696.5 Q342 710 346 725 L393 715 L393 715 Z " />
<glyph glyph-name="Edotaccent" unicode="&#x116;" horiz-adv-x="567" d="M259 827 Q259 850 276 866 Q293 882 317 882 Q341 882 358 866 Q375 850 375 827 Q375 805 358 788.5 Q341 772 317 772 Q293 772 276 788.5 Q259 805 259 827 Z M181 625 L181 395 L471 395 L471 320 L181 320 L181 75 L521 75 L521 0 L85 0 L85 700 L514 700 L514 625 L181 625 Z " />
<glyph glyph-name="edotaccent" unicode="&#x117;" horiz-adv-x="507" d="M265 467 Q210 467 177.5 426.5 Q145 386 139 299 L376 299 L376 331 Q376 400 345 433.5 Q314 467 265 467 Z M440 25 Q414 10 375 0 Q336 -10 281 -10 Q233 -10 190.5 5.5 Q148 21 115.5 53.5 Q83 86 64 136.5 Q45 187 45 258 Q45 327 62 379.5 Q79 432 108.5 466.5 Q138 501 178.5 518.5 Q219 536 266 536 Q309 536 345.5 521.5 Q382 507 408.5 479 Q435 451 449.5 410 Q464 369 464 317 L464 244 L450 231 L139 231 Q142 184 156 151.5 Q170 119 192 99.5 Q214 80 243.5 71.5 Q273 63 309 63 Q348 63 383.5 71 Q419 79 440 88 L440 25 Z M207 663 Q207 684 224 701 Q241 718 265 718 Q289 718 306 701 Q323 684 323 663 Q323 640 306 623.5 Q289 607 265 607 Q241 607 224 623.5 Q207 640 207 663 Z " />
<glyph glyph-name="Eogonek" unicode="&#x118;" horiz-adv-x="566" d="M180 625 L180 395 L470 395 L470 320 L180 320 L180 75 L520 75 L520 0 L461 0 Q442 0 426 -7 Q410 -14 399 -25.5 Q388 -37 381.5 -51.5 Q375 -66 375 -81 Q375 -107 392 -119 Q409 -131 435 -131 Q453 -131 472.5 -125.5 Q492 -120 509 -109 L521 -151 Q502 -163 474 -171.5 Q446 -180 415 -180 Q370 -180 340.5 -160.5 Q311 -141 311 -100 Q311 -67 328.5 -42 Q346 -17 374 0 L84 0 L84 700 L513 700 L513 625 L180 625 Z " />
<glyph glyph-name="eogonek" unicode="&#x119;" horiz-adv-x="507" d="M335 -180 Q290 -180 260.5 -160.5 Q231 -141 231 -100 Q231 -71 244.5 -49 Q258 -27 278 -10 Q231 -10 188.5 5.5 Q146 21 114 54 Q82 87 63.5 137.5 Q45 188 45 258 Q45 327 62 379.5 Q79 432 108.5 466.5 Q138 501 178.5 518.5 Q219 536 266 536 Q309 536 345.5 521.5 Q382 507 408.5 479 Q435 451 449.5 410 Q464 369 464 317 L464 244 L450 231 L139 231 Q142 184 156 151.5 Q170 119 192 99.5 Q214 80 243.5 71.5 Q273 63 309 63 Q348 63 383.5 71 Q419 79 440 88 L440 25 Q426 17 408 10.5 Q390 4 367 -2 Q335 -10 315 -31.5 Q295 -53 295 -81 Q295 -107 312 -119 Q329 -131 355 -131 Q373 -131 392.5 -125.5 Q412 -120 429 -109 L441 -151 Q422 -163 394.5 -171.5 Q367 -180 335 -180 Z M265 467 Q210 467 177.5 426.5 Q145 386 139 299 L376 299 L376 331 Q376 400 345 433.5 Q314 467 265 467 Z " />
<glyph glyph-name="Ecaron" unicode="&#x11a;" horiz-adv-x="567" d="M181 625 L181 395 L471 395 L471 320 L181 320 L181 75 L521 75 L521 0 L85 0 L85 700 L514 700 L514 625 L181 625 Z M430 922 L454 896 L335 756 L302 756 L182 896 L206 922 L221 922 L319 838 L415 922 L430 922 Z " />
<glyph glyph-name="ecaron" unicode="&#x11b;" horiz-adv-x="507" d="M377 747 L401 721 L282 582 L249 582 L130 721 L153 747 L168 747 L267 663 L362 747 L377 747 Z M265 467 Q210 467 177.5 426.5 Q145 386 139 299 L376 299 L376 331 Q376 400 345 433.5 Q314 467 265 467 Z M440 25 Q414 10 375 0 Q336 -10 281 -10 Q233 -10 190.5 5.5 Q148 21 115.5 53.5 Q83 86 64 136.5 Q45 187 45 258 Q45 327 62 379.5 Q79 432 108.5 466.5 Q138 501 178.5 518.5 Q219 536 266 536 Q309 536 345.5 521.5 Q382 507 408.5 479 Q435 451 449.5 410 Q464 369 464 317 L464 244 L450 231 L139 231 Q142 184 156 151.5 Q170 119 192 99.5 Q214 80 243.5 71.5 Q273 63 309 63 Q348 63 383.5 71 Q419 79 440 88 L440 25 Z " />
<glyph glyph-name="Gcircumflex" unicode="&#x11c;" horiz-adv-x="602" d="M257 758 L233 784 L353 924 L386 924 L505 784 L481 758 L466 758 L368 842 L272 758 L257 758 Z M542 27 Q510 13 463 1.5 Q416 -10 352 -10 Q282 -10 226 11.5 Q170 33 131 77 Q92 121 71.5 188 Q51 255 51 346 Q51 437 73 505 Q95 573 136 618.5 Q177 664 234 687 Q291 710 362 710 Q420 710 465 701.5 Q510 693 525 685 L525 606 Q492 617 454 625 Q416 633 371 633 Q257 633 205 561.5 Q153 490 153 354 Q153 209 204.5 137 Q256 65 369 65 Q420 65 455 81 L455 343 L542 343 L542 27 Z " />
<glyph glyph-name="gcircumflex" unicode="&#x11d;" horiz-adv-x="548" d="M152 582 L129 607 L248 747 L280 747 L399 607 L376 582 L361 582 L263 666 L167 582 L152 582 Z M373 367 Q373 421 341 447 Q309 473 261 473 Q213 473 181.5 447 Q150 421 150 367 Q150 313 181.5 286 Q213 259 261 259 Q309 259 341 286 Q373 313 373 367 Z M516 -3 Q516 -49 494.5 -82.5 Q473 -116 436 -137.5 Q399 -159 349.5 -169.5 Q300 -180 244 -180 Q145 -180 88.5 -154.5 Q32 -129 32 -68 Q32 -45 39.5 -26.5 Q47 -8 58 6 Q69 20 83 30 Q97 40 111 47 Q57 69 57 127 Q57 156 75.5 183.5 Q94 211 130 231 Q98 251 79 285 Q60 319 60 367 Q60 410 76 442 Q92 474 119.5 495 Q147 516 183.5 526 Q220 536 261 536 Q304 536 337 526 L513 526 L513 455 L445 455 L441 451 Q462 416 462 367 Q462 324 446 292 Q430 260 402 239 Q374 218 337.5 207.5 Q301 197 261 197 Q218 197 184 207 Q164 196 152 182.5 Q140 169 140 155 Q140 138 155.5 128 Q171 118 206 118 L351 118 Q429 118 472.5 89 Q516 60 516 -3 Z M256 -115 Q290 -115 321 -109.5 Q352 -104 375 -92.5 Q398 -81 412 -64 Q426 -47 426 -23 Q426 7 404 21 Q382 35 331 35 L181 35 Q171 30 160 22.5 Q149 15 139.5 4.5 Q130 -6 123.5 -19.5 Q117 -33 117 -49 Q117 -115 256 -115 Z " />
<glyph glyph-name="Gbreve" unicode="&#x11e;" horiz-adv-x="602" d="M542 27 Q510 13 463 1.5 Q416 -10 352 -10 Q282 -10 226 11.5 Q170 33 131 77 Q92 121 71.5 188 Q51 255 51 346 Q51 437 73 505 Q95 573 136 618.5 Q177 664 234 687 Q291 710 362 710 Q420 710 465 701.5 Q510 693 525 685 L525 606 Q492 617 454 625 Q416 633 371 633 Q257 633 205 561.5 Q153 490 153 354 Q153 209 204.5 137 Q256 65 369 65 Q420 65 455 81 L455 343 L542 343 L542 27 Z M497 889 Q493 865 483 843.5 Q473 822 457 805.5 Q441 789 419 779 Q397 769 368 769 Q339 769 317 778.5 Q295 788 279 804.5 Q263 821 253 842.5 Q243 864 239 887 L292 899 Q299 869 317 845.5 Q335 822 369 822 Q387 822 400.5 828.5 Q414 835 423.5 845.5 Q433 856 439.5 869.5 Q446 883 450 898 L497 889 L497 889 Z " />
<glyph glyph-name="gbreve" unicode="&#x11f;" horiz-adv-x="548" d="M373 367 Q373 421 341 447 Q309 473 261 473 Q213 473 181.5 447 Q150 421 150 367 Q150 313 181.5 286 Q213 259 261 259 Q309 259 341 286 Q373 313 373 367 Z M516 -3 Q516 -49 494.5 -82.5 Q473 -116 436 -137.5 Q399 -159 349.5 -169.5 Q300 -180 244 -180 Q145 -180 88.5 -154.5 Q32 -129 32 -68 Q32 -45 39.5 -26.5 Q47 -8 58 6 Q69 20 83 30 Q97 40 111 47 Q57 69 57 127 Q57 156 75.5 183.5 Q94 211 130 231 Q98 251 79 285 Q60 319 60 367 Q60 410 76 442 Q92 474 119.5 495 Q147 516 183.5 526 Q220 536 261 536 Q304 536 337 526 L513 526 L513 455 L445 455 L441 451 Q462 416 462 367 Q462 324 446 292 Q430 260 402 239 Q374 218 337.5 207.5 Q301 197 261 197 Q218 197 184 207 Q164 196 152 182.5 Q140 169 140 155 Q140 138 155.5 128 Q171 118 206 118 L351 118 Q429 118 472.5 89 Q516 60 516 -3 Z M256 -115 Q290 -115 321 -109.5 Q352 -104 375 -92.5 Q398 -81 412 -64 Q426 -47 426 -23 Q426 7 404 21 Q382 35 331 35 L181 35 Q171 30 160 22.5 Q149 15 139.5 4.5 Q130 -6 123.5 -19.5 Q117 -33 117 -49 Q117 -115 256 -115 Z M390 715 Q385 691 375.5 669.5 Q366 648 350.5 631 Q335 614 314 604 Q293 594 265 594 Q236 594 214.5 604 Q193 614 177 630.5 Q161 647 151 668.5 Q141 690 137 713 L190 725 Q197 694 215 671 Q233 648 266 648 Q283 648 295.5 654.5 Q308 661 317.5 672 Q327 683 333 696.5 Q339 710 343 725 L390 715 L390 715 Z " />
<glyph glyph-name="Gdotaccent" unicode="&#x120;" horiz-adv-x="602" d="M311 827 Q311 850 328 866 Q345 882 369 882 Q393 882 410 866 Q427 850 427 827 Q427 805 410 788.5 Q393 772 369 772 Q345 772 328 788.5 Q311 805 311 827 Z M542 27 Q510 13 463 1.5 Q416 -10 352 -10 Q282 -10 226 11.5 Q170 33 131 77 Q92 121 71.5 188 Q51 255 51 346 Q51 437 73 505 Q95 573 136 618.5 Q177 664 234 687 Q291 710 362 710 Q420 710 465 701.5 Q510 693 525 685 L525 606 Q492 617 454 625 Q416 633 371 633 Q257 633 205 561.5 Q153 490 153 354 Q153 209 204.5 137 Q256 65 369 65 Q420 65 455 81 L455 343 L542 343 L542 27 Z " />
<glyph glyph-name="gdotaccent" unicode="&#x121;" horiz-adv-x="548" d="M373 367 Q373 421 341 447 Q309 473 261 473 Q213 473 181.5 447 Q150 421 150 367 Q150 313 181.5 286 Q213 259 261 259 Q309 259 341 286 Q373 313 373 367 Z M516 -3 Q516 -49 494.5 -82.5 Q473 -116 436 -137.5 Q399 -159 349.5 -169.5 Q300 -180 244 -180 Q145 -180 88.5 -154.5 Q32 -129 32 -68 Q32 -45 39.5 -26.5 Q47 -8 58 6 Q69 20 83 30 Q97 40 111 47 Q57 69 57 127 Q57 156 75.5 183.5 Q94 211 130 231 Q98 251 79 285 Q60 319 60 367 Q60 410 76 442 Q92 474 119.5 495 Q147 516 183.5 526 Q220 536 261 536 Q304 536 337 526 L513 526 L513 455 L445 455 L441 451 Q462 416 462 367 Q462 324 446 292 Q430 260 402 239 Q374 218 337.5 207.5 Q301 197 261 197 Q218 197 184 207 Q164 196 152 182.5 Q140 169 140 155 Q140 138 155.5 128 Q171 118 206 118 L351 118 Q429 118 472.5 89 Q516 60 516 -3 Z M256 -115 Q290 -115 321 -109.5 Q352 -104 375 -92.5 Q398 -81 412 -64 Q426 -47 426 -23 Q426 7 404 21 Q382 35 331 35 L181 35 Q171 30 160 22.5 Q149 15 139.5 4.5 Q130 -6 123.5 -19.5 Q117 -33 117 -49 Q117 -115 256 -115 Z M205 663 Q205 684 222 701 Q239 718 263 718 Q287 718 304 701 Q321 684 321 663 Q321 640 304 623.5 Q287 607 263 607 Q239 607 222 623.5 Q205 640 205 663 Z " />
<glyph glyph-name="uni0122" unicode="&#x122;" horiz-adv-x="602" d="M303 -255 L337 -194 L332 -180 Q307 -168 307 -138 Q307 -114 319 -100.5 Q331 -87 357 -87 Q382 -87 395.5 -100 Q409 -113 409 -136 Q409 -146 405 -155.5 Q401 -165 396 -174 L341 -276 L303 -255 Z M542 27 Q510 13 463 1.5 Q416 -10 352 -10 Q282 -10 226 11.5 Q170 33 131 77 Q92 121 71.5 188 Q51 255 51 346 Q51 437 73 505 Q95 573 136 618.5 Q177 664 234 687 Q291 710 362 710 Q420 710 465 701.5 Q510 693 525 685 L525 606 Q492 617 454 625 Q416 633 371 633 Q257 633 205 561.5 Q153 490 153 354 Q153 209 204.5 137 Q256 65 369 65 Q420 65 455 81 L455 343 L542 343 L542 27 Z " />
<glyph glyph-name="uni0123" unicode="&#x123;" horiz-adv-x="548" d="M323 775 L289 714 L294 700 Q319 687 319 658 Q319 634 307 620.5 Q295 607 269 607 Q244 607 230.5 620 Q217 633 217 656 Q217 666 221 675.5 Q225 685 230 694 L285 796 L323 775 Z M373 367 Q373 421 341 447 Q309 473 261 473 Q213 473 181.5 447 Q150 421 150 367 Q150 313 181.5 286 Q213 259 261 259 Q309 259 341 286 Q373 313 373 367 Z M516 -3 Q516 -49 494.5 -82.5 Q473 -116 436 -137.5 Q399 -159 349.5 -169.5 Q300 -180 244 -180 Q145 -180 88.5 -154.5 Q32 -129 32 -68 Q32 -45 39.5 -26.5 Q47 -8 58 6 Q69 20 83 30 Q97 40 111 47 Q57 69 57 127 Q57 156 75.5 183.5 Q94 211 130 231 Q98 251 79 285 Q60 319 60 367 Q60 410 76 442 Q92 474 119.5 495 Q147 516 183.5 526 Q220 536 261 536 Q304 536 337 526 L513 526 L513 455 L445 455 L441 451 Q462 416 462 367 Q462 324 446 292 Q430 260 402 239 Q374 218 337.5 207.5 Q301 197 261 197 Q218 197 184 207 Q164 196 152 182.5 Q140 169 140 155 Q140 138 155.5 128 Q171 118 206 118 L351 118 Q429 118 472.5 89 Q516 60 516 -3 Z M256 -115 Q290 -115 321 -109.5 Q352 -104 375 -92.5 Q398 -81 412 -64 Q426 -47 426 -23 Q426 7 404 21 Q382 35 331 35 L181 35 Q171 30 160 22.5 Q149 15 139.5 4.5 Q130 -6 123.5 -19.5 Q117 -33 117 -49 Q117 -115 256 -115 Z " />
<glyph glyph-name="Hcircumflex" unicode="&#x124;" horiz-adv-x="662" d="M480 320 L181 320 L181 0 L85 0 L85 700 L181 700 L181 396 L480 396 L480 700 L577 700 L577 0 L480 0 L480 320 Z M217 758 L193 784 L313 924 L346 924 L465 784 L441 758 L426 758 L328 842 L232 758 L217 758 Z " />
<glyph glyph-name="hcircumflex" unicode="&#x125;" horiz-adv-x="558" d="M6 776 L-17 801 L102 941 L134 941 L253 801 L230 776 L215 776 L117 860 L21 776 L6 776 Z M306 456 Q283 456 260.5 447.5 Q238 439 219.5 427.5 Q201 416 186.5 403.5 Q172 391 164 382 L164 0 L73 0 L73 730 L164 730 L164 465 Q173 474 188.5 486 Q204 498 224.5 509 Q245 520 270 528 Q295 536 324 536 Q370 536 401.5 523 Q433 510 452.5 488.5 Q472 467 480.5 438 Q489 409 489 376 L489 0 L398 0 L398 351 Q398 371 394.5 390 Q391 409 381.5 423.5 Q372 438 354 447 Q336 456 306 456 Z " />
<glyph glyph-name="Hbar" unicode="&#x126;" horiz-adv-x="674" d="M20 561 L92 561 L92 700 L188 700 L188 561 L487 561 L487 700 L584 700 L584 561 L650 561 L650 507 L584 507 L584 0 L487 0 L487 320 L188 320 L188 0 L92 0 L92 507 L20 507 L20 561 Z M487 396 L487 507 L188 507 L188 396 L487 396 Z " />
<glyph glyph-name="hbar" unicode="&#x127;" horiz-adv-x="558" d="M23 641 L73 641 L73 731 L164 731 L164 641 L315 641 L315 588 L164 588 L164 466 Q173 475 188.5 487 Q204 499 224.5 510 Q245 521 270 529 Q295 537 324 537 Q370 537 401.5 524 Q433 511 452.5 489.5 Q472 468 480.5 439 Q489 410 489 377 L489 1 L398 1 L398 352 Q398 372 394.5 391 Q391 410 381.5 424.5 Q372 439 354 448 Q336 457 306 457 Q283 457 260.5 448.5 Q238 440 219.5 428.5 Q201 417 186.5 404.5 Q172 392 164 383 L164 1 L73 1 L73 588 L23 588 L23 641 Z " />
<glyph glyph-name="Itilde" unicode="&#x128;" horiz-adv-x="266" d="M85 700 L181 700 L181 0 L85 0 L85 700 Z M293 894 L293 855 Q293 815 273 794.5 Q253 774 216 774 Q192 774 170.5 782.5 Q149 791 130.5 800.5 Q112 810 95 818.5 Q78 827 62 827 Q44 827 35.5 817.5 Q27 808 27 800 L27 765 L-26 765 L-26 801 Q-26 846 -4.5 866.5 Q17 887 53 887 Q76 887 96.5 878.5 Q117 870 136 859.5 Q155 849 172.5 840.5 Q190 832 208 832 Q227 832 234 842 Q241 852 241 861 L241 894 L293 894 Z " />
<glyph glyph-name="itilde" unicode="&#x129;" horiz-adv-x="237" d="M164 526 L164 0 L73 0 L73 526 L164 526 Z M278 719 L278 680 Q278 641 258 620.5 Q238 600 201 600 Q177 600 155.5 608 Q134 616 115.5 626 Q97 636 80 644 Q63 652 47 652 Q29 652 20.5 643 Q12 634 12 625 L12 591 L-41 591 L-41 626 Q-41 671 -19.5 691.5 Q2 712 38 712 Q61 712 81.5 703.5 Q102 695 121 685 Q140 675 157.5 666.5 Q175 658 193 658 Q212 658 219 667.5 Q226 677 226 687 L226 719 L278 719 Z " />
<glyph glyph-name="Imacron" unicode="&#x12a;" horiz-adv-x="266" d="M85 700 L181 700 L181 0 L85 0 L85 700 Z M5 855 L260 855 L260 801 L5 801 L5 855 Z " />
<glyph glyph-name="imacron" unicode="&#x12b;" horiz-adv-x="237" d="M164 526 L164 0 L73 0 L73 526 L164 526 Z M-10 684 L245 684 L245 630 L-10 630 L-10 684 Z " />
<glyph glyph-name="Iogonek" unicode="&#x12e;" horiz-adv-x="267" d="M86 700 L182 700 L182 0 L153 0 Q134 0 118.5 -7 Q103 -14 91.5 -25.5 Q80 -37 74 -51.5 Q68 -66 68 -81 Q68 -107 85 -119 Q102 -131 128 -131 Q145 -131 165 -125.5 Q185 -120 202 -109 L214 -151 Q194 -163 166.5 -171.5 Q139 -180 108 -180 Q63 -180 33 -160.5 Q3 -141 3 -100 Q3 -62 27 -34 Q51 -6 86 9 L86 700 Z " />
<glyph glyph-name="iogonek" unicode="&#x12f;" horiz-adv-x="238" d="M165 526 L165 0 L140 0 Q121 0 105.5 -7 Q90 -14 78.5 -25.5 Q67 -37 61 -51.5 Q55 -66 55 -81 Q55 -107 72 -119 Q89 -131 115 -131 Q132 -131 152 -125.5 Q172 -120 189 -109 L201 -151 Q181 -163 153.5 -171.5 Q126 -180 95 -180 Q50 -180 20 -160.5 Q-10 -141 -10 -100 Q-10 -62 14.5 -34 Q39 -6 74 10 L74 526 L165 526 Z M63 677 Q63 701 77.5 715.5 Q92 730 119 730 Q147 730 161.5 715.5 Q176 701 176 677 Q176 653 161.5 638 Q147 623 119 623 Q92 623 77.5 638 Q63 653 63 677 Z " />
<glyph glyph-name="Idotaccent" unicode="&#x130;" horiz-adv-x="266" d="M85 700 L181 700 L181 0 L85 0 L85 700 Z M76 827 Q76 850 93 866 Q110 882 134 882 Q158 882 175 866 Q192 850 192 827 Q192 805 175 788.5 Q158 772 134 772 Q110 772 93 788.5 Q76 805 76 827 Z " />
<glyph glyph-name="dotlessi" unicode="&#x131;" horiz-adv-x="237" d="M164 526 L164 0 L73 0 L73 526 L164 526 Z " />
<glyph glyph-name="IJ" unicode="&#x132;" horiz-adv-x="573" d="M397 700 L493 700 L493 217 Q493 -10 254 -10 Q192 -10 150 2.5 Q108 15 82 30 L82 106 Q120 89 158.5 78.5 Q197 68 241 68 Q281 68 310 75.5 Q339 83 358.5 100 Q378 117 387.5 145 Q397 173 397 214 L397 700 Z M82 700 L178 700 L178 207 L82 207 L82 700 Z " />
<glyph glyph-name="ij" unicode="&#x133;" horiz-adv-x="501" d="M163 526 L163 0 L72 0 L72 526 L163 526 Z M61 677 Q61 701 75.5 715.5 Q90 730 117 730 Q145 730 159.5 715.5 Q174 701 174 677 Q174 653 159.5 638 Q145 623 117 623 Q90 623 75.5 638 Q61 653 61 677 Z M202 -105 Q209 -107 218 -107.5 Q227 -108 235.5 -108.5 Q244 -109 251 -109 Q258 -109 261 -109 Q303 -109 320.5 -85 Q338 -61 338 -4 L338 526 L429 526 L429 0 Q429 -41 420.5 -74 Q412 -107 392.5 -130.5 Q373 -154 342 -167 Q311 -180 266 -180 Q248 -180 231 -178 Q214 -176 202 -174 L202 -105 Z M327 677 Q327 701 341.5 715.5 Q356 730 383 730 Q411 730 425.5 715.5 Q440 701 440 677 Q440 653 425.5 638 Q411 623 383 623 Q356 623 341.5 638 Q327 653 327 677 Z " />
<glyph glyph-name="Jcircumflex" unicode="&#x134;" horiz-adv-x="429" d="M252 700 L349 700 L349 209 Q349 100 300.5 45 Q252 -10 150 -10 Q105 -10 73.5 -2 Q42 6 23 17 L23 94 Q74 68 137 68 Q197 68 224.5 98.5 Q252 129 252 205 L252 700 Z M187 758 L163 784 L283 924 L316 924 L435 784 L411 758 L396 758 L298 842 L202 758 L187 758 Z " />
<glyph glyph-name="jcircumflex" unicode="&#x135;" horiz-adv-x="237" d="M-63 -111 Q-60 -112 -51 -112.5 Q-42 -113 -32.5 -113 Q-23 -113 -15 -113 Q-7 -113 -4 -113 Q38 -113 55.5 -88 Q73 -63 73 -4 L73 526 L164 526 L164 0 Q164 -41 155.5 -74 Q147 -107 127.5 -130.5 Q108 -154 77 -167 Q46 -180 1 -180 Q-17 -180 -33.5 -178 Q-50 -176 -63 -174 L-63 -111 Z M6 582 L-17 607 L102 747 L134 747 L253 607 L230 582 L215 582 L117 666 L21 582 L6 582 Z " />
<glyph glyph-name="uni0136" unicode="&#x136;" horiz-adv-x="611" d="M261 -255 L295 -194 L290 -180 Q265 -168 265 -138 Q265 -114 277 -100.5 Q289 -87 315 -87 Q340 -87 353.5 -100 Q367 -113 367 -136 Q367 -146 363 -155.5 Q359 -165 354 -174 L299 -276 L261 -255 Z M282 320 L181 320 L181 0 L85 0 L85 700 L181 700 L181 396 L281 396 L485 700 L587 700 L362 365 L599 0 L485 0 L282 320 Z " />
<glyph glyph-name="uni0137" unicode="&#x137;" horiz-adv-x="532" d="M219 -255 L253 -194 L248 -180 Q223 -168 223 -138 Q223 -114 235 -100.5 Q247 -87 273 -87 Q298 -87 311.5 -100 Q325 -113 325 -136 Q325 -146 321 -155.5 Q317 -165 312 -174 L257 -276 L219 -255 Z M244 252 L164 252 L164 0 L73 0 L73 730 L164 730 L164 322 L238 322 L410 526 L515 526 L319 296 L514 0 L407 0 L244 252 Z " />
<glyph glyph-name="kgreenlandic" unicode="&#x138;" horiz-adv-x="532" d="M244 252 L164 252 L164 0 L73 0 L73 526 L164 526 L164 322 L238 322 L410 526 L515 526 L319 296 L514 0 L407 0 L244 252 Z " />
<glyph glyph-name="Lacute" unicode="&#x139;" horiz-adv-x="534" d="M129 756 L104 783 L218 922 L237 922 L279 871 L144 756 L129 756 Z M181 75 L515 75 L515 0 L85 0 L85 700 L181 700 L181 75 Z " />
<glyph glyph-name="lacute" unicode="&#x13a;" horiz-adv-x="242" d="M119 787 L94 814 L208 952 L227 952 L269 902 L134 787 L119 787 Z M167 730 L167 0 L76 0 L76 730 L167 730 Z " />
<glyph glyph-name="uni013B" unicode="&#x13b;" horiz-adv-x="534" d="M245 -255 L279 -194 L274 -180 Q249 -168 249 -138 Q249 -114 261 -100.5 Q273 -87 299 -87 Q324 -87 337.5 -100 Q351 -113 351 -136 Q351 -146 347 -155.5 Q343 -165 338 -174 L283 -276 L245 -255 Z M181 75 L515 75 L515 0 L85 0 L85 700 L181 700 L181 75 Z " />
<glyph glyph-name="uni013C" unicode="&#x13c;" horiz-adv-x="242" d="M63 -255 L97 -194 L92 -180 Q67 -168 67 -138 Q67 -114 79 -100.5 Q91 -87 117 -87 Q142 -87 155.5 -100 Q169 -113 169 -136 Q169 -146 165 -155.5 Q161 -165 156 -174 L101 -276 L63 -255 Z M167 730 L167 0 L76 0 L76 730 L167 730 Z " />
<glyph glyph-name="Lcaron" unicode="&#x13d;" horiz-adv-x="543" d="M437 582 L437 780 L504 780 L504 699 L493 582 L437 582 Z M180 75 L514 75 L514 0 L84 0 L84 700 L180 700 L180 75 Z " />
<glyph glyph-name="lcaron" unicode="&#x13e;" horiz-adv-x="270" d="M239 582 L239 780 L306 780 L306 699 L295 582 L239 582 Z M167 730 L167 0 L76 0 L76 730 L167 730 Z " />
<glyph glyph-name="zero.denominator" unicode="&#xf655;" horiz-adv-x="328" d="M228 162 Q228 217 214 245 Q200 273 165 273 Q130 273 115 245 Q100 217 100 162 Q100 107 115 79 Q130 51 165 51 Q200 51 214 79 Q228 107 228 162 Z M294 162 Q294 75 259.5 35 Q225 -5 165 -5 Q104 -5 69.5 35 Q35 75 35 163 Q35 250 69.5 289.5 Q104 329 165 329 Q224 329 259 289 Q294 249 294 162 Z " />
<glyph glyph-name="fraction" unicode="&#x2044;" horiz-adv-x="90" d="M-239 0 L271 700 L330 700 L-178 0 L-239 0 Z " />
<glyph glyph-name="guilsinglright" unicode="&#x203a;" horiz-adv-x="307" d="M265 239 L121 46 L49 46 L193 255 L49 463 L121 463 L265 271 L265 239 Z " />
<glyph glyph-name="two.denominator" unicode="&#xf657;" horiz-adv-x="298" d="M37 0 L37 56 Q37 75 41 88.5 Q45 102 55 114 Q65 126 82 138 Q99 150 125 166 Q164 190 178 205 Q192 220 192 237 Q192 254 179 263 Q166 272 137 272 Q92 272 40 253 L40 306 Q53 312 70 317 Q84 322 103.5 325.5 Q123 329 146 329 Q177 329 198 321.5 Q219 314 232 301.5 Q245 289 251 272.5 Q257 256 257 239 Q257 204 235 179.5 Q213 155 163 125 Q132 106 119.5 96 Q107 86 107 72 L107 56 L265 56 L265 0 L37 0 Z " />
<glyph glyph-name="three.denominator" unicode="&#xf658;" horiz-adv-x="288" d="M40 315 Q52 318 67 322 Q79 324 95.5 326.5 Q112 329 131 329 Q163 329 185 321.5 Q207 314 221 302.5 Q235 291 241 276 Q247 261 247 246 Q247 209 230 191 Q213 173 187 166 L187 164 Q217 157 235 140 Q253 123 253 88 Q253 70 246.5 53.5 Q240 37 225.5 23.5 Q211 10 187.5 2 Q164 -6 130 -6 Q91 -6 67.5 0 Q44 6 35 8 L35 63 Q56 58 77.5 53.5 Q99 49 124 49 Q157 49 171.5 61.5 Q186 74 186 94 Q186 119 170 129 Q154 139 128 139 L93 139 L93 189 L128 189 Q153 189 167.5 199 Q182 209 182 234 Q182 250 169.5 262 Q157 274 126 274 Q107 274 83.5 270.5 Q60 267 40 262 L40 315 Z " />
<glyph glyph-name="one.denominator" unicode="&#xf656;" horiz-adv-x="247" d="M37 0 L37 46 L96 46 L96 256 L37 256 L37 304 L86 304 Q101 304 111 312 Q121 320 123 328 L163 328 L163 46 L222 46 L222 0 L37 0 Z " />
<glyph glyph-name="four.denominator" unicode="&#xf659;" horiz-adv-x="312" d="M24 129 L181 329 L240 329 L240 129 L282 129 L282 76 L240 76 L240 0 L176 0 L176 76 L24 76 L24 129 Z M176 249 L78 129 L176 129 L176 249 Z " />
<glyph glyph-name="circumflex" unicode="&#x2c6;" horiz-adv-x="400" d="M85 582 L62 607 L181 747 L213 747 L332 607 L309 582 L294 582 L196 666 L100 582 L85 582 Z " />
<glyph glyph-name="tilde" unicode="&#x2dc;" horiz-adv-x="400" d="M360 719 L360 680 Q360 641 340 620.5 Q320 600 283 600 Q259 600 237.5 608 Q216 616 197.5 626 Q179 636 162 644 Q145 652 129 652 Q111 652 102.5 643 Q94 634 94 625 L94 591 L41 591 L41 626 Q41 671 62.5 691.5 Q84 712 120 712 Q143 712 163.5 703.5 Q184 695 203 685 Q222 675 239.5 666.5 Q257 658 275 658 Q294 658 301 667.5 Q308 677 308 687 L308 719 L360 719 Z " />
<glyph glyph-name="ring" unicode="&#x2da;" horiz-adv-x="400" d="M312 656 Q312 614 279.5 593.5 Q247 573 199 573 Q152 573 120 593.5 Q88 614 88 656 Q88 699 120 719.5 Q152 740 199 740 Q247 740 279.5 719.5 Q312 699 312 656 Z M260 656 Q260 679 243.5 691 Q227 703 199 703 Q172 703 156 691 Q140 679 140 656 Q140 633 156 621 Q172 609 199 609 Q227 609 243.5 621 Q260 633 260 656 Z " />
<glyph glyph-name="breve" unicode="&#x2d8;" horiz-adv-x="400" d="M327 715 Q322 691 312.5 669.5 Q303 648 287.5 631 Q272 614 251 604 Q230 594 202 594 Q173 594 151.5 604 Q130 614 114 630.5 Q98 647 88 668.5 Q78 690 74 713 L127 725 Q134 694 152 671 Q170 648 203 648 Q220 648 232.5 654.5 Q245 661 254.5 672 Q264 683 270 696.5 Q276 710 280 725 L327 715 L327 715 Z " />
<glyph glyph-name="dotaccent" unicode="&#x2d9;" horiz-adv-x="280" d="M82 663 Q82 684 99 701 Q116 718 140 718 Q164 718 181 701 Q198 684 198 663 Q198 640 181 623.5 Q164 607 140 607 Q116 607 99 623.5 Q82 640 82 663 Z " />
<glyph glyph-name="caron" unicode="&#x2c7;" horiz-adv-x="405" d="M310 747 L334 721 L215 582 L182 582 L63 721 L86 747 L101 747 L200 663 L295 747 L310 747 Z " />
<glyph glyph-name="commaaccent" unicode="&#xf6c3;" horiz-adv-x="248" d="M89 -255 L123 -194 L118 -180 Q93 -168 93 -138 Q93 -114 105 -100.5 Q117 -87 143 -87 Q168 -87 181.5 -100 Q195 -113 195 -136 Q195 -146 191 -155.5 Q187 -165 182 -174 L127 -276 L89 -255 Z " />
<glyph glyph-name="Ldot" unicode="&#x13f;" horiz-adv-x="554" d="M181 75 L515 75 L515 0 L85 0 L85 700 L181 700 L181 75 Z M365 370 Q365 391 382 408 Q399 425 423 425 Q447 425 464 408 Q481 391 481 370 Q481 347 464 330.5 Q447 314 423 314 Q399 314 382 330.5 Q365 347 365 370 Z " />
<glyph glyph-name="ldot" unicode="&#x140;" horiz-adv-x="389" d="M253 365 Q253 386 270 403 Q287 420 311 420 Q335 420 352 403 Q369 386 369 365 Q369 342 352 325.5 Q335 309 311 309 Q287 309 270 325.5 Q253 342 253 365 Z M167 730 L167 0 L76 0 L76 730 L167 730 Z " />
<glyph glyph-name="Lslash" unicode="&#x141;" horiz-adv-x="561" d="M208 406 L337 481 L337 420 L208 345 L208 75 L542 75 L542 0 L112 0 L112 291 L17 237 L17 298 L112 352 L112 700 L208 700 L208 406 Z " />
<glyph glyph-name="lslash" unicode="&#x142;" horiz-adv-x="322" d="M208 730 L208 417 L301 477 L301 419 L208 359 L208 0 L118 0 L118 302 L25 243 L25 301 L118 360 L118 730 L208 730 Z " />
<glyph glyph-name="Nacute" unicode="&#x143;" horiz-adv-x="661" d="M335 756 L310 783 L424 922 L443 922 L485 871 L350 756 L335 756 Z M505 -2 L169 533 L169 0 L84 0 L84 700 L168 700 L491 185 L491 700 L576 700 L576 -2 L505 -2 Z " />
<glyph glyph-name="nacute" unicode="&#x144;" horiz-adv-x="558" d="M283 582 L258 609 L372 747 L391 747 L433 697 L298 582 L283 582 Z M306 456 Q283 456 260.5 447.5 Q238 439 219.5 427.5 Q201 416 186.5 403.5 Q172 391 164 382 L164 0 L73 0 L73 526 L130 526 Q148 526 153.5 517 Q159 508 159 497 L159 465 L163 465 Q172 473 187.5 485 Q203 497 223.5 508.5 Q244 520 269.5 528 Q295 536 324 536 Q370 536 401.5 523 Q433 510 452.5 488.5 Q472 467 480.5 438 Q489 409 489 376 L489 0 L398 0 L398 351 Q398 371 394.5 390 Q391 409 381.5 423.5 Q372 438 354 447 Q336 456 306 456 Z " />
<glyph glyph-name="uni0145" unicode="&#x145;" horiz-adv-x="661" d="M276 -255 L310 -194 L305 -180 Q280 -168 280 -138 Q280 -114 292 -100.5 Q304 -87 330 -87 Q355 -87 368.5 -100 Q382 -113 382 -136 Q382 -146 378 -155.5 Q374 -165 369 -174 L314 -276 L276 -255 Z M505 -2 L169 533 L169 0 L84 0 L84 700 L168 700 L491 185 L491 700 L576 700 L576 -2 L505 -2 Z " />
<glyph glyph-name="uni0146" unicode="&#x146;" horiz-adv-x="558" d="M224 -255 L258 -194 L253 -180 Q228 -168 228 -138 Q228 -114 240 -100.5 Q252 -87 278 -87 Q303 -87 316.5 -100 Q330 -113 330 -136 Q330 -146 326 -155.5 Q322 -165 317 -174 L262 -276 L224 -255 Z M306 456 Q283 456 260.5 447.5 Q238 439 219.5 427.5 Q201 416 186.5 403.5 Q172 391 164 382 L164 0 L73 0 L73 526 L130 526 Q148 526 153.5 517 Q159 508 159 497 L159 465 L163 465 Q172 473 187.5 485 Q203 497 223.5 508.5 Q244 520 269.5 528 Q295 536 324 536 Q370 536 401.5 523 Q433 510 452.5 488.5 Q472 467 480.5 438 Q489 409 489 376 L489 0 L398 0 L398 351 Q398 371 394.5 390 Q391 409 381.5 423.5 Q372 438 354 447 Q336 456 306 456 Z " />
<glyph glyph-name="Ncaron" unicode="&#x147;" horiz-adv-x="661" d="M505 -2 L169 533 L169 0 L84 0 L84 700 L168 700 L491 185 L491 700 L576 700 L576 -2 L505 -2 Z M454 922 L478 896 L359 756 L326 756 L206 896 L230 922 L245 922 L343 838 L439 922 L454 922 Z " />
<glyph glyph-name="ncaron" unicode="&#x148;" horiz-adv-x="558" d="M399 747 L423 721 L304 582 L271 582 L152 721 L175 747 L190 747 L289 663 L384 747 L399 747 Z M306 456 Q283 456 260.5 447.5 Q238 439 219.5 427.5 Q201 416 186.5 403.5 Q172 391 164 382 L164 0 L73 0 L73 526 L130 526 Q148 526 153.5 517 Q159 508 159 497 L159 465 L163 465 Q172 473 187.5 485 Q203 497 223.5 508.5 Q244 520 269.5 528 Q295 536 324 536 Q370 536 401.5 523 Q433 510 452.5 488.5 Q472 467 480.5 438 Q489 409 489 376 L489 0 L398 0 L398 351 Q398 371 394.5 390 Q391 409 381.5 423.5 Q372 438 354 447 Q336 456 306 456 Z " />
<glyph glyph-name="napostrophe" unicode="&#x149;" horiz-adv-x="558" d="M42 602 L76 663 L71 677 Q46 689 46 719 Q46 743 58 756.5 Q70 770 96 770 Q121 770 134.5 757 Q148 744 148 721 Q148 711 144 701.5 Q140 692 135 683 L80 581 L42 602 Z M306 456 Q283 456 260.5 447.5 Q238 439 219.5 427.5 Q201 416 186.5 403.5 Q172 391 164 382 L164 0 L73 0 L73 526 L130 526 Q148 526 153.5 517 Q159 508 159 497 L159 465 L163 465 Q172 473 187.5 485 Q203 497 223.5 508.5 Q244 520 269.5 528 Q295 536 324 536 Q370 536 401.5 523 Q433 510 452.5 488.5 Q472 467 480.5 438 Q489 409 489 376 L489 0 L398 0 L398 351 Q398 371 394.5 390 Q391 409 381.5 423.5 Q372 438 354 447 Q336 456 306 456 Z " />
<glyph glyph-name="Omacron" unicode="&#x14c;" horiz-adv-x="674" d="M52 350 Q52 442 73 510 Q94 578 131.5 622.5 Q169 667 221.5 688.5 Q274 710 337 710 Q400 710 452.5 688.5 Q505 667 542.5 622.5 Q580 578 601 510 Q622 442 622 349 Q622 257 601 189 Q580 121 542.5 77 Q505 33 452.5 11.5 Q400 -10 337 -10 Q274 -10 221.5 11.5 Q169 33 131.5 77.5 Q94 122 73 190 Q52 258 52 350 Z M154 350 Q154 204 199.5 136 Q245 68 337 68 Q428 68 474 136 Q520 204 520 349 Q520 496 474.5 564.5 Q429 633 337 633 Q245 633 199.5 564.5 Q154 496 154 350 Z M213 855 L468 855 L468 801 L213 801 L213 855 Z " />
<glyph glyph-name="omacron" unicode="&#x14d;" horiz-adv-x="547" d="M143 684 L398 684 L398 630 L143 630 L143 684 Z M502 263 Q502 194 484 143 Q466 92 435 58 Q404 24 362.5 7 Q321 -10 273 -10 Q226 -10 184.5 7 Q143 24 112 58 Q81 92 63 143 Q45 194 45 263 Q45 332 63 383.5 Q81 435 112 468.5 Q143 502 184.5 519 Q226 536 273 536 Q321 536 362.5 519 Q404 502 435 468.5 Q466 435 484 383.5 Q502 332 502 263 Z M407 263 Q407 363 372 412 Q337 461 273 461 Q210 461 175 412 Q140 363 140 263 Q140 163 175 113.5 Q210 64 273 64 Q337 64 372 113.5 Q407 163 407 263 Z " />
<glyph glyph-name="Obreve" unicode="&#x14e;" horiz-adv-x="674" d="M52 350 Q52 442 73 510 Q94 578 131.5 622.5 Q169 667 221.5 688.5 Q274 710 337 710 Q400 710 452.5 688.5 Q505 667 542.5 622.5 Q580 578 601 510 Q622 442 622 349 Q622 257 601 189 Q580 121 542.5 77 Q505 33 452.5 11.5 Q400 -10 337 -10 Q274 -10 221.5 11.5 Q169 33 131.5 77.5 Q94 122 73 190 Q52 258 52 350 Z M154 350 Q154 204 199.5 136 Q245 68 337 68 Q428 68 474 136 Q520 204 520 349 Q520 496 474.5 564.5 Q429 633 337 633 Q245 633 199.5 564.5 Q154 496 154 350 Z M470 889 Q466 865 456 843.5 Q446 822 430 805.5 Q414 789 392 779 Q370 769 341 769 Q312 769 290 778.5 Q268 788 252 804.5 Q236 821 226 842.5 Q216 864 212 887 L265 899 Q272 869 290 845.5 Q308 822 342 822 Q360 822 373.5 828.5 Q387 835 396.5 845.5 Q406 856 412.5 869.5 Q419 883 423 898 L470 889 L470 889 Z " />
<glyph glyph-name="obreve" unicode="&#x14f;" horiz-adv-x="547" d="M502 263 Q502 194 484 143 Q466 92 435 58 Q404 24 362.5 7 Q321 -10 273 -10 Q226 -10 184.5 7 Q143 24 112 58 Q81 92 63 143 Q45 194 45 263 Q45 332 63 383.5 Q81 435 112 468.5 Q143 502 184.5 519 Q226 536 273 536 Q321 536 362.5 519 Q404 502 435 468.5 Q466 435 484 383.5 Q502 332 502 263 Z M407 263 Q407 363 372 412 Q337 461 273 461 Q210 461 175 412 Q140 363 140 263 Q140 163 175 113.5 Q210 64 273 64 Q337 64 372 113.5 Q407 163 407 263 Z M399 715 Q394 691 384.5 669.5 Q375 648 359.5 631 Q344 614 323 604 Q302 594 274 594 Q245 594 223.5 604 Q202 614 186 630.5 Q170 647 160 668.5 Q150 690 146 713 L199 725 Q206 694 224 671 Q242 648 275 648 Q292 648 304.5 654.5 Q317 661 326.5 672 Q336 683 342 696.5 Q348 710 352 725 L399 715 L399 715 Z " />
<glyph glyph-name="Ohungarumlaut" unicode="&#x150;" horiz-adv-x="674" d="M273 756 L252 780 L360 922 L378 922 L411 887 L288 756 L273 756 Z M389 756 L373 779 L494 908 L512 908 L549 868 L404 756 L389 756 Z M52 350 Q52 442 73 510 Q94 578 131.5 622.5 Q169 667 221.5 688.5 Q274 710 337 710 Q400 710 452.5 688.5 Q505 667 542.5 622.5 Q580 578 601 510 Q622 442 622 349 Q622 257 601 189 Q580 121 542.5 77 Q505 33 452.5 11.5 Q400 -10 337 -10 Q274 -10 221.5 11.5 Q169 33 131.5 77.5 Q94 122 73 190 Q52 258 52 350 Z M154 350 Q154 204 199.5 136 Q245 68 337 68 Q428 68 474 136 Q520 204 520 349 Q520 496 474.5 564.5 Q429 633 337 633 Q245 633 199.5 564.5 Q154 496 154 350 Z " />
<glyph glyph-name="ohungarumlaut" unicode="&#x151;" horiz-adv-x="547" d="M204 582 L183 605 L290 747 L308 747 L341 712 L218 582 L204 582 Z M320 582 L303 604 L424 734 L442 734 L479 694 L334 582 L320 582 Z M502 263 Q502 194 484 143 Q466 92 435 58 Q404 24 362.5 7 Q321 -10 273 -10 Q226 -10 184.5 7 Q143 24 112 58 Q81 92 63 143 Q45 194 45 263 Q45 332 63 383.5 Q81 435 112 468.5 Q143 502 184.5 519 Q226 536 273 536 Q321 536 362.5 519 Q404 502 435 468.5 Q466 435 484 383.5 Q502 332 502 263 Z M407 263 Q407 363 372 412 Q337 461 273 461 Q210 461 175 412 Q140 363 140 263 Q140 163 175 113.5 Q210 64 273 64 Q337 64 372 113.5 Q407 163 407 263 Z " />
<glyph glyph-name="hungarumlaut" unicode="&#x2dd;" horiz-adv-x="400" d="M75 582 L54 605 L161 747 L179 747 L212 712 L89 582 L75 582 Z M191 582 L174 604 L295 734 L313 734 L350 694 L205 582 L191 582 Z " />
<glyph glyph-name="OE" unicode="&#x152;" horiz-adv-x="941" d="M348 67 Q415 67 460 82 L460 617 Q418 633 348 633 Q246 633 200 564 Q154 495 154 350 Q154 204 199.5 135.5 Q245 67 348 67 Z M473 0 Q420 -10 347 -10 Q278 -10 223.5 11.5 Q169 33 131 77 Q93 121 72.5 189 Q52 257 52 350 Q52 443 72.5 511 Q93 579 131 623 Q169 667 223.5 688.5 Q278 710 347 710 Q384 710 415.5 707.5 Q447 705 476 700 L889 700 L889 625 L556 625 L556 395 L846 395 L846 320 L556 320 L556 75 L896 75 L896 0 L473 0 Z " />
<glyph glyph-name="oe" unicode="&#x153;" horiz-adv-x="865" d="M622 467 Q568 467 535.5 426.5 Q503 386 497 299 L734 299 L734 331 Q734 400 703 433.5 Q672 467 622 467 Z M407 263 Q407 364 372 415 Q337 466 273 466 Q210 466 175 415 Q140 364 140 263 Q140 162 175 111 Q210 60 273 60 Q337 60 372 111 Q407 162 407 263 Z M797 25 Q771 10 732.5 0 Q694 -10 638 -10 Q579 -10 529.5 17 Q480 44 451 104 Q423 47 376.5 18.5 Q330 -10 273 -10 Q226 -10 184.5 7 Q143 24 112 58 Q81 92 63 143 Q45 194 45 263 Q45 332 63 383.5 Q81 435 112 468.5 Q143 502 184.5 519 Q226 536 273 536 Q330 536 376 508 Q422 480 450 423 Q476 480 521 508 Q566 536 623 536 Q667 536 703.5 521.5 Q740 507 766.5 479 Q793 451 807.5 410 Q822 369 822 317 L822 244 L808 232 L497 232 Q500 184 514 152 Q528 120 550 100 Q572 80 601.5 71.5 Q631 63 667 63 Q705 63 741 71 Q777 79 797 88 L797 25 Z " />
<glyph glyph-name="Racute" unicode="&#x154;" horiz-adv-x="621" d="M85 700 L313 700 Q371 700 417.5 689 Q464 678 496 654 Q528 630 545.5 593.5 Q563 557 563 506 Q563 464 550.5 432.5 Q538 401 517 379.5 Q496 358 467.5 345.5 Q439 333 407 330 L407 328 Q429 324 444.5 312.5 Q460 301 472 283 Q484 265 493 241 Q502 217 513 189 L581 0 L474 0 L398 221 Q382 267 359.5 280.5 Q337 294 306 294 L181 294 L181 0 L85 0 L85 700 Z M181 628 L181 366 L308 366 Q386 366 424.5 399 Q463 432 463 501 Q463 628 311 628 L181 628 Z M303 756 L278 783 L392 922 L411 922 L453 871 L318 756 L303 756 Z " />
<glyph glyph-name="racute" unicode="&#x155;" horiz-adv-x="375" d="M207 582 L182 609 L296 747 L315 747 L357 697 L222 582 L207 582 Z M300 453 Q277 453 256 446 Q235 439 218 428 Q201 417 187 403.5 Q173 390 164 377 L164 0 L73 0 L73 526 L130 526 Q148 526 153.5 517 Q159 508 159 497 L159 457 L163 457 Q172 467 186 480.5 Q200 494 220 506.5 Q240 519 265 527.5 Q290 536 320 536 Q347 536 359 533 L359 447 L347 447 Q337 449 325.5 451 Q314 453 300 453 Z " />
<glyph glyph-name="uni0156" unicode="&#x156;" horiz-adv-x="621" d="M273 -255 L307 -194 L302 -180 Q277 -168 277 -138 Q277 -114 289 -100.5 Q301 -87 327 -87 Q352 -87 365.5 -100 Q379 -113 379 -136 Q379 -146 375 -155.5 Q371 -165 366 -174 L311 -276 L273 -255 Z M85 700 L313 700 Q371 700 417.5 689 Q464 678 496 654 Q528 630 545.5 593.5 Q563 557 563 506 Q563 464 550.5 432.5 Q538 401 517 379.5 Q496 358 467.5 345.5 Q439 333 407 330 L407 328 Q429 324 444.5 312.5 Q460 301 472 283 Q484 265 493 241 Q502 217 513 189 L581 0 L474 0 L398 221 Q382 267 359.5 280.5 Q337 294 306 294 L181 294 L181 0 L85 0 L85 700 Z M181 628 L181 366 L308 366 Q386 366 424.5 399 Q463 432 463 501 Q463 628 311 628 L181 628 Z " />
<glyph glyph-name="uni0157" unicode="&#x157;" horiz-adv-x="375" d="M68 -255 L102 -194 L97 -180 Q72 -168 72 -138 Q72 -114 84 -100.5 Q96 -87 122 -87 Q147 -87 160.5 -100 Q174 -113 174 -136 Q174 -146 170 -155.5 Q166 -165 161 -174 L106 -276 L68 -255 Z M300 453 Q277 453 256 446 Q235 439 218 428 Q201 417 187 403.5 Q173 390 164 377 L164 0 L73 0 L73 526 L130 526 Q148 526 153.5 517 Q159 508 159 497 L159 457 L163 457 Q172 467 186 480.5 Q200 494 220 506.5 Q240 519 265 527.5 Q290 536 320 536 Q347 536 359 533 L359 447 L347 447 Q337 449 325.5 451 Q314 453 300 453 Z " />
<glyph glyph-name="Rcaron" unicode="&#x158;" horiz-adv-x="621" d="M85 700 L313 700 Q371 700 417.5 689 Q464 678 496 654 Q528 630 545.5 593.5 Q563 557 563 506 Q563 464 550.5 432.5 Q538 401 517 379.5 Q496 358 467.5 345.5 Q439 333 407 330 L407 328 Q429 324 444.5 312.5 Q460 301 472 283 Q484 265 493 241 Q502 217 513 189 L581 0 L474 0 L398 221 Q382 267 359.5 280.5 Q337 294 306 294 L181 294 L181 0 L85 0 L85 700 Z M181 628 L181 366 L308 366 Q386 366 424.5 399 Q463 432 463 501 Q463 628 311 628 L181 628 Z M422 922 L446 896 L327 756 L294 756 L174 896 L198 922 L213 922 L311 838 L407 922 L422 922 Z " />
<glyph glyph-name="rcaron" unicode="&#x159;" horiz-adv-x="375" d="M322 747 L346 721 L227 582 L194 582 L75 721 L98 747 L113 747 L212 663 L307 747 L322 747 Z M300 453 Q277 453 256 446 Q235 439 218 428 Q201 417 187 403.5 Q173 390 164 377 L164 0 L73 0 L73 526 L130 526 Q148 526 153.5 517 Q159 508 159 497 L159 457 L163 457 Q172 467 186 480.5 Q200 494 220 506.5 Q240 519 265 527.5 Q290 536 320 536 Q347 536 359 533 L359 447 L347 447 Q337 449 325.5 451 Q314 453 300 453 Z " />
<glyph glyph-name="Sacute" unicode="&#x15a;" horiz-adv-x="539" d="M497 198 Q497 147 478.5 108 Q460 69 426.5 43 Q393 17 346.5 3.5 Q300 -10 245 -10 Q206 -10 173.5 -6 Q141 -2 116 3.5 Q91 9 74.5 14 Q58 19 51 22 L51 100 Q87 89 136 78 Q185 67 245 67 Q321 67 362 98 Q403 129 403 188 Q403 215 395 234 Q387 253 369 267 Q351 281 322.5 292.5 Q294 304 253 316 Q200 332 162.5 350.5 Q125 369 101 393.5 Q77 418 66 449.5 Q55 481 55 523 Q55 567 71.5 601.5 Q88 636 119 660 Q150 684 193.5 697 Q237 710 290 710 Q324 710 354 706.5 Q384 703 407.5 698 Q431 693 446 688.5 Q461 684 467 682 L467 604 Q435 615 390.5 624.5 Q346 634 295 634 Q223 634 184 606 Q145 578 145 530 Q145 508 151 490.5 Q157 473 173.5 457.5 Q190 442 218 428.5 Q246 415 291 402 Q342 387 380.5 369 Q419 351 445 327.5 Q471 304 484 272.5 Q497 241 497 198 Z M291 756 L266 783 L380 922 L399 922 L441 871 L306 756 L291 756 Z " />
<glyph glyph-name="sacute" unicode="&#x15b;" horiz-adv-x="454" d="M246 582 L221 609 L335 747 L354 747 L396 697 L261 582 L246 582 Z M416 153 Q416 113 400.5 82.5 Q385 52 358 31.5 Q331 11 293 0.5 Q255 -10 210 -10 Q173 -10 144.5 -6.5 Q116 -3 95.5 1 Q75 5 62.5 9 Q50 13 46 14 L46 90 Q73 81 110 71.5 Q147 62 198 62 Q258 62 291.5 81.5 Q325 101 325 141 Q325 174 299.5 194.5 Q274 215 207 230 Q160 241 130 257 Q100 273 82.5 293.5 Q65 314 58 338 Q51 362 51 389 Q51 455 102.5 495.5 Q154 536 247 536 Q277 536 303 533 Q329 530 349 526 Q372 522 391 517 L391 442 Q372 447 334 455 Q296 463 256 463 Q199 463 168.5 445.5 Q138 428 138 396 Q138 381 142.5 369 Q147 357 158.5 347 Q170 337 190 328.5 Q210 320 242 312 Q333 288 374.5 253 Q416 218 416 153 Z " />
<glyph glyph-name="Scircumflex" unicode="&#x15c;" horiz-adv-x="539" d="M497 198 Q497 147 478.5 108 Q460 69 426.5 43 Q393 17 346.5 3.5 Q300 -10 245 -10 Q206 -10 173.5 -6 Q141 -2 116 3.5 Q91 9 74.5 14 Q58 19 51 22 L51 100 Q87 89 136 78 Q185 67 245 67 Q321 67 362 98 Q403 129 403 188 Q403 215 395 234 Q387 253 369 267 Q351 281 322.5 292.5 Q294 304 253 316 Q200 332 162.5 350.5 Q125 369 101 393.5 Q77 418 66 449.5 Q55 481 55 523 Q55 567 71.5 601.5 Q88 636 119 660 Q150 684 193.5 697 Q237 710 290 710 Q324 710 354 706.5 Q384 703 407.5 698 Q431 693 446 688.5 Q461 684 467 682 L467 604 Q435 615 390.5 624.5 Q346 634 295 634 Q223 634 184 606 Q145 578 145 530 Q145 508 151 490.5 Q157 473 173.5 457.5 Q190 442 218 428.5 Q246 415 291 402 Q342 387 380.5 369 Q419 351 445 327.5 Q471 304 484 272.5 Q497 241 497 198 Z M185 758 L161 784 L281 924 L314 924 L433 784 L409 758 L394 758 L296 842 L200 758 L185 758 Z " />
<glyph glyph-name="scircumflex" unicode="&#x15d;" horiz-adv-x="454" d="M140 582 L117 607 L236 747 L268 747 L387 607 L364 582 L349 582 L251 666 L155 582 L140 582 Z M416 153 Q416 113 400.5 82.5 Q385 52 358 31.5 Q331 11 293 0.5 Q255 -10 210 -10 Q173 -10 144.5 -6.5 Q116 -3 95.5 1 Q75 5 62.5 9 Q50 13 46 14 L46 90 Q73 81 110 71.5 Q147 62 198 62 Q258 62 291.5 81.5 Q325 101 325 141 Q325 174 299.5 194.5 Q274 215 207 230 Q160 241 130 257 Q100 273 82.5 293.5 Q65 314 58 338 Q51 362 51 389 Q51 455 102.5 495.5 Q154 536 247 536 Q277 536 303 533 Q329 530 349 526 Q372 522 391 517 L391 442 Q372 447 334 455 Q296 463 256 463 Q199 463 168.5 445.5 Q138 428 138 396 Q138 381 142.5 369 Q147 357 158.5 347 Q170 337 190 328.5 Q210 320 242 312 Q333 288 374.5 253 Q416 218 416 153 Z " />
<glyph glyph-name="Scedilla" unicode="&#x15e;" horiz-adv-x="539" d="M230 -180 Q201 -180 174.5 -173 Q148 -166 131 -156 L145 -119 Q156 -125 178.5 -131.5 Q201 -138 224 -138 Q244 -138 259.5 -132.5 Q275 -127 275 -110 Q275 -92 248.5 -82.5 Q222 -73 180 -70 L180 -50 L212 -9 Q147 -6 105 5.5 Q63 17 51 22 L51 100 Q87 89 136 78 Q185 67 245 67 Q321 67 362 98 Q403 129 403 188 Q403 215 395 234 Q387 253 369 267 Q351 281 322.5 292.5 Q294 304 253 316 Q200 332 162.5 350.5 Q125 369 101 393.5 Q77 418 66 449.5 Q55 481 55 523 Q55 567 71.5 601.5 Q88 636 119 660 Q150 684 193.5 697 Q237 710 290 710 Q324 710 354 706.5 Q384 703 407.5 698 Q431 693 446 688.5 Q461 684 467 682 L467 604 Q435 615 390.5 624.5 Q346 634 295 634 Q223 634 184 606 Q145 578 145 530 Q145 508 151 490.5 Q157 473 173.5 457.5 Q190 442 218 428.5 Q246 415 291 402 Q342 387 380.5 369 Q419 351 445 327.5 Q471 304 484 272.5 Q497 241 497 198 Q497 149 480 111.5 Q463 74 432 48 Q401 22 358.5 7.5 Q316 -7 264 -9 L242 -37 Q290 -44 313.5 -60 Q337 -76 337 -107 Q337 -127 327.5 -140.5 Q318 -154 303 -163 Q288 -172 269 -176 Q250 -180 230 -180 Z " />
<glyph glyph-name="scedilla" unicode="&#x15f;" horiz-adv-x="454" d="M191 -180 Q161 -180 134.5 -173 Q108 -166 92 -156 L106 -119 Q117 -125 139 -131.5 Q161 -138 184 -138 Q204 -138 220 -132.5 Q236 -127 236 -110 Q236 -92 209.5 -82.5 Q183 -73 140 -70 L140 -50 L173 -9 Q116 -5 84.5 3.5 Q53 12 46 14 L46 90 Q73 81 110 71.5 Q147 62 198 62 Q258 62 291.5 81.5 Q325 101 325 141 Q325 174 299.5 194.5 Q274 215 207 230 Q160 241 130 257 Q100 273 82.5 293.5 Q65 314 58 338 Q51 362 51 389 Q51 455 102.5 495.5 Q154 536 247 536 Q277 536 303 533 Q329 530 349 526 Q372 522 391 517 L391 442 Q372 447 334 455 Q296 463 256 463 Q199 463 168.5 445.5 Q138 428 138 396 Q138 381 142.5 369 Q147 357 158.5 347 Q170 337 190 328.5 Q210 320 242 312 Q333 288 374.5 253 Q416 218 416 153 Q416 115 402 85.5 Q388 56 362.5 35.5 Q337 15 302 3.5 Q267 -8 225 -9 L203 -37 Q251 -44 274.5 -60 Q298 -76 298 -107 Q298 -127 288.5 -140.5 Q279 -154 264 -163 Q249 -172 230 -176 Q211 -180 191 -180 Z " />
<glyph glyph-name="Scaron" unicode="&#x160;" horiz-adv-x="539" d="M497 198 Q497 147 478.5 108 Q460 69 426.5 43 Q393 17 346.5 3.5 Q300 -10 245 -10 Q206 -10 173.5 -6 Q141 -2 116 3.5 Q91 9 74.5 14 Q58 19 51 22 L51 100 Q87 89 136 78 Q185 67 245 67 Q321 67 362 98 Q403 129 403 188 Q403 215 395 234 Q387 253 369 267 Q351 281 322.5 292.5 Q294 304 253 316 Q200 332 162.5 350.5 Q125 369 101 393.5 Q77 418 66 449.5 Q55 481 55 523 Q55 567 71.5 601.5 Q88 636 119 660 Q150 684 193.5 697 Q237 710 290 710 Q324 710 354 706.5 Q384 703 407.5 698 Q431 693 446 688.5 Q461 684 467 682 L467 604 Q435 615 390.5 624.5 Q346 634 295 634 Q223 634 184 606 Q145 578 145 530 Q145 508 151 490.5 Q157 473 173.5 457.5 Q190 442 218 428.5 Q246 415 291 402 Q342 387 380.5 369 Q419 351 445 327.5 Q471 304 484 272.5 Q497 241 497 198 Z M410 922 L434 896 L315 756 L282 756 L162 896 L186 922 L201 922 L299 838 L395 922 L410 922 Z " />
<glyph glyph-name="scaron" unicode="&#x161;" horiz-adv-x="454" d="M362 747 L386 721 L267 582 L234 582 L115 721 L138 747 L153 747 L252 663 L347 747 L362 747 Z M416 153 Q416 113 400.5 82.5 Q385 52 358 31.5 Q331 11 293 0.5 Q255 -10 210 -10 Q173 -10 144.5 -6.5 Q116 -3 95.5 1 Q75 5 62.5 9 Q50 13 46 14 L46 90 Q73 81 110 71.5 Q147 62 198 62 Q258 62 291.5 81.5 Q325 101 325 141 Q325 174 299.5 194.5 Q274 215 207 230 Q160 241 130 257 Q100 273 82.5 293.5 Q65 314 58 338 Q51 362 51 389 Q51 455 102.5 495.5 Q154 536 247 536 Q277 536 303 533 Q329 530 349 526 Q372 522 391 517 L391 442 Q372 447 334 455 Q296 463 256 463 Q199 463 168.5 445.5 Q138 428 138 396 Q138 381 142.5 369 Q147 357 158.5 347 Q170 337 190 328.5 Q210 320 242 312 Q333 288 374.5 253 Q416 218 416 153 Z " />
<glyph glyph-name="uni0162" unicode="&#x162;" horiz-adv-x="564" d="M21 700 L542 700 L542 625 L330 625 L330 0 L307 0 L277 -37 Q325 -44 348.5 -60 Q372 -76 372 -107 Q372 -127 362.5 -140.5 Q353 -154 338 -163 Q323 -172 304 -176 Q285 -180 265 -180 Q236 -180 209.5 -173 Q183 -166 166 -156 L180 -119 Q191 -125 213.5 -131.5 Q236 -138 259 -138 Q279 -138 294.5 -132.5 Q310 -127 310 -110 Q310 -92 283.5 -82.5 Q257 -73 215 -70 L215 -50 L254 0 L234 0 L234 625 L21 625 L21 700 Z " />
<glyph glyph-name="uni0163" unicode="&#x163;" horiz-adv-x="351" d="M197 -180 Q168 -180 141.5 -173 Q115 -166 98 -156 L112 -119 Q123 -125 145.5 -131.5 Q168 -138 191 -138 Q211 -138 227 -132.5 Q243 -127 243 -110 Q243 -92 216 -82.5 Q189 -73 147 -70 L147 -50 L178 -10 Q139 -8 118.5 12.5 Q98 33 98 77 L98 455 L21 455 L21 524 L94 524 L132 670 L189 670 L189 524 L314 524 L314 455 L189 455 L189 66 L334 66 L334 0 Q318 -1 300 -3 Q285 -5 267.5 -6 Q250 -7 233 -8 L209 -37 Q257 -44 280.5 -60 Q304 -76 304 -107 Q304 -127 294.5 -140.5 Q285 -154 270 -163 Q255 -172 236 -176 Q217 -180 197 -180 Z " />
<glyph glyph-name="Tcaron" unicode="&#x164;" horiz-adv-x="564" d="M21 700 L542 700 L542 625 L330 625 L330 0 L234 0 L234 625 L21 625 L21 700 Z M395 922 L419 896 L300 756 L267 756 L147 896 L171 922 L186 922 L284 838 L380 922 L395 922 Z " />
<glyph glyph-name="tcaron" unicode="&#x165;" horiz-adv-x="351" d="M271 582 L271 780 L338 780 L338 699 L327 582 L271 582 Z M188 -10 Q143 -10 120.5 10.5 Q98 31 98 77 L98 455 L21 455 L21 524 L94 524 L132 670 L189 670 L189 524 L314 524 L314 455 L189 455 L189 66 L334 66 L334 0 Q304 -3 276 -5 Q252 -7 227 -8.5 Q202 -10 188 -10 Z " />
<glyph glyph-name="Tbar" unicode="&#x166;" horiz-adv-x="572" d="M25 700 L546 700 L546 625 L334 625 L334 385 L449 385 L449 331 L334 331 L334 0 L238 0 L238 331 L122 331 L122 385 L238 385 L238 625 L25 625 L25 700 Z " />
<glyph glyph-name="tbar" unicode="&#x167;" horiz-adv-x="354" d="M30 321 L100 321 L100 455 L23 455 L23 524 L96 524 L134 670 L191 670 L191 524 L316 524 L316 455 L191 455 L191 321 L309 321 L309 269 L191 269 L191 66 L336 66 L336 0 Q305 -3 277 -5 Q253 -7 228.5 -8.5 Q204 -10 190 -10 Q145 -10 122.5 10.5 Q100 31 100 77 L100 269 L30 269 L30 321 Z " />
<glyph glyph-name="Utilde" unicode="&#x168;" horiz-adv-x="645" d="M476 700 L566 700 L566 238 Q566 111 500 50.5 Q434 -10 319 -10 Q207 -10 143 50 Q79 110 79 238 L79 700 L177 700 L177 237 Q177 151 213 109.5 Q249 68 325 68 Q406 68 441 109.5 Q476 151 476 237 L476 700 Z M486 894 L486 855 Q486 815 466 794.5 Q446 774 409 774 Q385 774 363.5 782.5 Q342 791 323.5 800.5 Q305 810 288 818.5 Q271 827 255 827 Q237 827 228.5 817.5 Q220 808 220 800 L220 765 L167 765 L167 801 Q167 846 188.5 866.5 Q210 887 246 887 Q269 887 289.5 878.5 Q310 870 329 859.5 Q348 849 365.5 840.5 Q383 832 401 832 Q420 832 427 842 Q434 852 434 861 L434 894 L486 894 Z " />
<glyph glyph-name="utilde" unicode="&#x169;" horiz-adv-x="547" d="M383 61 Q374 52 359.5 40 Q345 28 324.5 17 Q304 6 279.5 -2 Q255 -10 227 -10 Q183 -10 152.5 3 Q122 16 103.5 37.5 Q85 59 77 88 Q69 117 69 150 L69 526 L160 526 L160 174 Q160 154 163 135.5 Q166 117 175 102.5 Q184 88 201 79 Q218 70 246 70 Q268 70 289.5 78 Q311 86 329.5 97.5 Q348 109 361.5 121 Q375 133 383 142 L383 526 L474 526 L474 0 L417 0 Q398 0 392.5 8.5 Q387 17 387 29 L387 61 L383 61 Z M427 719 L427 680 Q427 641 407 620.5 Q387 600 350 600 Q326 600 304.5 608 Q283 616 264.5 626 Q246 636 229 644 Q212 652 196 652 Q178 652 169.5 643 Q161 634 161 625 L161 591 L108 591 L108 626 Q108 671 129.5 691.5 Q151 712 187 712 Q210 712 230.5 703.5 Q251 695 270 685 Q289 675 306.5 666.5 Q324 658 342 658 Q361 658 368 667.5 Q375 677 375 687 L375 719 L427 719 Z " />
<glyph glyph-name="Umacron" unicode="&#x16a;" horiz-adv-x="645" d="M476 700 L566 700 L566 238 Q566 111 500 50.5 Q434 -10 319 -10 Q207 -10 143 50 Q79 110 79 238 L79 700 L177 700 L177 237 Q177 151 213 109.5 Q249 68 325 68 Q406 68 441 109.5 Q476 151 476 237 L476 700 Z M198 855 L453 855 L453 801 L198 801 L198 855 Z " />
<glyph glyph-name="umacron" unicode="&#x16b;" horiz-adv-x="547" d="M383 61 Q374 52 359.5 40 Q345 28 324.5 17 Q304 6 279.5 -2 Q255 -10 227 -10 Q183 -10 152.5 3 Q122 16 103.5 37.5 Q85 59 77 88 Q69 117 69 150 L69 526 L160 526 L160 174 Q160 154 163 135.5 Q166 117 175 102.5 Q184 88 201 79 Q218 70 246 70 Q268 70 289.5 78 Q311 86 329.5 97.5 Q348 109 361.5 121 Q375 133 383 142 L383 526 L474 526 L474 0 L417 0 Q398 0 392.5 8.5 Q387 17 387 29 L387 61 L383 61 Z M138 684 L393 684 L393 630 L138 630 L138 684 Z " />
<glyph glyph-name="Ubreve" unicode="&#x16c;" horiz-adv-x="645" d="M476 700 L566 700 L566 238 Q566 111 500 50.5 Q434 -10 319 -10 Q207 -10 143 50 Q79 110 79 238 L79 700 L177 700 L177 237 Q177 151 213 109.5 Q249 68 325 68 Q406 68 441 109.5 Q476 151 476 237 L476 700 Z M455 889 Q451 865 441 843.5 Q431 822 415 805.5 Q399 789 377 779 Q355 769 326 769 Q297 769 275 778.5 Q253 788 237 804.5 Q221 821 211 842.5 Q201 864 197 887 L250 899 Q257 869 275 845.5 Q293 822 327 822 Q345 822 358.5 828.5 Q372 835 381.5 845.5 Q391 856 397.5 869.5 Q404 883 408 898 L455 889 L455 889 Z " />
<glyph glyph-name="ubreve" unicode="&#x16d;" horiz-adv-x="547" d="M383 61 Q374 52 359.5 40 Q345 28 324.5 17 Q304 6 279.5 -2 Q255 -10 227 -10 Q183 -10 152.5 3 Q122 16 103.5 37.5 Q85 59 77 88 Q69 117 69 150 L69 526 L160 526 L160 174 Q160 154 163 135.5 Q166 117 175 102.5 Q184 88 201 79 Q218 70 246 70 Q268 70 289.5 78 Q311 86 329.5 97.5 Q348 109 361.5 121 Q375 133 383 142 L383 526 L474 526 L474 0 L417 0 Q398 0 392.5 8.5 Q387 17 387 29 L387 61 L383 61 Z M394 715 Q389 691 379.5 669.5 Q370 648 354.5 631 Q339 614 318 604 Q297 594 269 594 Q240 594 218.5 604 Q197 614 181 630.5 Q165 647 155 668.5 Q145 690 141 713 L194 725 Q201 694 219 671 Q237 648 270 648 Q287 648 299.5 654.5 Q312 661 321.5 672 Q331 683 337 696.5 Q343 710 347 725 L394 715 L394 715 Z " />
<glyph glyph-name="Uring" unicode="&#x16e;" horiz-adv-x="645" d="M387 831 Q387 854 370.5 865.5 Q354 877 326 877 Q299 877 283 865.5 Q267 854 267 831 Q267 808 283 796 Q299 784 326 784 Q354 784 370.5 796 Q387 808 387 831 Z M439 831 Q439 788 406.5 767.5 Q374 747 326 747 Q279 747 247 767.5 Q215 788 215 831 Q215 874 247 894 Q279 914 326 914 Q374 914 406.5 894 Q439 874 439 831 Z M476 700 L566 700 L566 238 Q566 111 500 50.5 Q434 -10 319 -10 Q207 -10 143 50 Q79 110 79 238 L79 700 L177 700 L177 237 Q177 151 213 109.5 Q249 68 325 68 Q406 68 441 109.5 Q476 151 476 237 L476 700 Z " />
<glyph glyph-name="uring" unicode="&#x16f;" horiz-adv-x="547" d="M379 656 Q379 614 346.5 593.5 Q314 573 266 573 Q219 573 187 593.5 Q155 614 155 656 Q155 699 187 719.5 Q219 740 266 740 Q314 740 346.5 719.5 Q379 699 379 656 Z M327 656 Q327 679 310.5 691 Q294 703 266 703 Q239 703 223 691 Q207 679 207 656 Q207 633 223 621 Q239 609 266 609 Q294 609 310.5 621 Q327 633 327 656 Z M383 61 Q374 52 359.5 40 Q345 28 324.5 17 Q304 6 279.5 -2 Q255 -10 227 -10 Q183 -10 152.5 3 Q122 16 103.5 37.5 Q85 59 77 88 Q69 117 69 150 L69 526 L160 526 L160 174 Q160 154 163 135.5 Q166 117 175 102.5 Q184 88 201 79 Q218 70 246 70 Q268 70 289.5 78 Q311 86 329.5 97.5 Q348 109 361.5 121 Q375 133 383 142 L383 526 L474 526 L474 0 L417 0 Q398 0 392.5 8.5 Q387 17 387 29 L387 61 L383 61 Z " />
<glyph glyph-name="Uhungarumlaut" unicode="&#x170;" horiz-adv-x="645" d="M258 756 L237 780 L345 922 L363 922 L396 887 L273 756 L258 756 Z M374 756 L358 779 L479 908 L497 908 L534 868 L389 756 L374 756 Z M476 700 L566 700 L566 238 Q566 111 500 50.5 Q434 -10 319 -10 Q207 -10 143 50 Q79 110 79 238 L79 700 L177 700 L177 237 Q177 151 213 109.5 Q249 68 325 68 Q406 68 441 109.5 Q476 151 476 237 L476 700 Z " />
<glyph glyph-name="uhungarumlaut" unicode="&#x171;" horiz-adv-x="547" d="M383 61 Q374 52 359.5 40 Q345 28 324.5 17 Q304 6 279.5 -2 Q255 -10 227 -10 Q183 -10 152.5 3 Q122 16 103.5 37.5 Q85 59 77 88 Q69 117 69 150 L69 526 L160 526 L160 174 Q160 154 163 135.5 Q166 117 175 102.5 Q184 88 201 79 Q218 70 246 70 Q268 70 289.5 78 Q311 86 329.5 97.5 Q348 109 361.5 121 Q375 133 383 142 L383 526 L474 526 L474 0 L417 0 Q398 0 392.5 8.5 Q387 17 387 29 L387 61 L383 61 Z M198 582 L177 605 L284 747 L302 747 L335 712 L212 582 L198 582 Z M314 582 L297 604 L418 734 L436 734 L473 694 L328 582 L314 582 Z " />
<glyph glyph-name="Uogonek" unicode="&#x172;" horiz-adv-x="645" d="M377 -180 Q332 -180 302.5 -160.5 Q273 -141 273 -100 Q273 -72 285.5 -49.5 Q298 -27 318 -10 L316 -10 Q206 -9 142.5 51 Q79 111 79 238 L79 700 L177 700 L177 237 Q177 151 213 109.5 Q249 68 325 68 Q406 68 441 109.5 Q476 151 476 237 L476 700 L566 700 L566 238 Q566 137 524.5 79.5 Q483 22 408 0 Q377 -9 357 -30.5 Q337 -52 337 -81 Q337 -107 354 -119 Q371 -131 397 -131 Q415 -131 434.5 -125.5 Q454 -120 471 -109 L483 -151 Q463 -163 435.5 -171.5 Q408 -180 377 -180 Z " />
<glyph glyph-name="uogonek" unicode="&#x173;" horiz-adv-x="547" d="M383 61 Q374 52 359.5 40 Q345 28 324.5 17 Q304 6 279.5 -2 Q255 -10 227 -10 Q183 -10 152.5 3 Q122 16 103.5 37.5 Q85 59 77 88 Q69 117 69 150 L69 526 L160 526 L160 174 Q160 154 163 135.5 Q166 117 175 102.5 Q184 88 201 79 Q218 70 246 70 Q268 70 289.5 78 Q311 86 329.5 97.5 Q348 109 361.5 121 Q375 133 383 142 L383 526 L474 526 L474 0 L444 0 Q425 0 409 -7 Q393 -14 382 -25.5 Q371 -37 364.5 -51.5 Q358 -66 358 -81 Q358 -107 375 -119 Q392 -131 418 -131 Q436 -131 456 -125.5 Q476 -120 493 -109 L504 -151 Q485 -163 457.5 -171.5 Q430 -180 398 -180 Q353 -180 323.5 -160.5 Q294 -141 294 -100 Q294 -58 322.5 -28.5 Q351 1 389 15 Q387 18 387 29 L387 61 L383 61 Z " />
<glyph glyph-name="Wcircumflex" unicode="&#x174;" horiz-adv-x="915" d="M352 758 L328 784 L448 924 L481 924 L600 784 L576 758 L561 758 L463 842 L367 758 L352 758 Z M457 534 L316 -2 L219 -2 L27 700 L128 700 L271 131 L413 700 L510 700 L654 130 L797 700 L887 700 L697 -2 L601 -2 L457 534 Z " />
<glyph glyph-name="wcircumflex" unicode="&#x175;" horiz-adv-x="777" d="M277 582 L254 607 L373 747 L405 747 L524 607 L501 582 L486 582 L388 666 L292 582 L277 582 Z M27 526 L121 526 L239 118 L355 526 L433 526 L550 115 L668 526 L750 526 L587 -1 L502 -1 L389 373 L276 -1 L192 -1 L27 526 Z " />
<glyph glyph-name="Ycircumflex" unicode="&#x176;" horiz-adv-x="591" d="M251 0 L251 281 L18 700 L127 700 L301 377 L470 700 L565 700 L347 291 L347 0 L251 0 Z M198 758 L174 784 L294 924 L327 924 L446 784 L422 758 L407 758 L309 842 L213 758 L198 758 Z " />
<glyph glyph-name="ycircumflex" unicode="&#x177;" horiz-adv-x="509" d="M162 -170 L216 -11 L24 526 L123 526 L259 118 L396 526 L485 526 L240 -170 L162 -170 Z M148 582 L125 607 L244 747 L276 747 L395 607 L372 582 L357 582 L259 666 L163 582 L148 582 Z " />
<glyph glyph-name="Ydieresis" unicode="&#x178;" horiz-adv-x="591" d="M251 0 L251 281 L18 700 L127 700 L301 377 L470 700 L565 700 L347 291 L347 0 L251 0 Z M197 833 Q197 851 209.5 864.5 Q222 878 242 878 Q262 878 274 864.5 Q286 851 286 833 Q286 814 274 801.5 Q262 789 242 789 Q222 789 209.5 801.5 Q197 814 197 833 Z M333 833 Q333 851 345.5 864.5 Q358 878 378 878 Q398 878 410.5 864.5 Q423 851 423 833 Q423 814 410.5 801.5 Q398 789 378 789 Q358 789 345.5 801.5 Q333 814 333 833 Z " />
<glyph glyph-name="Zacute" unicode="&#x179;" horiz-adv-x="566" d="M35 0 L35 52 L397 625 L50 625 L50 700 L516 700 L516 648 L157 76 L531 76 L531 0 L35 0 Z M280 756 L255 783 L369 922 L388 922 L430 871 L295 756 L280 756 Z " />
<glyph glyph-name="zacute" unicode="&#x17a;" horiz-adv-x="497" d="M244 582 L219 609 L333 747 L352 747 L394 697 L259 582 L244 582 Z M35 0 L35 43 L329 453 L47 453 L47 526 L449 526 L449 479 L160 72 L460 72 L460 0 L35 0 Z " />
<glyph glyph-name="Zdotaccent" unicode="&#x17b;" horiz-adv-x="566" d="M227 827 Q227 850 244 866 Q261 882 285 882 Q309 882 326 866 Q343 850 343 827 Q343 805 326 788.5 Q309 772 285 772 Q261 772 244 788.5 Q227 805 227 827 Z M35 0 L35 52 L397 625 L50 625 L50 700 L516 700 L516 648 L157 76 L531 76 L531 0 L35 0 Z " />
<glyph glyph-name="zdotaccent" unicode="&#x17c;" horiz-adv-x="497" d="M35 0 L35 43 L329 453 L47 453 L47 526 L449 526 L449 479 L160 72 L460 72 L460 0 L35 0 Z M191 663 Q191 684 208 701 Q225 718 249 718 Q273 718 290 701 Q307 684 307 663 Q307 640 290 623.5 Q273 607 249 607 Q225 607 208 623.5 Q191 640 191 663 Z " />
<glyph glyph-name="Zcaron" unicode="&#x17d;" horiz-adv-x="566" d="M35 0 L35 52 L397 625 L50 625 L50 700 L516 700 L516 648 L157 76 L531 76 L531 0 L35 0 Z M398 922 L422 896 L303 756 L270 756 L150 896 L174 922 L189 922 L287 838 L383 922 L398 922 Z " />
<glyph glyph-name="zcaron" unicode="&#x17e;" horiz-adv-x="497" d="M360 747 L384 721 L265 582 L232 582 L113 721 L136 747 L151 747 L250 663 L345 747 L360 747 Z M35 0 L35 43 L329 453 L47 453 L47 526 L449 526 L449 479 L160 72 L460 72 L460 0 L35 0 Z " />
<glyph glyph-name="longs" unicode="&#x17f;" horiz-adv-x="298" d="M195 0 L104 0 L104 455 L23 455 L23 524 L104 524 L104 562 Q104 604 113 637 Q122 670 142 693 Q162 716 193.5 728 Q225 740 271 740 Q293 740 315 737.5 Q337 735 351 732 L351 667 Q345 668 334.5 669 Q324 670 313 670.5 Q302 671 292 671.5 Q282 672 278 672 Q231 672 213 648.5 Q195 625 195 567 L195 0 Z " />
<glyph glyph-name="florin" unicode="&#x192;" horiz-adv-x="380" d="M3 -180 Q-34 -180 -57 -176.5 Q-80 -173 -88 -171 L-88 -107 Q-84 -108 -72 -109 Q-60 -110 -46.5 -110.5 Q-33 -111 -22 -111.5 Q-11 -112 -9 -112 Q18 -112 36.5 -107 Q55 -102 67 -89.5 Q79 -77 85.5 -57 Q92 -37 95 -7 L138 377 L27 377 L27 443 L145 443 L159 563 Q163 605 175 638 Q187 671 208.5 693.5 Q230 716 263 728 Q296 740 344 740 Q380 740 403 736.5 Q426 733 434 731 L434 667 Q430 668 418 669 Q406 670 392.5 670.5 Q379 671 368 671.5 Q357 672 355 672 Q328 672 309 666.5 Q290 661 278 649 Q266 637 259.5 617 Q253 597 250 567 L236 443 L359 443 L359 377 L229 377 L187 -3 Q182 -45 171 -78 Q160 -111 138.5 -133.5 Q117 -156 84 -168 Q51 -180 3 -180 Z " />
<glyph glyph-name="uni0218" unicode="&#x218;" horiz-adv-x="539" d="M189 -255 L223 -194 L218 -180 Q193 -168 193 -138 Q193 -114 205 -100.5 Q217 -87 243 -87 Q268 -87 281.5 -100 Q295 -113 295 -136 Q295 -146 291 -155.5 Q287 -165 282 -174 L227 -276 L189 -255 Z M497 198 Q497 147 478.5 108 Q460 69 426.5 43 Q393 17 346.5 3.5 Q300 -10 245 -10 Q206 -10 173.5 -6 Q141 -2 116 3.5 Q91 9 74.5 14 Q58 19 51 22 L51 100 Q87 89 136 78 Q185 67 245 67 Q321 67 362 98 Q403 129 403 188 Q403 215 395 234 Q387 253 369 267 Q351 281 322.5 292.5 Q294 304 253 316 Q200 332 162.5 350.5 Q125 369 101 393.5 Q77 418 66 449.5 Q55 481 55 523 Q55 567 71.5 601.5 Q88 636 119 660 Q150 684 193.5 697 Q237 710 290 710 Q324 710 354 706.5 Q384 703 407.5 698 Q431 693 446 688.5 Q461 684 467 682 L467 604 Q435 615 390.5 624.5 Q346 634 295 634 Q223 634 184 606 Q145 578 145 530 Q145 508 151 490.5 Q157 473 173.5 457.5 Q190 442 218 428.5 Q246 415 291 402 Q342 387 380.5 369 Q419 351 445 327.5 Q471 304 484 272.5 Q497 241 497 198 Z " />
<glyph glyph-name="uni0219" unicode="&#x219;" horiz-adv-x="454" d="M150 -255 L184 -194 L179 -180 Q154 -168 154 -138 Q154 -114 166 -100.5 Q178 -87 204 -87 Q229 -87 242.5 -100 Q256 -113 256 -136 Q256 -146 252 -155.5 Q248 -165 243 -174 L188 -276 L150 -255 Z M416 153 Q416 113 400.5 82.5 Q385 52 358 31.5 Q331 11 293 0.5 Q255 -10 210 -10 Q173 -10 144.5 -6.5 Q116 -3 95.5 1 Q75 5 62.5 9 Q50 13 46 14 L46 90 Q73 81 110 71.5 Q147 62 198 62 Q258 62 291.5 81.5 Q325 101 325 141 Q325 174 299.5 194.5 Q274 215 207 230 Q160 241 130 257 Q100 273 82.5 293.5 Q65 314 58 338 Q51 362 51 389 Q51 455 102.5 495.5 Q154 536 247 536 Q277 536 303 533 Q329 530 349 526 Q372 522 391 517 L391 442 Q372 447 334 455 Q296 463 256 463 Q199 463 168.5 445.5 Q138 428 138 396 Q138 381 142.5 369 Q147 357 158.5 347 Q170 337 190 328.5 Q210 320 242 312 Q333 288 374.5 253 Q416 218 416 153 Z " />
<glyph glyph-name="uni021A" unicode="&#x21a;" horiz-adv-x="564" d="M229 -255 L263 -194 L258 -180 Q233 -168 233 -138 Q233 -114 245 -100.5 Q257 -87 283 -87 Q308 -87 321.5 -100 Q335 -113 335 -136 Q335 -146 331 -155.5 Q327 -165 322 -174 L267 -276 L229 -255 Z M21 700 L542 700 L542 625 L330 625 L330 0 L234 0 L234 625 L21 625 L21 700 Z " />
<glyph glyph-name="uni021B" unicode="&#x21b;" horiz-adv-x="351" d="M148 -252 L182 -191 L177 -177 Q152 -165 152 -135 Q152 -111 164 -97.5 Q176 -84 202 -84 Q227 -84 240.5 -97 Q254 -110 254 -133 Q254 -143 250 -152.5 Q246 -162 241 -171 L186 -273 L148 -252 Z M188 -10 Q143 -10 120.5 10.5 Q98 31 98 77 L98 455 L21 455 L21 524 L94 524 L132 670 L189 670 L189 524 L314 524 L314 455 L189 455 L189 66 L334 66 L334 0 Q304 -3 276 -5 Q252 -7 227 -8.5 Q202 -10 188 -10 Z " />
<glyph glyph-name="uni0237" unicode="&#x237;" horiz-adv-x="237" d="M-63 -105 Q-56 -107 -47 -107.5 Q-38 -108 -29.5 -108.5 Q-21 -109 -14 -109 Q-7 -109 -4 -109 Q38 -109 55.5 -85 Q73 -61 73 -4 L73 526 L164 526 L164 0 Q164 -41 155.5 -74 Q147 -107 127.5 -130.5 Q108 -154 77 -167 Q46 -180 1 -180 Q-17 -180 -34 -178 Q-51 -176 -63 -174 L-63 -105 Z " />
<glyph glyph-name="uni02C9" unicode="&#x2c9;" horiz-adv-x="392" d="M68 690 L323 690 L323 635 L68 635 L68 690 Z " />
<glyph glyph-name="ogonek" unicode="&#x2db;" horiz-adv-x="400" d="M224 0 Q186 -9 162 -30.5 Q138 -52 138 -81 Q138 -107 155 -119 Q172 -131 198 -131 Q216 -131 236 -125.5 Q256 -120 273 -109 L284 -151 Q265 -163 237.5 -171.5 Q210 -180 178 -180 Q133 -180 103.5 -160.5 Q74 -141 74 -100 Q74 -72 87.5 -49.5 Q101 -27 122.5 -10.5 Q144 6 170.5 16 Q197 26 223 29 L224 0 Z " />
<glyph glyph-name="uni0394" unicode="&#x394;" horiz-adv-x="619" d="M16 0 L16 51 L273 702 L369 702 L603 51 L603 0 L16 0 Z M316 578 L121 78 L492 78 L316 578 Z " />
<glyph glyph-name="Delta" unicode="&#x2206;" horiz-adv-x="619" d="M16 0 L16 51 L273 702 L369 702 L603 51 L603 0 L16 0 Z M316 578 L121 78 L492 78 L316 578 Z " />
<glyph glyph-name="uni03A9" unicode="&#x3a9;" horiz-adv-x="675" d="M379 0 L379 138 Q431 167 463 194 Q495 221 512.5 251.5 Q530 282 535.5 319 Q541 356 541 405 Q541 526 488.5 579.5 Q436 633 338 633 Q239 633 186.5 579.5 Q134 526 134 405 Q134 356 139.5 319 Q145 282 162.5 251.5 Q180 221 211.5 194 Q243 167 296 138 L296 0 L43 0 L43 71 L231 71 L231 96 Q175 125 137.5 157.5 Q100 190 77.5 227.5 Q55 265 45 309 Q35 353 35 405 Q35 486 58.5 544 Q82 602 122.5 638.5 Q163 675 218.5 692.5 Q274 710 338 710 Q402 710 457.5 692.5 Q513 675 553.5 638.5 Q594 602 617 544 Q640 486 640 405 Q640 353 630.5 309 Q621 265 598 227.5 Q575 190 537.5 157.5 Q500 125 444 96 L444 71 L632 71 L632 0 L379 0 Z " />
<glyph glyph-name="Omega" unicode="&#x2126;" horiz-adv-x="675" d="M379 0 L379 138 Q431 167 463 194 Q495 221 512.5 251.5 Q530 282 535.5 319 Q541 356 541 405 Q541 526 488.5 579.5 Q436 633 338 633 Q239 633 186.5 579.5 Q134 526 134 405 Q134 356 139.5 319 Q145 282 162.5 251.5 Q180 221 211.5 194 Q243 167 296 138 L296 0 L43 0 L43 71 L231 71 L231 96 Q175 125 137.5 157.5 Q100 190 77.5 227.5 Q55 265 45 309 Q35 353 35 405 Q35 486 58.5 544 Q82 602 122.5 638.5 Q163 675 218.5 692.5 Q274 710 338 710 Q402 710 457.5 692.5 Q513 675 553.5 638.5 Q594 602 617 544 Q640 486 640 405 Q640 353 630.5 309 Q621 265 598 227.5 Q575 190 537.5 157.5 Q500 125 444 96 L444 71 L632 71 L632 0 L379 0 Z " />
<glyph glyph-name="uni03BC" unicode="&#x3bc;" horiz-adv-x="574" d="M551 6 Q535 -1 515 -4.5 Q495 -8 480 -8 Q405 -8 393 66 Q375 31 344.5 10 Q314 -11 272 -11 Q234 -11 205.5 3.5 Q177 18 160 55 L169 -89 L169 -166 L80 -177 L80 522 L171 529 L171 181 Q171 118 201.5 93.5 Q232 69 280 69 Q292 69 307 73.5 Q322 78 336.5 87 Q351 96 363.5 109 Q376 122 384 139 L384 522 L474 529 L474 120 Q474 92 481.5 77.5 Q489 63 510 63 Q528 63 551 69 L551 6 Z " />
<glyph glyph-name="mu" unicode="&#xb5;" horiz-adv-x="574" d="M551 6 Q535 -1 515 -4.5 Q495 -8 480 -8 Q405 -8 393 66 Q375 31 344.5 10 Q314 -11 272 -11 Q234 -11 205.5 3.5 Q177 18 160 55 L169 -89 L169 -166 L80 -177 L80 522 L171 529 L171 181 Q171 118 201.5 93.5 Q232 69 280 69 Q292 69 307 73.5 Q322 78 336.5 87 Q351 96 363.5 109 Q376 122 384 139 L384 522 L474 529 L474 120 Q474 92 481.5 77.5 Q489 63 510 63 Q528 63 551 69 L551 6 Z " />
<glyph glyph-name="Wgrave" unicode="&#x1e80;" horiz-adv-x="915" d="M471 756 L457 756 L321 871 L364 922 L382 922 L496 783 L471 756 Z M457 534 L316 -2 L219 -2 L27 700 L128 700 L271 131 L413 700 L510 700 L654 130 L797 700 L887 700 L697 -2 L601 -2 L457 534 Z " />
<glyph glyph-name="wgrave" unicode="&#x1e81;" horiz-adv-x="777" d="M27 526 L121 526 L239 118 L355 526 L433 526 L550 115 L668 526 L750 526 L587 -1 L502 -1 L389 373 L276 -1 L192 -1 L27 526 Z M395 582 L381 582 L245 697 L287 747 L306 747 L420 609 L395 582 Z " />
<glyph glyph-name="Wacute" unicode="&#x1e82;" horiz-adv-x="915" d="M459 756 L434 783 L548 922 L567 922 L609 871 L474 756 L459 756 Z M457 534 L316 -2 L219 -2 L27 700 L128 700 L271 131 L413 700 L510 700 L654 130 L797 700 L887 700 L697 -2 L601 -2 L457 534 Z " />
<glyph glyph-name="wacute" unicode="&#x1e83;" horiz-adv-x="777" d="M384 582 L359 609 L473 747 L492 747 L534 697 L399 582 L384 582 Z M27 526 L121 526 L239 118 L355 526 L433 526 L550 115 L668 526 L750 526 L587 -1 L502 -1 L389 373 L276 -1 L192 -1 L27 526 Z " />
<glyph glyph-name="Wdieresis" unicode="&#x1e84;" horiz-adv-x="915" d="M457 534 L316 -2 L219 -2 L27 700 L128 700 L271 131 L413 700 L510 700 L654 130 L797 700 L887 700 L697 -2 L601 -2 L457 534 Z M352 833 Q352 851 364.5 864.5 Q377 878 397 878 Q417 878 429 864.5 Q441 851 441 833 Q441 814 429 801.5 Q417 789 397 789 Q377 789 364.5 801.5 Q352 814 352 833 Z M488 833 Q488 851 500.5 864.5 Q513 878 533 878 Q553 878 565.5 864.5 Q578 851 578 833 Q578 814 565.5 801.5 Q553 789 533 789 Q513 789 500.5 801.5 Q488 814 488 833 Z " />
<glyph glyph-name="wdieresis" unicode="&#x1e85;" horiz-adv-x="777" d="M276 662 Q276 680 288.5 693.5 Q301 707 321 707 Q341 707 353 693.5 Q365 680 365 662 Q365 643 353 630.5 Q341 618 321 618 Q301 618 288.5 630.5 Q276 643 276 662 Z M412 662 Q412 680 424.5 693.5 Q437 707 457 707 Q477 707 489.5 693.5 Q502 680 502 662 Q502 643 489.5 630.5 Q477 618 457 618 Q437 618 424.5 630.5 Q412 643 412 662 Z M27 526 L121 526 L239 118 L355 526 L433 526 L550 115 L668 526 L750 526 L587 -1 L502 -1 L389 373 L276 -1 L192 -1 L27 526 Z " />
<glyph glyph-name="endash" unicode="&#x2013;" horiz-adv-x="532" d="M51 355 L481 355 L481 291 L51 291 L51 355 Z " />
<glyph glyph-name="emdash" unicode="&#x2014;" horiz-adv-x="821" d="M51 355 L770 355 L770 291 L51 291 L51 355 Z " />
<glyph glyph-name="quoteleft" unicode="&#x2018;" horiz-adv-x="217" d="M167.003 707.994 L127.005 632.999 L131.005 618 Q160.003 602.001 160.003 567.003 Q160.003 542.004 145.504 527.005 Q131.005 512.006 103.007 512.006 Q75.0085 512.006 60.0095 527.005 Q45.0104 542.004 45.0104 567.003 Q45.0104 579.002 49.0101 589.501 Q53.0099 600.001 58.0096 609 L124.006 730.993 L167.003 707.994 Z " />
<glyph glyph-name="quoteright" unicode="&#x2019;" horiz-adv-x="216" d="M54 515 L94 590 L90 605 Q61 621 61 656 Q61 681 75.5 696 Q90 711 118 711 Q146 711 161 696 Q176 681 176 656 Q176 644 172 633.5 Q168 623 163 614 L97 492 L54 515 Z " />
<glyph glyph-name="quotesinglbase" unicode="&#x201a;" horiz-adv-x="225" d="M48 -95 L88 -20 L84 -5 Q55 11 55 46 Q55 71 69.5 86 Q84 101 112 101 Q140 101 155 86 Q170 71 170 46 Q170 34 166 23.5 Q162 13 157 4 L91 -118 L48 -95 Z " />
<glyph glyph-name="quotedblleft" unicode="&#x201c;" horiz-adv-x="376" d="M327.003 707.994 L287.005 632.999 L291.005 618 Q320.003 602.001 320.003 567.003 Q320.003 542.004 305.504 527.005 Q291.005 512.006 263.007 512.006 Q235.009 512.006 220.009 527.005 Q205.01 542.004 205.01 567.003 Q205.01 579.002 209.01 589.501 Q213.01 600.001 218.01 609 L284.006 730.993 L327.003 707.994 Z M167.003 707.994 L127.005 632.999 L131.005 618 Q160.003 602.001 160.003 567.003 Q160.003 542.004 145.504 527.005 Q131.005 512.006 103.007 512.006 Q75.0085 512.006 60.0095 527.005 Q45.0104 542.004 45.0104 567.003 Q45.0104 579.002 49.0101 589.501 Q53.0099 600.001 58.0096 609 L124.006 730.993 L167.003 707.994 Z " />
<glyph glyph-name="quotedblright" unicode="&#x201d;" horiz-adv-x="375" d="M54 515 L94 590 L90 605 Q61 621 61 656 Q61 681 75.5 696 Q90 711 118 711 Q146 711 161 696 Q176 681 176 656 Q176 644 172 633.5 Q168 623 163 614 L97 492 L54 515 Z M213 515 L253 590 L249 605 Q220 621 220 656 Q220 681 234.5 696 Q249 711 277 711 Q305 711 320 696 Q335 681 335 656 Q335 644 331 633.5 Q327 623 322 614 L256 492 L213 515 Z " />
<glyph glyph-name="quotedblbase" unicode="&#x201e;" horiz-adv-x="384" d="M48 -95 L88 -20 L84 -5 Q55 11 55 46 Q55 71 69.5 86 Q84 101 112 101 Q140 101 155 86 Q170 71 170 46 Q170 34 166 23.5 Q162 13 157 4 L91 -118 L48 -95 Z M207 -95 L247 -20 L243 -5 Q214 11 214 46 Q214 71 228.5 86 Q243 101 271 101 Q299 101 314 86 Q329 71 329 46 Q329 34 325 23.5 Q321 13 316 4 L250 -118 L207 -95 Z " />
<glyph glyph-name="dagger" unicode="&#x2020;" horiz-adv-x="484" d="M271 0 L215 0 L198 340 L209 453 L175 453 L32 439 L32 515 L175 501 L211 501 L198 700 L288 700 L273 501 L308 501 L450 515 L450 439 L308 453 L276 453 L288 340 L271 0 Z " />
<glyph glyph-name="daggerdbl" unicode="&#x2021;" horiz-adv-x="533" d="M299 199 L313 0 L223 0 L236 199 L197 199 L58 185 L58 263 L197 248 L234 248 L223 350 L233 453 L197 453 L58 438 L58 515 L197 501 L236 501 L223 700 L313 700 L299 501 L337 501 L476 515 L476 438 L337 453 L301 453 L313 350 L301 248 L337 248 L476 263 L476 185 L337 199 L299 199 Z " />
<glyph glyph-name="bullet" unicode="&#x2022;" horiz-adv-x="340" d="M83.5 372 Q83.5 403.5 109 429 Q134.5 454.5 170.5 454.5 Q206.5 454.5 232 429 Q257.5 403.5 257.5 372 Q257.5 337.5 232 312.75 Q206.5 288 170.5 288 Q134.5 288 109 312.75 Q83.5 337.5 83.5 372 Z " />
<glyph glyph-name="ellipsis" unicode="&#x2026;" horiz-adv-x="662" d="M493 46 Q493 67 510 84 Q527 101 551 101 Q575 101 592 84 Q609 67 609 46 Q609 23 592 6.5 Q575 -10 551 -10 Q527 -10 510 6.5 Q493 23 493 46 Z M53 46 Q53 67 70 84 Q87 101 111 101 Q135 101 152 84 Q169 67 169 46 Q169 23 152 6.5 Q135 -10 111 -10 Q87 -10 70 6.5 Q53 23 53 46 Z M273 46 Q273 67 290 84 Q307 101 331 101 Q355 101 372 84 Q389 67 389 46 Q389 23 372 6.5 Q355 -10 331 -10 Q307 -10 290 6.5 Q273 23 273 46 Z " />
<glyph glyph-name="perthousand" unicode="&#x2030;" horiz-adv-x="987" d="M239 539 Q239 594 225 622 Q211 650 176 650 Q141 650 126 622 Q111 594 111 539 Q111 484 126 456 Q141 428 176 428 Q211 428 225 456 Q239 484 239 539 Z M305 539 Q305 452 270.5 412 Q236 372 176 372 Q115 372 80.5 412 Q46 452 46 540 Q46 627 80.5 666.5 Q115 706 176 706 Q235 706 270 666 Q305 626 305 539 Z M575 162 Q575 217 561 245 Q547 273 512 273 Q477 273 462 245 Q447 217 447 162 Q447 107 462 79 Q477 51 512 51 Q547 51 561 79 Q575 107 575 162 Z M641 162 Q641 75 606.5 35 Q572 -5 512 -5 Q451 -5 416.5 35 Q382 75 382 163 Q382 250 416.5 289.5 Q451 329 512 329 Q571 329 606 289 Q641 249 641 162 Z M888 161 Q888 216 874 244 Q860 272 825 272 Q790 272 775 244 Q760 216 760 161 Q760 106 775 78 Q790 50 825 50 Q860 50 874 78 Q888 106 888 161 Z M954 161 Q954 74 919.5 34 Q885 -6 825 -6 Q764 -6 729.5 34 Q695 74 695 162 Q695 249 729.5 288.5 Q764 328 825 328 Q884 328 919 288 Q954 248 954 161 Z M61 0 L571 700 L630 700 L122 0 L61 0 Z " />
<glyph glyph-name="guilsinglleft" unicode="&#x2039;" horiz-adv-x="307" d="M42.0162 239 L186.007 46 L258.003 46 L114.012 255 L258.003 463 L186.007 463 L42.0162 271 L42.0162 239 Z " />
<glyph glyph-name="franc" unicode="&#x20a3;" horiz-adv-x="596" d="M222 248 L222 0 L126 0 L126 248 L49 248 L49 304 L126 304 L126 365 L49 365 L49 421 L126 421 L126 700 L569 700 L569 625 L222 625 L222 421 L411 421 L411 365 L222 365 L222 304 L411 304 L411 248 L222 248 Z " />
<glyph glyph-name="lira" unicode="&#x20a4;" horiz-adv-x="592" d="M540 0 L56 0 L56 75 L133 75 L133 258 L56 258 L56 314 L133 314 L133 375 L56 375 L56 431 L133 431 L133 497 Q133 541 146.5 580 Q160 619 188.5 648 Q217 677 261.5 693.5 Q306 710 367 710 Q432 710 476.5 699.5 Q521 689 536 684 L536 609 Q498 623 457 630.5 Q416 638 377 638 Q301 638 265 605 Q229 572 229 497 L229 431 L398 431 L398 375 L229 375 L229 314 L398 314 L398 258 L229 258 L229 75 L540 75 L540 0 Z " />
<glyph glyph-name="peseta" unicode="&#x20a7;" horiz-adv-x="1425" d="M74 700 L310 700 Q429 700 496 648 Q563 596 563 484 Q563 369 495.5 314.5 Q428 260 307 260 L170 260 L170 0 L74 0 L74 700 Z M170 628 L170 332 L307 332 Q389 332 426 368 Q463 404 463 480 Q463 556 426.5 592 Q390 628 310 628 L170 628 Z M1378 153 Q1378 113 1362.5 82.5 Q1347 52 1320 31.5 Q1293 11 1255 0.5 Q1217 -10 1172 -10 Q1135 -10 1106.5 -6.5 Q1078 -3 1057.5 1 Q1037 5 1024.5 9 Q1012 13 1008 14 L1008 90 Q1035 81 1072 71.5 Q1109 62 1160 62 Q1220 62 1253.5 81.5 Q1287 101 1287 141 Q1287 174 1261.5 194.5 Q1236 215 1169 230 Q1122 241 1092 257 Q1062 273 1044.5 293.5 Q1027 314 1020 338 Q1013 362 1013 389 Q1013 455 1064.5 495.5 Q1116 536 1209 536 Q1239 536 1265 533 Q1291 530 1311 526 Q1334 522 1353 517 L1353 442 Q1334 447 1296 455 Q1258 463 1218 463 Q1161 463 1130.5 445.5 Q1100 428 1100 396 Q1100 381 1104.5 369 Q1109 357 1120.5 347 Q1132 337 1152 328.5 Q1172 320 1204 312 Q1295 288 1336.5 253 Q1378 218 1378 153 Z M788 -10 Q743 -10 720.5 10.5 Q698 31 698 77 L698 455 L621 455 L621 524 L694 524 L732 670 L789 670 L789 524 L914 524 L914 455 L789 455 L789 66 L934 66 L934 0 Q904 -3 876 -5 Q852 -7 827 -8.5 Q802 -10 788 -10 Z " />
<glyph glyph-name="Euro" unicode="&#x20ac;" horiz-adv-x="631" d="M579 16 Q552 5 515 -2.5 Q478 -10 422 -10 Q298 -10 222 56 Q146 122 129 263 L41 263 L41 319 L126 319 Q125 326 125 332.5 Q125 339 125 347 Q125 355 125 364 Q125 373 126 381 L41 381 L41 436 L131 436 Q151 575 230.5 642.5 Q310 710 432 710 Q486 710 523 703.5 Q560 697 573 691 L573 612 Q542 621 515 626.5 Q488 632 447 632 Q351 632 298.5 583.5 Q246 535 232 436 L433 436 L433 381 L227 381 L227 353 Q227 345 227 336 Q227 327 228 319 L433 319 L433 263 L232 263 Q246 165 295 117 Q344 69 437 69 Q479 69 511.5 76.5 Q544 84 579 96 L579 16 L579 16 Z " />
<glyph glyph-name="uni2113" unicode="&#x2113;" horiz-adv-x="411" d="M381 27 Q369 20 353 13.5 Q337 7 320 1.5 Q303 -4 286 -7 Q269 -10 255 -10 Q186 -10 148 18 Q110 46 110 120 L110 134 L51 74 L15 117 Q19 121 29 131.5 Q39 142 52 156.5 Q65 171 80.5 187.5 Q96 204 110 220 L110 544 Q110 591 120.5 624.5 Q131 658 149.5 680 Q168 702 194 712 Q220 722 251 722 Q276 722 298.5 714.5 Q321 707 338 690.5 Q355 674 364.5 647 Q374 620 374 581 Q374 541 364 501 Q354 461 331.5 417 Q309 373 274 324 Q239 275 188 218 L188 129 Q188 86 205 71 Q222 56 257 56 Q283 56 312.5 63.5 Q342 71 363 82 L381 27 Z M188 309 Q220 350 241 386.5 Q262 423 274 456 Q286 489 291 519 Q296 549 296 578 Q296 624 282.5 642.5 Q269 661 246 661 Q220 661 204 627.5 Q188 594 188 527 L188 309 Z " />
<glyph glyph-name="trademark" unicode="&#x2122;" horiz-adv-x="750" d="M429 387 L380 387 L380 700 L445 700 L528 542 L607 700 L675 700 L675 387 L618 387 L618 621 L548 486 L500 486 L429 617 L429 387 Z M59 700 L312 700 L312 651 L215 651 L215 387 L157 387 L157 651 L59 651 L59 700 Z " />
<glyph glyph-name="estimated" unicode="&#x212e;" horiz-adv-x="801" d="M597 363 L607 376 L607 591 Q571 632 521 653.5 Q471 675 409 675 Q282 675 207 591 L207 376 L216 363 L597 363 Z M207 315 L207 124 Q245 73 299.5 48 Q354 23 420 23 Q495 23 555.5 50.5 Q616 78 658 133 L709 133 Q656 63 585.5 26.5 Q515 -10 420 -10 Q343 -10 276 18 Q209 46 159 95 Q109 144 80 209 Q51 274 51 349 Q51 424 79.5 489.5 Q108 555 157 603.5 Q206 652 271 679.5 Q336 707 409 707 Q481 707 544 680 Q607 653 655 607 Q703 561 733 499 Q763 437 768 368 L768 366 L736 328 L216 328 L207 315 Z " />
<glyph glyph-name="partialdiff" unicode="&#x2202;" horiz-adv-x="538" d="M397 263 Q397 367 361.5 417 Q326 467 263 467 Q199 467 164 417 Q129 367 129 263 Q129 160 164 109.5 Q199 59 263 59 Q326 59 361.5 109.5 Q397 160 397 263 Z M491 263 Q491 193 473 141.5 Q455 90 424 56.5 Q393 23 351.5 6.5 Q310 -10 263 -10 Q215 -10 173.5 6.5 Q132 23 101 56.5 Q70 90 52 141.5 Q34 193 34 263 Q34 333 52 384.5 Q70 436 101 469.5 Q132 503 173.5 519.5 Q215 536 263 536 Q312 536 351 508 Q319 568 271 617 Q223 666 165 698 L201 739 Q271 707 325 658 Q379 609 416 547 Q453 485 472 413 Q491 341 491 263 Z " />
<glyph glyph-name="product" unicode="&#x220f;" horiz-adv-x="716" d="M36 700 L680 700 L680 635 L599 635 L599 0 L502 0 L502 634 L213 634 L213 0 L117 0 L117 635 L36 635 L36 700 Z " />
<glyph glyph-name="summation" unicode="&#x2211;" horiz-adv-x="574" d="M524 0 L45 0 L45 59 L300 357 L45 649 L45 700 L521 700 L521 632 L164 632 L388 379 L388 349 L151 68 L524 68 L524 0 Z " />
<glyph glyph-name="minus" unicode="&#x2212;" horiz-adv-x="542" d="M70 366 L473 366 L473 307 L70 307 L70 366 Z " />
<glyph glyph-name="uni2215" unicode="&#x2215;" horiz-adv-x="546" d="M-11 0 L499 700 L558 700 L50 0 L-11 0 Z " />
<glyph glyph-name="uni2219" unicode="&#x2219;" horiz-adv-x="243" d="M63 373 Q63 394 80 411 Q97 428 121 428 Q145 428 162 411 Q179 394 179 373 Q179 350 162 333.5 Q145 317 121 317 Q97 317 80 333.5 Q63 350 63 373 Z " />
<glyph glyph-name="radical" unicode="&#x221a;" horiz-adv-x="573" d="M108 431 L29 396 L7 449 L172 528 L344 178 L497 948 L557 936 L359 -47 L108 431 Z " />
<glyph glyph-name="infinity" unicode="&#x221e;" horiz-adv-x="853" d="M623 438 Q599 438 578 428.5 Q557 419 537.5 404 Q518 389 500.5 370 Q483 351 467 332 Q483 313 500.5 294.5 Q518 276 537.5 261.5 Q557 247 578 238 Q599 229 623 229 Q677 229 704.5 258 Q732 287 732 333 Q732 380 703.5 409 Q675 438 623 438 Z M232 438 Q179 438 150 409 Q121 380 121 333 Q121 287 149.5 258 Q178 229 232 229 Q257 229 278.5 238 Q300 247 319.5 261.5 Q339 276 356.5 294.5 Q374 313 391 332 Q374 351 356.5 370 Q339 389 319.5 404 Q300 419 278.5 428.5 Q257 438 232 438 Z M53 333 Q53 367 65 397 Q77 427 100 449.5 Q123 472 156 485 Q189 498 231 498 Q264 498 291.5 487.5 Q319 477 343 460.5 Q367 444 388 423 Q409 402 428 380 Q447 402 468 423 Q489 444 513 460.5 Q537 477 564.5 487.5 Q592 498 625 498 Q666 498 698.5 485 Q731 472 753.5 449.5 Q776 427 788 397 Q800 367 800 333 Q800 300 789 270 Q778 240 756.5 217.5 Q735 195 702 181.5 Q669 168 625 168 Q593 168 565.5 178.5 Q538 189 514 205.5 Q490 222 468.5 242.5 Q447 263 429 284 Q410 263 389.5 242 Q369 221 345 204.5 Q321 188 292.5 178 Q264 168 231 168 Q186 168 153 181 Q120 194 97.5 216.5 Q75 239 64 269 Q53 299 53 333 Z " />
<glyph glyph-name="integral" unicode="&#x222b;" horiz-adv-x="575" d="M101 -135 Q76 -135 50 -131.5 Q24 -128 3 -123 L15 -62 Q35 -66 57 -69 Q79 -72 95 -72 Q143 -72 172 -50 Q201 -28 209 38 L276 643 Q282 692 296.5 725.5 Q311 759 335 780 Q359 801 393.5 810.5 Q428 820 474 820 Q500 820 526 816.5 Q552 813 572 808 L560 747 Q541 751 519 753.5 Q497 756 480 756 Q457 756 437.5 751.5 Q418 747 404 734.5 Q390 722 380.5 701 Q371 680 367 647 L298 43 Q293 -6 279 -40 Q265 -74 241 -95 Q217 -116 182.5 -125.5 Q148 -135 101 -135 Z " />
<glyph glyph-name="approxequal" unicode="&#x2248;" horiz-adv-x="565" d="M69 217 Q93 262 124 289 Q155 316 193 316 Q223 316 248 304.5 Q273 293 296 279.5 Q319 266 339.5 254.5 Q360 243 381 243 Q396 243 408 255 L467 311 L500 283 Q474 238 443.5 212 Q413 186 375 186 Q346 186 320.5 197.5 Q295 209 271.5 222.5 Q248 236 226.5 247.5 Q205 259 184 259 Q170 259 157 248 L101 191 L69 217 Z M69 378 Q93 423 124 449.5 Q155 476 193 476 Q223 476 248 464.5 Q273 453 296 439.5 Q319 426 339.5 414.5 Q360 403 381 403 Q395 403 414 420 L467 470 L500 443 Q474 398 443.5 371.5 Q413 345 375 345 Q346 345 320.5 356.5 Q295 368 271.5 382 Q248 396 227 407.5 Q206 419 186 419 Q169 419 151 401 L101 351 L69 378 Z " />
<glyph glyph-name="notequal" unicode="&#x2260;" horiz-adv-x="533" d="M65 441 L295 441 L338 530 L389 530 L345 441 L468 441 L468 382 L316 382 L267 283 L468 283 L468 224 L238 224 L195 137 L144 137 L187 224 L65 224 L65 283 L216 283 L265 382 L65 382 L65 441 Z " />
<glyph glyph-name="lessequal" unicode="&#x2264;" horiz-adv-x="556" d="M69 143 L484 143 L484 84 L69 84 L69 143 Z M69 358 L69 405 L484 557 L484 495 L162 383 L484 267 L484 205 L69 358 Z " />
<glyph glyph-name="greaterequal" unicode="&#x2265;" horiz-adv-x="557" d="M72 84 L72 143 L487 143 L487 84 L72 84 Z M72 268 L394 381 L72 496 L72 558 L487 405 L487 358 L72 206 L72 268 Z " />
<glyph glyph-name="lozenge" unicode="&#x25ca;" horiz-adv-x="535" d="M225 -80 L27 345 L224 782 L310 782 L508 358 L311 -80 L225 -80 Z M434 349 L267 710 L102 354 L268 -9 L434 349 Z " />
<glyph glyph-name="f_f" unicode="&#xfb00;" horiz-adv-x="700" d="M195 455 L195 0 L104 0 L104 455 L23 455 L23 524 L104 524 L104 562 Q104 604 113 637 Q122 670 142 693 Q162 716 193.5 728 Q225 740 271 740 Q293 740 315 737.5 Q337 735 351 732 L351 667 Q345 668 334.5 669 Q324 670 313 670.5 Q302 671 292 671.5 Q282 672 278 672 Q231 672 213 648.5 Q195 625 195 567 L195 524 L327 524 L327 455 L195 455 Z M552 455 L552 0 L461 0 L461 455 L380 455 L380 524 L461 524 L461 562 Q461 604 470 637 Q479 670 499 693 Q519 716 550.5 728 Q582 740 628 740 Q650 740 672 737.5 Q694 735 708 732 L708 667 Q702 668 691.5 669 Q681 670 670 670.5 Q659 671 649 671.5 Q639 672 635 672 Q588 672 570 648.5 Q552 625 552 567 L552 524 L684 524 L684 455 L552 455 Z " />
<glyph glyph-name="fi" unicode="&#xfb01;" horiz-adv-x="600" d="M529 526 L529 0 L438 0 L438 526 L529 526 Z M427 677 Q427 701 441.5 715.5 Q456 730 483 730 Q511 730 525.5 715.5 Q540 701 540 677 Q540 653 525.5 638 Q511 623 483 623 Q456 623 441.5 638 Q427 653 427 677 Z M195 455 L195 0 L104 0 L104 455 L23 455 L23 524 L104 524 L104 562 Q104 604 113 637 Q122 670 142 693 Q162 716 193.5 728 Q225 740 271 740 Q293 740 315 737.5 Q337 735 351 732 L351 667 Q345 668 334.5 669 Q324 670 313 670.5 Q302 671 292 671.5 Q282 672 278 672 Q231 672 213 648.5 Q195 625 195 567 L195 524 L327 524 L327 455 L195 455 Z " />
<glyph glyph-name="fl" unicode="&#xfb02;" horiz-adv-x="604" d="M531 731 L531 1 L440 1 L440 731 L531 731 Z M195 455 L195 0 L104 0 L104 455 L23 455 L23 524 L104 524 L104 562 Q104 604 113 637 Q122 670 142 693 Q162 716 193.5 728 Q225 740 271 740 Q293 740 315 737.5 Q337 735 351 732 L351 667 Q345 668 334.5 669 Q324 670 313 670.5 Q302 671 292 671.5 Q282 672 278 672 Q231 672 213 648.5 Q195 625 195 567 L195 524 L327 524 L327 455 L195 455 Z " />
<glyph glyph-name="f_f_i" unicode="&#xfb03;" horiz-adv-x="958" d="M886 526 L886 0 L795 0 L795 526 L886 526 Z M784 677 Q784 701 798.5 715.5 Q813 730 840 730 Q868 730 882.5 715.5 Q897 701 897 677 Q897 653 882.5 638 Q868 623 840 623 Q813 623 798.5 638 Q784 653 784 677 Z M195 455 L195 0 L104 0 L104 455 L23 455 L23 524 L104 524 L104 562 Q104 604 113 637 Q122 670 142 693 Q162 716 193.5 728 Q225 740 271 740 Q293 740 315 737.5 Q337 735 351 732 L351 667 Q345 668 334.5 669 Q324 670 313 670.5 Q302 671 292 671.5 Q282 672 278 672 Q231 672 213 648.5 Q195 625 195 567 L195 524 L327 524 L327 455 L195 455 Z M552 455 L552 0 L461 0 L461 455 L380 455 L380 524 L461 524 L461 562 Q461 604 470 637 Q479 670 499 693 Q519 716 550.5 728 Q582 740 628 740 Q650 740 672 737.5 Q694 735 708 732 L708 667 Q702 668 691.5 669 Q681 670 670 670.5 Q659 671 649 671.5 Q639 672 635 672 Q588 672 570 648.5 Q552 625 552 567 L552 524 L684 524 L684 455 L552 455 Z " />
<glyph glyph-name="f_f_l" unicode="&#xfb04;" horiz-adv-x="962" d="M888 731 L888 1 L797 1 L797 731 L888 731 Z M195 455 L195 0 L104 0 L104 455 L23 455 L23 524 L104 524 L104 562 Q104 604 113 637 Q122 670 142 693 Q162 716 193.5 728 Q225 740 271 740 Q293 740 315 737.5 Q337 735 351 732 L351 667 Q345 668 334.5 669 Q324 670 313 670.5 Q302 671 292 671.5 Q282 672 278 672 Q231 672 213 648.5 Q195 625 195 567 L195 524 L327 524 L327 455 L195 455 Z M552 455 L552 0 L461 0 L461 455 L380 455 L380 524 L461 524 L461 562 Q461 604 470 637 Q479 670 499 693 Q519 716 550.5 728 Q582 740 628 740 Q650 740 672 737.5 Q694 735 708 732 L708 667 Q702 668 691.5 669 Q681 670 670 670.5 Q659 671 649 671.5 Q639 672 635 672 Q588 672 570 648.5 Q552 625 552 567 L552 524 L684 524 L684 455 L552 455 Z " />
<glyph glyph-name="longs_t" unicode="&#xfb05;" horiz-adv-x="670" d="M195 0 L104 0 L104 455 L23 455 L23 524 L104 524 L104 562 Q104 604 113 637 Q122 670 142 693 Q162 716 193.5 728 Q225 740 271 740 Q293 740 315 737.5 Q337 735 351 732 L351 667 Q345 668 334.5 669 Q324 670 313 670.5 Q302 671 292 671.5 Q282 672 278 672 Q231 672 213 648.5 Q195 625 195 567 L195 0 Z M507 -10 Q462 -10 439.5 10.5 Q417 31 417 77 L417 455 L340 455 L340 524 L413 524 L451 670 L508 670 L508 524 L633 524 L633 455 L508 455 L508 66 L653 66 L653 0 Q623 -3 595 -5 Q571 -7 546 -8.5 Q521 -10 507 -10 Z " />
<glyph glyph-name="uniF8FF" unicode="&#xf8ff;" horiz-adv-x="1420" d="M378 488 Q389 488 389 477 L389 471 Q398 478 411.5 485 Q425 492 447 492 Q465 492 477.5 484.5 Q490 477 498 466 Q506 473 521 482.5 Q536 492 562 492 Q588 492 603.5 476.5 Q619 461 619 438 L619 306 Q619 295 607 295 L569 295 Q556 295 556 306 L556 422 Q556 431 553.5 434.5 Q551 438 542 438 Q531 438 520.5 433 Q510 428 504 423 L504 306 Q504 295 493 295 L455 295 Q443 295 443 306 L443 422 Q443 431 440.5 434.5 Q438 438 428 438 Q417 438 406.5 433 Q396 428 391 423 L391 306 Q391 295 381 295 L340 295 Q329 295 329 306 L329 477 Q329 488 340 488 L378 488 Z M1043 488 Q1055 488 1055 477 L1056 470 Q1064 477 1078 484.5 Q1092 492 1116 492 Q1145 492 1159 476 Q1173 460 1173 432 L1173 352 Q1173 323 1159 306.5 Q1145 290 1116 290 Q1093 290 1079.5 297.5 Q1066 305 1058 311 L1058 228 Q1058 217 1047 217 L1007 217 Q996 217 996 228 L996 477 Q996 488 1007 488 L1043 488 Z M296 388 Q296 377 284 377 L191 377 L191 354 Q191 336 214 336 Q239 336 239 354 L239 355 Q239 366 250 366 L282 366 Q294 366 294 355 L294 352 Q294 324 276.5 307 Q259 290 214 290 Q169 290 149 307 Q129 324 129 352 L129 431 Q129 460 149 476 Q169 492 214 492 Q259 492 277.5 476 Q296 460 296 431 L296 388 Z M1370 388 Q1370 377 1359 377 L1265 377 L1265 354 Q1265 336 1288 336 Q1312 336 1312 354 L1312 355 Q1312 366 1324 366 L1356 366 Q1367 366 1367 355 L1367 352 Q1367 324 1350 307 Q1333 290 1288 290 Q1243 290 1223.5 307 Q1204 324 1204 352 L1204 431 Q1204 460 1223.5 476 Q1243 492 1288 492 Q1333 492 1351.5 476 Q1370 460 1370 431 L1370 388 Z M872 407 Q876 393 877.5 382 Q879 371 879 370 Q880 371 883.5 383.5 Q887 396 889 405 L913 477 Q915 482 917 485 Q919 488 925 488 L962 488 Q976 488 973 477 L889 228 Q885 217 875 217 L847 217 Q833 217 836 228 L852 287 L787 477 Q783 488 798 488 L838 488 Q844 488 846 485 Q848 482 850 477 L872 407 Z M762 487 Q773 487 773 477 L773 450 Q773 439 762 439 L731 439 L731 362 Q731 344 755 344 L765 344 Q777 344 777 333 L777 306 Q777 295 765 295 L746 295 Q701 295 684.5 309.5 Q668 324 668 355 L668 439 L651 439 Q640 439 640 450 L640 475 Q640 483 651 486 L667 487 L668 487 L668 523 Q668 535 680 535 L719 535 Q731 535 731 523 L731 487 L762 487 Z M472 98 Q472 94 468 94 L354 94 L354 46 Q354 32 364.5 22.5 Q375 13 404 13 Q433 13 442.5 22.5 Q452 32 452 46 L452 54 Q452 58 458 58 L467 58 Q472 58 472 54 L472 45 Q472 24 457.5 10.5 Q443 -3 403 -3 Q364 -3 349 10.5 Q334 24 334 45 L334 147 Q334 168 349 181.5 Q364 195 404 195 Q443 195 457.5 181.5 Q472 168 472 147 L472 98 Z M154 188 L154 171 Q162 177 179.5 186 Q197 195 221 195 Q249 195 262 182 Q275 169 275 149 L275 5 Q275 0 271 0 L260 0 Q256 0 256 5 L256 145 Q256 159 246.5 167.5 Q237 176 217 176 Q194 176 177.5 167.5 Q161 159 155 153 L155 5 Q155 0 151 0 L140 0 Q135 0 135 5 L135 188 Q135 192 140 192 L149 192 Q154 192 154 188 Z M603 191 Q607 191 607 187 L607 179 Q607 174 603 174 L556 174 L556 50 Q556 36 567 26.5 Q578 17 606 17 L612 17 Q617 17 617 12 L617 5 Q617 0 612 0 L603 0 Q564 0 550.5 12.5 Q537 25 537 48 L537 174 L512 174 Q508 174 508 179 L508 186 Q508 190 512 191 L537 191 L537 232 Q537 237 541 237 L552 237 Q556 237 556 232 L556 191 L603 191 Z M354 110 L452 110 L452 146 Q452 160 442 169 Q432 178 404 178 Q375 178 364.5 169 Q354 160 354 146 L354 110 Z M1112 423 Q1112 428 1109.5 433 Q1107 438 1095 438 Q1084 438 1074 432.5 Q1064 427 1058 423 L1058 360 Q1064 356 1074 350 Q1084 344 1095 344 Q1107 344 1109.5 350 Q1112 356 1112 361 L1112 423 Z M191 417 L239 417 L239 428 Q239 446 214 446 Q191 446 191 428 L191 417 Z M1265 417 L1312 417 L1312 428 Q1312 446 1288 446 Q1265 446 1265 428 L1265 417 Z M70 5 Q70 0 65 0 L54 0 Q50 0 50 5 L50 35 Q50 40 54 40 L65 40 Q70 40 70 35 L70 5 Z " />
<glyph glyph-name="zero.tab" unicode="&#xff10;" horiz-adv-x="600" d="M562 350 Q562 258 543.5 190.5 Q525 123 490.5 78.5 Q456 34 407.5 12 Q359 -10 300 -10 Q241 -10 192.5 12 Q144 34 110 78.5 Q76 123 57.5 190.5 Q39 258 39 350 Q39 442 57.5 510 Q76 578 110 622.5 Q144 667 192.5 688.5 Q241 710 300 710 Q359 710 407.5 688.5 Q456 667 490.5 622.5 Q525 578 543.5 510 Q562 442 562 350 Z M460 350 Q460 496 422 565.5 Q384 635 300 635 Q216 635 178 565.5 Q140 496 140 350 Q140 205 178 135 Q216 65 300 65 Q384 65 422 135 Q460 205 460 350 Z " />
<glyph glyph-name="one.tab" unicode="&#xff11;" horiz-adv-x="600" d="M228 667 Q246 667 260.5 671.5 Q275 676 286 683 Q297 690 303.5 697.5 Q310 705 312 710 L363 710 L363 65 L509 65 L509 0 L121 0 L121 65 L266 65 L266 601 L121 601 L121 667 L228 667 Z " />
<glyph glyph-name="two.tab" unicode="&#xff12;" horiz-adv-x="600" d="M78 661 Q81 662 99 670 Q117 678 146.5 687 Q176 696 214.5 703 Q253 710 297 710 Q358 710 400.5 695.5 Q443 681 470 656.5 Q497 632 509 600 Q521 568 521 532 Q521 496 509.5 466 Q498 436 473.5 407.5 Q449 379 411.5 350.5 Q374 322 323 289 Q277 261 247 240.5 Q217 220 199.5 201 Q182 182 175 163.5 Q168 145 168 121 L168 82 L533 82 L533 0 L71 0 L71 117 Q71 149 80.5 176.5 Q90 204 112.5 230.5 Q135 257 172.5 285.5 Q210 314 266 349 Q309 376 338.5 398.5 Q368 421 386.5 441.5 Q405 462 413 483 Q421 504 421 529 Q421 573 389.5 603 Q358 633 284 633 Q225 633 175.5 620.5 Q126 608 78 586 L78 661 Z " />
<glyph glyph-name="three.tab" unicode="&#xff13;" horiz-adv-x="600" d="M87 672 Q112 682 142 691 Q168 698 202 704 Q236 710 275 710 Q339 710 383.5 695 Q428 680 456 655.5 Q484 631 496 598.5 Q508 566 508 532 Q508 492 498.5 463 Q489 434 472 413 Q455 392 431.5 379.5 Q408 367 380 360 L380 357 Q444 343 481.5 302 Q519 261 519 186 Q519 149 506 114 Q493 79 464 51.5 Q435 24 388 7 Q341 -10 273 -10 Q191 -10 141.5 2 Q92 14 77 20 L77 96 Q119 80 164 72 Q209 64 263 64 Q305 64 335 74.5 Q365 85 383.5 103 Q402 121 411 144.5 Q420 168 420 194 Q420 230 407.5 255 Q395 280 374 295.5 Q353 311 324.5 318 Q296 325 263 325 L202 325 L202 396 L267 396 Q295 396 321 401.5 Q347 407 367 421.5 Q387 436 398.5 460 Q410 484 410 520 Q410 545 402.5 566 Q395 587 377.5 602.5 Q360 618 332.5 627 Q305 636 265 636 Q214 636 171.5 626.5 Q129 617 87 601 L87 672 Z " />
<glyph glyph-name="four.tab" unicode="&#xff14;" horiz-adv-x="600" d="M34 260 L377 710 L467 710 L467 260 L563 260 L563 184 L467 184 L467 0 L370 0 L370 184 L34 184 L34 260 Z M370 583 L121 260 L370 260 L370 583 Z " />
<glyph glyph-name="five.tab" unicode="&#xff15;" horiz-adv-x="600" d="M500 619 L176 619 L176 420 L281 420 Q399 420 467.5 370 Q536 320 536 211 Q536 171 522 131.5 Q508 92 477 60.5 Q446 29 398 9.5 Q350 -10 282 -10 Q239 -10 204 -6 Q169 -2 142.5 4 Q116 10 99 16 Q82 22 75 25 L75 104 Q118 87 165 76 Q212 65 274 65 Q318 65 349.5 77 Q381 89 400.5 108.5 Q420 128 429 152.5 Q438 177 438 203 Q438 245 425 271.5 Q412 298 389 313.5 Q366 329 334.5 335 Q303 341 267 341 L96 341 L96 700 L500 700 L500 619 Z " />
<glyph glyph-name="six.tab" unicode="&#xff16;" horiz-adv-x="600" d="M549 219 Q549 161 530.5 118 Q512 75 480 46.5 Q448 18 405.5 4 Q363 -10 315 -10 Q197 -10 130.5 66.5 Q64 143 64 307 Q64 396 80 470 Q96 544 131.5 597.5 Q167 651 223.5 680.5 Q280 710 362 710 Q410 710 445.5 702 Q481 694 493 687 L493 612 Q463 626 433.5 631.5 Q404 637 372 637 Q315 637 276 618 Q237 599 212 562 Q187 525 174.5 471.5 Q162 418 160 349 Q188 377 234 400.5 Q280 424 340 424 Q382 424 420 411.5 Q458 399 486.5 373.5 Q515 348 532 309.5 Q549 271 549 219 Z M317 62 Q380 62 418.5 99 Q457 136 457 214 Q457 283 419 318 Q381 353 320 353 Q294 353 270.5 345 Q247 337 226.5 324.5 Q206 312 189 297 Q172 282 160 269 Q166 161 205.5 111.5 Q245 62 317 62 Z " />
<glyph glyph-name="seven.tab" unicode="&#xff17;" horiz-adv-x="600" d="M177 0 L425 618 L75 618 L75 700 L531 700 L531 649 L279 0 L177 0 Z " />
<glyph glyph-name="eight.tab" unicode="&#xff18;" horiz-adv-x="600" d="M297 -10 Q229 -10 183 5 Q137 20 108 45 Q79 70 66.5 101 Q54 132 54 165 Q54 211 69 244 Q84 277 106.5 299.5 Q129 322 154.5 336 Q180 350 201 358 Q175 371 152 386.5 Q129 402 112.5 422.5 Q96 443 86.5 468 Q77 493 77 524 Q77 566 93.5 600.5 Q110 635 140 659.5 Q170 684 212.5 697 Q255 710 308 710 Q369 710 410.5 695 Q452 680 477 656 Q502 632 512.5 603 Q523 574 523 547 Q523 516 513.5 490.5 Q504 465 487.5 444 Q471 423 449.5 407 Q428 391 403 379 Q435 367 461.5 351 Q488 335 506.5 313 Q525 291 535.5 262 Q546 233 546 194 Q546 144 528 106 Q510 68 477 42 Q444 16 398 3 Q352 -10 297 -10 Z M160 539 Q160 514 170 495 Q180 476 201 460.5 Q222 445 253.5 431.5 Q285 418 327 405 Q349 414 370 427 Q391 440 407 456.5 Q423 473 433 492.5 Q443 512 443 535 Q443 578 409 610 Q375 642 302 642 Q236 642 198 614 Q160 586 160 539 Z M298 59 Q372 59 412.5 91.5 Q453 124 453 179 Q453 211 440 234.5 Q427 258 404 275 Q381 292 348.5 305 Q316 318 276 330 Q264 326 240.5 315 Q217 304 194 285.5 Q171 267 154 240.5 Q137 214 137 178 Q137 155 145.5 133.5 Q154 112 172.5 95.5 Q191 79 222 69 Q253 59 298 59 Z " />
<glyph glyph-name="nine.tab" unicode="&#xff19;" horiz-adv-x="600" d="M280 347 Q305 347 329 355 Q353 363 373.5 375.5 Q394 388 411 403 Q428 418 440 431 Q434 539 394.5 588 Q355 637 282 637 Q219 637 181 600 Q143 563 143 486 Q143 417 181 382 Q219 347 280 347 Z M238 -10 Q190 -10 154.5 -2 Q119 6 107 13 L107 88 Q137 74 166.5 68.5 Q196 63 228 63 Q285 63 324 82 Q363 101 388 138 Q413 175 425.5 228 Q438 281 440 350 Q412 322 365.5 299 Q319 276 259 276 Q217 276 179.5 288.5 Q142 301 113.5 326.5 Q85 352 68 390.5 Q51 429 51 481 Q51 538 69.5 581 Q88 624 120 652.5 Q152 681 194.5 695.5 Q237 710 285 710 Q403 710 469.5 633 Q536 556 536 393 Q536 304 520 230 Q504 156 468.5 102.5 Q433 49 376.5 19.5 Q320 -10 238 -10 Z " />
<glyph glyph-name="uni215F" unicode="&#x215f;" horiz-adv-x="358" d="M89 376 L89 422 L148 422 L148 632 L89 632 L89 680 L138 680 Q153 680 163 688 Q173 696 175 704 L215 704 L215 422 L274 422 L274 376 L89 376 Z M49 0 L559 700 L618 700 L110 0 L49 0 Z " />
<glyph glyph-name="uni2153" unicode="&#x2153;" horiz-adv-x="650" d="M71 376 L71 422 L130 422 L130 632 L71 632 L71 680 L120 680 Q135 680 145 688 Q155 696 157 704 L197 704 L197 422 L256 422 L256 376 L71 376 Z M35 0 L545 700 L604 700 L96 0 L35 0 Z M383 315 Q395 318 410 322 Q422 324 438.5 326.5 Q455 329 474 329 Q506 329 528 321.5 Q550 314 564 302.5 Q578 291 584 276 Q590 261 590 246 Q590 209 573 191 Q556 173 530 166 L530 164 Q560 157 578 140 Q596 123 596 88 Q596 70 589.5 53.5 Q583 37 568.5 23.5 Q554 10 530.5 2 Q507 -6 473 -6 Q434 -6 410.5 0 Q387 6 378 8 L378 63 Q399 58 420.5 53.5 Q442 49 467 49 Q500 49 514.5 61.5 Q529 74 529 94 Q529 119 513 129 Q497 139 471 139 L436 139 L436 189 L471 189 Q496 189 510.5 199 Q525 209 525 234 Q525 250 512.5 262 Q500 274 469 274 Q450 274 426.5 270.5 Q403 267 383 262 L383 315 Z " />
<glyph glyph-name="uni2154" unicode="&#x2154;" horiz-adv-x="677" d="M57 376 L57 432 Q57 451 61 464.5 Q65 478 75 490 Q85 502 102 514 Q119 526 145 542 Q184 566 198 581 Q212 596 212 613 Q212 630 199 639 Q186 648 157 648 Q112 648 60 629 L60 682 Q73 688 90 693 Q104 698 123.5 701.5 Q143 705 166 705 Q197 705 218 697.5 Q239 690 252 677.5 Q265 665 271 648.5 Q277 632 277 615 Q277 580 255 555.5 Q233 531 183 501 Q152 482 139.5 472 Q127 462 127 448 L127 432 L285 432 L285 376 L57 376 Z M61 0 L571 700 L630 700 L122 0 L61 0 Z M410 315 Q422 318 437 322 Q449 324 465.5 326.5 Q482 329 501 329 Q533 329 555 321.5 Q577 314 591 302.5 Q605 291 611 276 Q617 261 617 246 Q617 209 600 191 Q583 173 557 166 L557 164 Q587 157 605 140 Q623 123 623 88 Q623 70 616.5 53.5 Q610 37 595.5 23.5 Q581 10 557.5 2 Q534 -6 500 -6 Q461 -6 437.5 0 Q414 6 405 8 L405 63 Q426 58 447.5 53.5 Q469 49 494 49 Q527 49 541.5 61.5 Q556 74 556 94 Q556 119 540 129 Q524 139 498 139 L463 139 L463 189 L498 189 Q523 189 537.5 199 Q552 209 552 234 Q552 250 539.5 262 Q527 274 496 274 Q477 274 453.5 270.5 Q430 267 410 262 L410 315 Z " />
<glyph glyph-name="uni2155" unicode="&#x2155;" horiz-adv-x="655" d="M35 0 L545 700 L604 700 L96 0 L35 0 Z M71 376 L71 422 L130 422 L130 632 L71 632 L71 680 L120 680 Q135 680 145 688 Q155 696 157 704 L197 704 L197 422 L256 422 L256 376 L71 376 Z M437 269 L437 203 L474 203 Q534 203 568 177.5 Q602 152 602 104 Q602 84 595 65 Q588 46 573 30 Q558 14 533.5 4.5 Q509 -5 474 -5 Q432 -5 406.5 3 Q381 11 375 13 L375 69 Q398 61 419 56.5 Q440 52 470 52 Q505 52 520 67.5 Q535 83 535 103 Q535 131 516 140 Q497 149 466 149 L385 149 L385 324 L588 324 L588 269 L437 269 Z " />
<glyph glyph-name="five.denominator" unicode="&#xf65a;" horiz-adv-x="295" d="M99 269 L99 203 L136 203 Q196 203 230 177.5 Q264 152 264 104 Q264 84 257 65 Q250 46 235 30 Q220 14 195.5 4.5 Q171 -5 136 -5 Q94 -5 68.5 3 Q43 11 37 13 L37 69 Q60 61 81 56.5 Q102 52 132 52 Q167 52 182 67.5 Q197 83 197 103 Q197 131 178 140 Q159 149 128 149 L47 149 L47 324 L250 324 L250 269 L99 269 Z " />
<glyph glyph-name="uni2156" unicode="&#x2156;" horiz-adv-x="683" d="M57 376 L57 432 Q57 451 61 464.5 Q65 478 75 490 Q85 502 102 514 Q119 526 145 542 Q184 566 198 581 Q212 596 212 613 Q212 630 199 639 Q186 648 157 648 Q112 648 60 629 L60 682 Q73 688 90 693 Q104 698 123.5 701.5 Q143 705 166 705 Q197 705 218 697.5 Q239 690 252 677.5 Q265 665 271 648.5 Q277 632 277 615 Q277 580 255 555.5 Q233 531 183 501 Q152 482 139.5 472 Q127 462 127 448 L127 432 L285 432 L285 376 L57 376 Z M465 269 L465 203 L502 203 Q562 203 596 177.5 Q630 152 630 104 Q630 84 623 65 Q616 46 601 30 Q586 14 561.5 4.5 Q537 -5 502 -5 Q460 -5 434.5 3 Q409 11 403 13 L403 69 Q426 61 447 56.5 Q468 52 498 52 Q533 52 548 67.5 Q563 83 563 103 Q563 131 544 140 Q525 149 494 149 L413 149 L413 324 L616 324 L616 269 L465 269 Z M62 0 L572 700 L631 700 L123 0 L62 0 Z " />
<glyph glyph-name="uni2157" unicode="&#x2157;" horiz-adv-x="664" d="M446 269 L446 203 L483 203 Q543 203 577 177.5 Q611 152 611 104 Q611 84 604 65 Q597 46 582 30 Q567 14 542.5 4.5 Q518 -5 483 -5 Q441 -5 415.5 3 Q390 11 384 13 L384 69 Q407 61 428 56.5 Q449 52 479 52 Q514 52 529 67.5 Q544 83 544 103 Q544 131 525 140 Q506 149 475 149 L394 149 L394 324 L597 324 L597 269 L446 269 Z M43 0 L553 700 L612 700 L104 0 L43 0 Z M68 691 Q80 694 95 698 Q107 700 123.5 702.5 Q140 705 159 705 Q191 705 213 697.5 Q235 690 249 678.5 Q263 667 269 652 Q275 637 275 622 Q275 585 258 567 Q241 549 215 542 L215 540 Q245 533 263 516 Q281 499 281 464 Q281 446 274.5 429.5 Q268 413 253.5 399.5 Q239 386 215.5 378 Q192 370 158 370 Q119 370 95.5 376 Q72 382 63 384 L63 439 Q84 434 105.5 429.5 Q127 425 152 425 Q185 425 199.5 437.5 Q214 450 214 470 Q214 495 198 505 Q182 515 156 515 L121 515 L121 565 L156 565 Q181 565 195.5 575 Q210 585 210 610 Q210 626 197.5 638 Q185 650 154 650 Q135 650 111.5 646.5 Q88 643 68 638 L68 691 Z " />
<glyph glyph-name="uni2158" unicode="&#x2158;" horiz-adv-x="680" d="M42 505 L199 705 L258 705 L258 505 L300 505 L300 452 L258 452 L258 376 L194 376 L194 452 L42 452 L42 505 Z M194 625 L96 505 L194 505 L194 625 Z M462 269 L462 203 L499 203 Q559 203 593 177.5 Q627 152 627 104 Q627 84 620 65 Q613 46 598 30 Q583 14 558.5 4.5 Q534 -5 499 -5 Q457 -5 431.5 3 Q406 11 400 13 L400 69 Q423 61 444 56.5 Q465 52 495 52 Q530 52 545 67.5 Q560 83 560 103 Q560 131 541 140 Q522 149 491 149 L410 149 L410 324 L613 324 L613 269 L462 269 Z M59 0 L569 700 L628 700 L120 0 L59 0 Z " />
<glyph glyph-name="uni2159" unicode="&#x2159;" horiz-adv-x="647" d="M592 102 Q592 75 582.5 54.5 Q573 34 557 21 Q541 8 520 1.5 Q499 -5 475 -5 Q418 -5 386 30.5 Q354 66 354 143 Q354 179 361.5 212.5 Q369 246 386 272 Q403 298 431 313.5 Q459 329 500 329 Q523 329 539.5 325 Q556 321 570 316 L570 263 Q540 274 511 274 Q486 274 469 266.5 Q452 259 441 245.5 Q430 232 424.5 213.5 Q419 195 418 174 Q431 185 449.5 193.5 Q468 202 493 202 Q533 202 562.5 177.5 Q592 153 592 102 Z M483 47 Q506 47 521 60.5 Q536 74 536 100 Q536 126 521.5 139.5 Q507 153 481 153 Q461 153 445 145 Q429 137 417 128 Q420 86 436 66.5 Q452 47 483 47 Z M71 376 L71 422 L130 422 L130 632 L71 632 L71 680 L120 680 Q135 680 145 688 Q155 696 157 704 L197 704 L197 422 L256 422 L256 376 L71 376 Z M35 0 L545 700 L604 700 L96 0 L35 0 Z " />
<glyph glyph-name="six.denominator" unicode="&#xf65b;" horiz-adv-x="303" d="M273 102 Q273 75 263.5 54.5 Q254 34 238 21 Q222 8 201 1.5 Q180 -5 156 -5 Q99 -5 67 30.5 Q35 66 35 143 Q35 179 42.5 212.5 Q50 246 67 272 Q84 298 112 313.5 Q140 329 181 329 Q204 329 220.5 325 Q237 321 251 316 L251 263 Q221 274 192 274 Q167 274 150 266.5 Q133 259 122 245.5 Q111 232 105.5 213.5 Q100 195 99 174 Q112 185 130.5 193.5 Q149 202 174 202 Q214 202 243.5 177.5 Q273 153 273 102 Z M164 47 Q187 47 202 60.5 Q217 74 217 100 Q217 126 202.5 139.5 Q188 153 162 153 Q142 153 126 145 Q110 137 98 128 Q101 86 117 66.5 Q133 47 164 47 Z " />
</font>
</svg>
