<?xml version="1.0" encoding="UTF-8"?>
<svg xmlns="http://www.w3.org/2000/svg" xmlns:xlink="http://www.w3.org/1999/xlink" version="1.2" >
<font id="Catalana Sans Medium Italic">
<font-face  font-family="Catalana Sans" units-per-em="1000" ascent="1000" descent="-300" font-style="normal" font-weight="500" font-stretch="normal" slope="-12" cap-height="700" x-height="530" underline-position="-75" underline-thickness="50" />
<missing-glyph  horiz-adv-x="883" d="M325 517 Q341 525 372 537 Q403 549 442 549 Q481 549 507.5 540 Q534 531 550.5 516 Q567 501 574 482 Q581 463 581 444 Q581 407 563.5 382 Q546 357 505 338 Q476 324 466.5 316 Q457 308 455 294 L451 246 L394 246 L389 294 Q384 327 403.5 343.5 Q423 360 455 376 Q487 392 494.5 406.5 Q502 421 502 436 Q502 456 487 471.5 Q472 487 434 487 Q408 487 383.5 481 Q359 475 325 458 L325 517 Z M377 158 Q377 177 390 189.5 Q403 202 423 202 Q445 202 457 189.5 Q469 177 469 158 Q469 141 457 128.5 Q445 116 423 116 Q403 116 390 128.5 Q377 141 377 158 Z M80 349 Q80 424 108.5 490 Q137 556 186 604.5 Q235 653 301 681.5 Q367 710 442 710 Q517 710 583 681.5 Q649 653 697.5 604.5 Q746 556 774.5 490 Q803 424 803 349 Q803 274 774.5 209 Q746 144 696.5 95 Q647 46 581.5 18 Q516 -10 441 -10 Q366 -10 300 18 Q234 46 185.5 95 Q137 144 108.5 209 Q80 274 80 349 Z M139 349 Q139 286 162.5 231 Q186 176 227 135 Q268 94 323 70.5 Q378 47 441 47 Q504 47 559 70.5 Q614 94 655 135 Q696 176 719.5 231 Q743 286 743 349 Q743 412 719.5 467.5 Q696 523 655.5 564.5 Q615 606 560 629.5 Q505 653 442 653 Q379 653 324 629.5 Q269 606 227.5 564.5 Q186 523 162.5 467.5 Q139 412 139 349 Z " />
<glyph glyph-name="NULL" d="" />
<glyph glyph-name="nonmarkingreturn" unicode="&#xd;" d="" />
<glyph glyph-name="space" unicode="&#x20;" horiz-adv-x="222" d="" />
<glyph glyph-name="exclam" unicode="&#x21;" horiz-adv-x="259" d="M5 49 Q5 81 30 105.5 Q55 130 93 130 Q119 130 135.5 112 Q152 94 152 71 Q152 39 127.5 14.5 Q103 -10 64 -10 Q39 -10 22 7.5 Q5 25 5 49 Z M62 206 L104 510 L145 700 L283 700 L241 510 L156 206 L62 206 Z " />
<glyph glyph-name="quotedbl" unicode="&#x22;" horiz-adv-x="367" d="M255 452 L274 620 L292 700 L397 700 L379 620 L328 452 L255 452 Z M99 452 L118 620 L136 700 L241 700 L223 620 L172 452 L99 452 Z " />
<glyph glyph-name="numbersign" unicode="&#x23;" horiz-adv-x="541" d="M465 152 L355 152 L305 0 L231 0 L281 152 L171 152 L121 0 L47 0 L97 152 L19 152 L19 214 L117 214 L151 315 L59 315 L59 377 L171 377 L221 528 L295 528 L245 377 L355 377 L405 528 L479 528 L429 377 L505 377 L505 315 L409 315 L375 214 L465 214 L465 152 Z M191 214 L301 214 L335 315 L225 315 L191 214 Z " />
<glyph glyph-name="dollar" unicode="&#x24;" horiz-adv-x="561" d="M503 219 Q503 169 485 128.5 Q467 88 433 59 Q399 30 351 12.5 Q303 -5 243 -8 L223 -102 L173 -102 L192 -10 Q117 -8 69 6.5 Q21 21 7 31 L28 130 Q80 108 125 98 Q170 88 213 89 L258 298 Q224 314 193.5 332 Q163 350 140 372.5 Q117 395 103.5 424.5 Q90 454 90 494 Q90 544 109 583 Q128 622 162 649 Q196 676 242.5 691 Q289 706 345 709 L362 787 L412 787 L395 709 Q457 707 498 696.5 Q539 686 553 680 L532 579 Q488 593 450 601.5 Q412 610 375 612 L331 406 Q365 390 396 372.5 Q427 355 451 333 Q475 311 489 283 Q503 255 503 219 Z M211 519 Q211 490 226 469.5 Q241 449 285 427 L324 610 Q270 604 240.5 581 Q211 558 211 519 Z M375 193 Q375 222 358 240 Q341 258 303 276 L264 92 Q323 101 349 128.5 Q375 156 375 193 Z " />
<glyph glyph-name="percent" unicode="&#x25;" horiz-adv-x="710" d="M155 494 Q155 467 164 453 Q173 439 195 439 Q216 439 232 454.5 Q248 470 258 492.5 Q268 515 273 539.5 Q278 564 278 583 Q278 609 269 623 Q260 637 237 637 Q216 637 200.5 622 Q185 607 175 585.5 Q165 564 160 539 Q155 514 155 494 Z M356 586 Q356 545 345 506.5 Q334 468 312.5 438 Q291 408 260 389.5 Q229 371 190 371 Q134 371 105.5 402 Q77 433 77 490 Q77 530 88 568.5 Q99 607 120 638 Q141 669 172 688 Q203 707 244 707 Q298 707 327 675.5 Q356 644 356 586 Z M452 118 Q452 91 461 77 Q470 63 492 63 Q513 63 529 78.5 Q545 94 555 116.5 Q565 139 570 163.5 Q575 188 575 207 Q575 233 566 247 Q557 261 534 261 Q513 261 497.5 246 Q482 231 472 209.5 Q462 188 457 163 Q452 138 452 118 Z M653 210 Q653 169 642 130.5 Q631 92 609.5 62 Q588 32 557 13.5 Q526 -5 487 -5 Q431 -5 402.5 26 Q374 57 374 114 Q374 154 385 192.5 Q396 231 417 262 Q438 293 469 312 Q500 331 541 331 Q595 331 624 299.5 Q653 268 653 210 Z M591 700 L663 700 L144 0 L72 0 L591 700 Z " />
<glyph glyph-name="ampersand" unicode="&#x26;" horiz-adv-x="703" d="M308 543 Q308 531 310 520 Q312 509 317 496 Q322 483 330.5 466.5 Q339 450 352 429 Q372 440 393.5 454 Q415 468 432.5 486 Q450 504 461.5 526.5 Q473 549 473 578 Q473 640 403 640 Q358 640 333 611.5 Q308 583 308 543 Z M260 80 Q292 80 324.5 93 Q357 106 389 130 L269 323 Q254 318 231.5 307.5 Q209 297 187 280 Q165 263 149.5 237.5 Q134 212 134 177 Q134 158 141.5 140.5 Q149 123 164.5 109.5 Q180 96 204 88 Q228 80 260 80 Z M432 61 Q386 28 331.5 9 Q277 -10 213 -10 Q159 -10 121 4.5 Q83 19 58 42.5 Q33 66 21.5 95.5 Q10 125 10 156 Q10 217 36 257 Q62 297 98.5 321.5 Q135 346 173.5 358 Q212 370 236 375 Q212 417 205 454 Q198 491 198 513 Q198 556 213 592.5 Q228 629 255 655 Q282 681 320.5 695.5 Q359 710 406 710 Q448 710 477.5 699.5 Q507 689 526 671.5 Q545 654 554 631.5 Q563 609 563 584 Q563 546 548.5 514.5 Q534 483 509 457.5 Q484 432 452 411.5 Q420 391 386 375 L480 223 Q529 287 565 373 L654 373 Q631 313 599.5 255 Q568 197 526 148 L557 97 Q566 84 585 84 L650 84 L632 0 L521 0 Q489 0 470 13.5 Q451 27 442 45 L432 61 Z " />
<glyph glyph-name="quotesingle" unicode="&#x27;" horiz-adv-x="211" d="M99 452 L118 620 L136 700 L241 700 L223 620 L172 452 L99 452 Z " />
<glyph glyph-name="parenleft" unicode="&#x28;" horiz-adv-x="331" d="M190 -115 Q117 -61 73 13.5 Q29 88 29 182 Q29 222 38 266 L70 421 Q85 496 114 552 Q143 608 183 651.5 Q223 695 273 729.5 Q323 764 381 796 L412 742 Q368 710 330.5 675.5 Q293 641 264 602 Q235 563 214 518 Q193 473 182 421 L150 266 Q145 238 141.5 212 Q138 186 138 161 Q138 95 167 42 Q196 -11 243 -61 L190 -115 L190 -115 Z " />
<glyph glyph-name="parenright" unicode="&#x29;" horiz-adv-x="331" d="M158.012 795.993 Q231.007 741.996 275.004 667.501 Q319.002 593.005 319.002 499.011 Q319.002 459.014 310.002 415.016 L278.004 260.026 Q263.005 185.03 234.007 129.034 Q205.009 73.0371 165.011 29.5398 Q125.014 -13.9576 75.0167 -48.4555 Q25.0197 -82.9534 -32.9767 -114.951 L-63.9749 -60.9547 Q-19.9775 -28.9567 17.5202 5.54123 Q55.0179 40.0391 84.0161 79.0367 Q113.014 118.034 134.013 163.032 Q155.012 208.029 166.011 260.026 L198.009 415.016 Q203.009 443.015 206.509 469.013 Q210.008 495.011 210.008 520.01 Q210.008 586.006 181.01 639.003 Q152.012 691.999 105.015 741.996 L158.012 795.993 L158.012 795.993 Z " />
<glyph glyph-name="asterisk" unicode="&#x2a;" horiz-adv-x="453" d="M297 554 L369 613 L420 640 L459 563 L408 537 L308 511 L382 449 L416 403 L348 351 L313 397 L274 484 L234 397 L199 351 L131 403 L165 449 L238 511 L138 537 L87 563 L126 640 L178 613 L249 554 L231 643 L231 700 L316 700 L316 643 L297 554 Z " />
<glyph glyph-name="plus" unicode="&#x2b;" horiz-adv-x="498" d="M49 373 L217 373 L217 542 L295 542 L295 373 L463 373 L463 297 L295 297 L295 127 L217 127 L217 297 L49 297 L49 373 Z " />
<glyph glyph-name="comma" unicode="&#x2c;" horiz-adv-x="228" d="M12 -124 Q11 -124 4 -119.5 Q-3 -115 -12 -110 Q-23 -104 -35 -95 L19 -20 L14 3 Q-5 21 -5 46 Q-5 61 0.5 75 Q6 89 16 100 Q26 111 40.5 117.5 Q55 124 74 124 Q103 124 120 107.5 Q137 91 137 67 Q137 49 129 35 Q121 21 112 9 L12 -124 L12 -124 Z " />
<glyph glyph-name="hyphen" unicode="&#x2d;" horiz-adv-x="358" d="M68 334 L304 334 L286 251 L50 251 L68 334 Z " />
<glyph glyph-name="period" unicode="&#x2e;" horiz-adv-x="227" d="M-6 46 Q-6 76 16.5 100 Q39 124 77 124 Q104 124 120 107 Q136 90 136 67 Q136 36 112.5 13 Q89 -10 51 -10 Q24 -10 9 6.5 Q-6 23 -6 46 Z " />
<glyph glyph-name="slash" unicode="&#x2f;" horiz-adv-x="440" d="M-63 -102 L436 787 L522 787 L23 -102 L-63 -102 Z " />
<glyph glyph-name="zero" unicode="0" horiz-adv-x="638" d="M277 -10 Q219 -10 176.5 9 Q134 28 105.5 61.5 Q77 95 63 140.5 Q49 186 49 240 Q49 291 57.5 346 Q66 401 84 453.5 Q102 506 129.5 552.5 Q157 599 194 634 Q231 669 278.5 689.5 Q326 710 385 710 Q442 710 484.5 691 Q527 672 555 638.5 Q583 605 597 559 Q611 513 611 459 Q611 408 602 353.5 Q593 299 575.5 247 Q558 195 530.5 148.5 Q503 102 466 66.5 Q429 31 381.5 10.5 Q334 -10 277 -10 Z M282 88 Q318 88 347.5 107.5 Q377 127 399.5 160 Q422 193 438 234.5 Q454 276 464.5 320 Q475 364 480 406.5 Q485 449 485 484 Q485 544 459.5 578 Q434 612 378 612 Q341 612 311.5 592.5 Q282 573 259.5 540.5 Q237 508 221 466 Q205 424 194.5 380 Q184 336 179 293.5 Q174 251 174 217 Q174 155 199 121.5 Q224 88 282 88 Z " />
<glyph glyph-name="one" unicode="1" horiz-adv-x="440" d="M-17 0 L1 84 L123 84 L228 579 L106 579 L123 664 L213 664 Q254 664 280.5 676.5 Q307 689 317 710 L381 710 L247 84 L371 84 L353 0 L-17 0 Z " />
<glyph glyph-name="two" unicode="2" horiz-adv-x="561" d="M133 663 Q140 666 159 674 Q178 682 206 690 Q234 698 270 704 Q306 710 348 710 Q405 710 445 695.5 Q485 681 509.5 657.5 Q534 634 545.5 604 Q557 574 557 544 Q557 501 542.5 466.5 Q528 432 497 401 Q466 370 418 339.5 Q370 309 303 273 Q256 248 226 230 Q196 212 178 196 Q160 180 151.5 163.5 Q143 147 138 126 L133 104 L476 104 L455 0 L-13 0 L12 120 Q19 155 33 184 Q47 213 73 240 Q99 267 140 294 Q181 321 243 354 Q289 379 323.5 399.5 Q358 420 381 440.5 Q404 461 415 482.5 Q426 504 426 531 Q426 566 401 587.5 Q376 609 317 609 Q274 609 220 596.5 Q166 584 115 561 L133 663 Z " />
<glyph glyph-name="three" unicode="3" horiz-adv-x="539" d="M133 675 Q154 686 204.5 698 Q255 710 320 710 Q376 710 415 696.5 Q454 683 479 661.5 Q504 640 515 612 Q526 584 526 555 Q526 470 480.5 421.5 Q435 373 361 359 L360 356 Q408 340 438.5 309.5 Q469 279 469 222 Q469 179 453.5 137.5 Q438 96 404 63 Q370 30 317 10 Q264 -10 189 -10 Q151 -10 117.5 -5.5 Q84 -1 58 5 Q32 11 13.5 17 Q-5 23 -14 27 L5 117 Q58 98 101 92 Q144 86 177 86 Q220 86 251 97.5 Q282 109 302.5 128.5 Q323 148 332.5 173 Q342 198 342 226 Q342 274 315 294 Q288 314 234 314 L169 314 L186 405 L255 405 Q285 405 311 412.5 Q337 420 356.5 435 Q376 450 387.5 473 Q399 496 399 528 Q399 545 393.5 560.5 Q388 576 375.5 587.5 Q363 599 341.5 606 Q320 613 288 613 Q250 613 209.5 606.5 Q169 600 116 581 L133 675 Z " />
<glyph glyph-name="four" unicode="4" horiz-adv-x="599" d="M409 556 L134 271 L348 271 L409 556 Z M451 174 L414 0 L291 0 L327 174 L1 174 L20 271 L442 710 L564 710 L472 271 L560 271 L541 174 L451 174 Z " />
<glyph glyph-name="five" unicode="5" horiz-adv-x="551" d="M199 -10 Q154 -10 116 -3.5 Q78 3 51 11 Q19 21 -6 33 L15 130 Q62 109 105.5 99 Q149 89 199 89 Q243 89 275 101 Q307 113 327.5 132.5 Q348 152 358 177.5 Q368 203 368 230 Q368 288 332 309.5 Q296 331 237 331 L79 331 L157 700 L556 700 L534 595 L241 595 L205 429 L271 429 Q317 429 358 419 Q399 409 430 387 Q461 365 478.5 329 Q496 293 496 241 Q496 196 479 151 Q462 106 425.5 70 Q389 34 333 12 Q277 -10 199 -10 Z " />
<glyph glyph-name="six" unicode="6" horiz-adv-x="587" d="M536 255 Q536 189 513 139.5 Q490 90 451.5 57 Q413 24 363.5 7 Q314 -10 261 -10 Q159 -10 101.5 47 Q44 104 44 222 Q44 270 52.5 325 Q61 380 80 434 Q99 488 129.5 538 Q160 588 203.5 626 Q247 664 304.5 687 Q362 710 435 710 Q487 710 525 701.5 Q563 693 583 685 L561 590 Q525 603 491.5 608.5 Q458 614 429 614 Q381 614 341 596 Q301 578 269.5 545 Q238 512 215.5 465.5 Q193 419 180 361 Q210 386 254 405.5 Q298 425 354 425 Q389 425 422 415 Q455 405 480.5 384 Q506 363 521 331 Q536 299 536 255 Z M272 81 Q300 81 326 90.5 Q352 100 372 120 Q392 140 404.5 169.5 Q417 199 417 240 Q417 287 389.5 310 Q362 333 319 333 Q275 333 235.5 313 Q196 293 164 264 Q163 248 162.5 232.5 Q162 217 162 200 Q162 146 187.5 113.5 Q213 81 272 81 Z " />
<glyph glyph-name="seven" unicode="7" horiz-adv-x="499" d="M49 0 L409 595 L82 595 L104 700 L561 700 L547 635 L186 0 L49 0 Z " />
<glyph glyph-name="eight" unicode="8" horiz-adv-x="586" d="M239 -10 Q175 -10 132.5 3.5 Q90 17 65 39.5 Q40 62 29.5 90.5 Q19 119 19 149 Q19 199 37 235 Q55 271 81 295.5 Q107 320 136 334.5 Q165 349 188 357 Q155 380 133 414 Q111 448 111 497 Q111 544 130 583 Q149 622 183 650.5 Q217 679 264 694.5 Q311 710 367 710 Q424 710 462.5 697 Q501 684 524.5 663 Q548 642 558 616 Q568 590 568 565 Q568 528 557 498 Q546 468 527 444 Q508 420 482 402 Q456 384 427 372 Q470 346 494.5 311 Q519 276 519 222 Q519 167 497.5 124 Q476 81 438.5 51 Q401 21 350 5.5 Q299 -10 239 -10 Z M223 524 Q223 489 253 463 Q283 437 349 409 Q370 419 390.5 432 Q411 445 427.5 461.5 Q444 478 454 498.5 Q464 519 464 544 Q464 577 436 599.5 Q408 622 353 622 Q294 622 258.5 595 Q223 568 223 524 Z M250 78 Q285 78 312.5 88 Q340 98 358.5 114.5 Q377 131 387 152.5 Q397 174 397 198 Q397 221 387.5 238 Q378 255 361 268.5 Q344 282 319.5 293.5 Q295 305 264 317 Q251 311 227.5 300.5 Q204 290 181.5 272 Q159 254 142.5 228.5 Q126 203 126 167 Q126 150 132.5 134 Q139 118 154 105.5 Q169 93 192.5 85.5 Q216 78 250 78 Z " />
<glyph glyph-name="nine" unicode="9" horiz-adv-x="587" d="M290 367 Q333 367 373 387 Q413 407 444 436 Q446 452 446 467.5 Q446 483 446 500 Q446 554 420.5 586.5 Q395 619 336 619 Q309 619 282.5 609.5 Q256 600 236 580 Q216 560 203.5 530 Q191 500 191 460 Q191 413 218.5 390 Q246 367 290 367 Z M173 -10 Q122 -10 84 -1.5 Q46 7 26 15 L48 110 Q83 97 116.5 91.5 Q150 86 179 86 Q227 86 267 104 Q307 122 338.5 155 Q370 188 392.5 234.5 Q415 281 429 338 Q399 314 355.5 294.5 Q312 275 255 275 Q219 275 186.5 285 Q154 295 128.5 316 Q103 337 88 369 Q73 401 73 445 Q73 511 96 560.5 Q119 610 157.5 643 Q196 676 245.5 693 Q295 710 348 710 Q450 710 507.5 653 Q565 596 565 478 Q565 430 556.5 375 Q548 320 528.5 266 Q509 212 478.5 162 Q448 112 404.5 74 Q361 36 303.5 13 Q246 -10 173 -10 Z " />
<glyph glyph-name="colon" unicode="&#x3a;" horiz-adv-x="260" d="M7 46 Q7 76 30 100 Q53 124 91 124 Q118 124 133.5 107 Q149 90 149 67 Q149 36 125.5 13 Q102 -10 64 -10 Q38 -10 22.5 6.5 Q7 23 7 46 Z M94 460 Q94 490 117 514 Q140 538 178 538 Q204 538 220 521 Q236 504 236 481 Q236 450 212.5 427 Q189 404 151 404 Q125 404 109.5 420.5 Q94 437 94 460 Z " />
<glyph glyph-name="semicolon" unicode="&#x3b;" horiz-adv-x="266" d="M11 46 Q11 61 16.5 75 Q22 89 32 100 Q42 111 56.5 117.5 Q71 124 90 124 Q119 124 136 107.5 Q153 91 153 67 Q153 49 145.5 35 Q138 21 128 9 L28 -124 L-19 -95 L36 -20 L31 3 Q11 22 11 46 Z M99 460 Q99 490 122 514 Q145 538 183 538 Q209 538 225 521 Q241 504 241 481 Q241 450 217.5 427 Q194 404 156 404 Q129 404 114 420.5 Q99 437 99 460 Z " />
<glyph glyph-name="less" unicode="&#x3c;" horiz-adv-x="540" d="M46 314 L46 369 L467 543 L467 461 L167 343 L467 221 L467 139 L46 314 Z " />
<glyph glyph-name="equal" unicode="&#x3d;" horiz-adv-x="583" d="M90 454 L505 454 L505 379 L90 379 L90 454 Z M87 293 L501 293 L501 218 L87 218 L87 293 Z " />
<glyph glyph-name="greater" unicode="&#x3e;" horiz-adv-x="531" d="M78 221 L378 343 L78 461 L78 543 L499 369 L499 314 L78 139 L78 221 Z " />
<glyph glyph-name="question" unicode="&#x3f;" horiz-adv-x="483" d="M69 49 Q69 65 75.5 80 Q82 95 93.5 106.5 Q105 118 121.5 125 Q138 132 158 132 Q184 132 201.5 114 Q219 96 219 73 Q219 40 194 15 Q169 -10 129 -10 Q103 -10 86 8 Q69 26 69 49 Z M108 663 Q120 669 139.5 677 Q159 685 183.5 692.5 Q208 700 237.5 705 Q267 710 300 710 Q354 710 392.5 698 Q431 686 455.5 666 Q480 646 492 620 Q504 594 504 566 Q504 530 495.5 501 Q487 472 467.5 447.5 Q448 423 416 401.5 Q384 380 337 360 Q311 349 294 340 Q277 331 266.5 323 Q256 315 250 306 Q244 297 241 285 L222 206 L124 206 L136 292 Q139 320 150 338.5 Q161 357 178.5 370.5 Q196 384 219.5 395.5 Q243 407 272 421 Q330 449 352 475.5 Q374 502 374 537 Q374 569 348.5 588 Q323 607 261 607 Q243 607 220 603.5 Q197 600 173.5 594.5 Q150 589 127.5 581 Q105 573 87 564 L108 663 Z " />
<glyph glyph-name="at" unicode="&#x40;" horiz-adv-x="864" d="M234 247 Q234 304 249 355 Q264 406 292 444.5 Q320 483 358.5 505.5 Q397 528 444 528 Q474 528 497 516 Q520 504 534 484 L537 484 L538 493 Q540 503 547.5 511.5 Q555 520 574 520 L638 520 L581 255 Q577 240 577 223 Q577 199 591 180.5 Q605 162 643 162 Q665 162 687 174.5 Q709 187 727 213.5 Q745 240 756.5 281.5 Q768 323 768 381 Q768 435 751 484 Q734 533 699.5 570.5 Q665 608 614 630.5 Q563 653 494 653 Q410 653 341.5 623.5 Q273 594 223.5 542 Q174 490 147 418.5 Q120 347 120 263 Q120 194 138.5 145 Q157 96 187 62.5 Q217 29 254 9 Q291 -11 327 -21.5 Q363 -32 395.5 -35 Q428 -38 448 -38 Q510 -38 558.5 -29.5 Q607 -21 647 -7 L652 -51 Q611 -70 558 -82.5 Q505 -95 441 -95 Q416 -95 377 -91 Q338 -87 294.5 -74.5 Q251 -62 207 -38.5 Q163 -15 127.5 25 Q92 65 70 123 Q48 181 48 263 Q48 359 80 441 Q112 523 170.5 583 Q229 643 311.5 676.5 Q394 710 494 710 Q580 710 645 683 Q710 656 753.5 610.5 Q797 565 818.5 505.5 Q840 446 840 381 Q840 303 818 249.5 Q796 196 761.5 163 Q727 130 686 115.5 Q645 101 608 101 Q560 101 525 118.5 Q490 136 477 171 Q457 142 424 122.5 Q391 103 352 103 Q295 103 264.5 142.5 Q234 182 234 247 Z M390 182 Q411 182 435 198.5 Q459 215 477 238 L517 422 Q503 435 486.5 442.5 Q470 450 452 450 Q427 450 406.5 435 Q386 420 371 394 Q356 368 347.5 333.5 Q339 299 339 260 Q339 226 351.5 204 Q364 182 390 182 Z " />
<glyph glyph-name="A" unicode="A" horiz-adv-x="620" d="M398 154 L163 154 L85 0 L-46 0 L325 702 L454 702 L549 0 L416 0 L398 154 Z M211 248 L388 248 L356 533 L211 248 Z " />
<glyph glyph-name="B" unicode="B" horiz-adv-x="614" d="M163 700 L377 700 Q482 700 539 662.5 Q596 625 596 547 Q596 475 557 431.5 Q518 388 449 365 L449 362 Q500 345 527.5 312 Q555 279 555 222 Q555 166 534.5 124.5 Q514 83 475.5 55 Q437 27 382 13.5 Q327 0 258 0 L13 0 L163 700 Z M156 93 L269 93 Q353 93 390.5 130.5 Q428 168 428 228 Q428 274 399.5 294 Q371 314 315 314 L205 314 L156 93 Z M224 407 L309 407 Q392 407 430.5 440 Q469 473 469 530 Q469 571 439.5 589 Q410 607 353 607 L267 607 L224 407 Z " />
<glyph glyph-name="C" unicode="C" horiz-adv-x="556" d="M468 16 Q438 5 397.5 -2.5 Q357 -10 305 -10 Q181 -10 113.5 56.5 Q46 123 46 247 Q46 353 74.5 439 Q103 525 155.5 585 Q208 645 282 677.5 Q356 710 448 710 Q498 710 536 701.5 Q574 693 596 685 L574 584 Q540 595 507.5 600.5 Q475 606 445 606 Q385 606 336 585 Q287 564 251.5 520.5 Q216 477 196.5 411.5 Q177 346 177 258 Q177 181 214.5 136.5 Q252 92 338 92 Q376 92 412 98.5 Q448 105 486 119 L468 16 Z " />
<glyph glyph-name="D" unicode="D" horiz-adv-x="664" d="M162 700 L371 700 Q432 700 481 684 Q530 668 564.5 636.5 Q599 605 617.5 557 Q636 509 636 446 Q636 339 608.5 256 Q581 173 529.5 116 Q478 59 405 29.5 Q332 0 242 0 L14 0 L162 700 Z M159 98 L265 98 Q314 98 358 120.5 Q402 143 434.5 187 Q467 231 486 296 Q505 361 505 447 Q505 525 468.5 564 Q432 603 351 603 L266 603 L159 98 Z " />
<glyph glyph-name="E" unicode="E" horiz-adv-x="563" d="M267 602 L225 405 L488 405 L467 309 L204 309 L158 98 L484 98 L463 0 L13 0 L162 700 L603 700 L582 602 L267 602 Z " />
<glyph glyph-name="F" unicode="F" horiz-adv-x="561" d="M267 602 L220 386 L492 386 L471 289 L199 289 L138 0 L14 0 L162 700 L615 700 L595 602 L267 602 Z " />
<glyph glyph-name="G" unicode="G" horiz-adv-x="604" d="M493 24 Q462 11 418.5 0.5 Q375 -10 312 -10 Q247 -10 197.5 8.5 Q148 27 114 60.5 Q80 94 63 141 Q46 188 46 245 Q46 354 75 440 Q104 526 156.5 586 Q209 646 283 678 Q357 710 447 710 Q504 710 546.5 702 Q589 694 615 685 L592 584 Q514 611 445 611 Q384 611 334.5 589.5 Q285 568 250 523.5 Q215 479 196 412 Q177 345 177 255 Q177 179 217.5 133.5 Q258 88 338 88 Q357 88 371 90 Q385 92 398 97 L450 343 L560 343 L493 24 L493 24 Z " />
<glyph glyph-name="H" unicode="H" horiz-adv-x="658" d="M456 309 L203 309 L138 0 L14 0 L162 700 L286 700 L224 406 L477 406 L539 700 L664 700 L517 0 L393 0 L456 309 Z " />
<glyph glyph-name="I" unicode="I" horiz-adv-x="279" d="M162 700 L286 700 L138 0 L14 0 L162 700 Z " />
<glyph glyph-name="J" unicode="J" horiz-adv-x="444" d="M332 700 L457 700 L349 193 Q329 97 268 43.5 Q207 -10 104 -10 Q51 -10 17 -0.5 Q-17 9 -40 21 L-20 114 Q-4 106 13 101.5 Q30 97 46 94.5 Q62 92 74.5 91 Q87 90 95 90 Q152 90 183.5 118.5 Q215 147 226 201 L332 700 Z " />
<glyph glyph-name="K" unicode="K" horiz-adv-x="623" d="M162 700 L286 700 L225 406 L302 406 L554 700 L690 700 L402 367 L556 0 L414 0 L291 309 L204 309 L138 0 L14 0 L162 700 Z " />
<glyph glyph-name="L" unicode="L" horiz-adv-x="531" d="M159 97 L477 97 L457 0 L14 0 L162 700 L287 700 L159 97 Z " />
<glyph glyph-name="M" unicode="M" horiz-adv-x="756" d="M231 491 L127 0 L13 0 L162 700 L288 700 L394 369 L635 700 L764 700 L615 0 L497 0 L600 486 L398 214 L326 214 L231 491 Z " />
<glyph glyph-name="N" unicode="N" horiz-adv-x="661" d="M431 -3 L224 491 L121 0 L11 0 L160 700 L269 700 L461 237 L559 700 L669 700 L520 -3 L431 -3 Z " />
<glyph glyph-name="O" unicode="O" horiz-adv-x="677" d="M405 710 Q468 710 515 690.5 Q562 671 592.5 636.5 Q623 602 638 555.5 Q653 509 653 454 Q653 377 631.5 295 Q610 213 566 145 Q522 77 454.5 33.5 Q387 -10 294 -10 Q231 -10 184 9.5 Q137 29 106 63 Q75 97 59.5 143.5 Q44 190 44 244 Q44 295 53.5 349.5 Q63 404 82 456 Q101 508 130.5 554 Q160 600 200 634.5 Q240 669 291.5 689.5 Q343 710 405 710 Z M398 610 Q358 610 326 591 Q294 572 269.5 540 Q245 508 227.5 467.5 Q210 427 198.5 384 Q187 341 181.5 299 Q176 257 176 222 Q176 158 205 124 Q234 90 300 90 Q339 90 371 109 Q403 128 427.5 159 Q452 190 470 230 Q488 270 499.5 313 Q511 356 516.5 398 Q522 440 522 475 Q522 541 493.5 575.5 Q465 610 398 610 Z " />
<glyph glyph-name="P" unicode="P" horiz-adv-x="602" d="M162 700 L382 700 Q490 700 551 655.5 Q612 611 612 518 Q612 450 590 400 Q568 350 527 317 Q486 284 428 267.5 Q370 251 298 251 L192 251 L138 0 L14 0 L162 700 Z M267 607 L211 344 L316 344 Q394 344 439 385 Q484 426 484 512 Q484 559 455.5 583 Q427 607 364 607 L267 607 Z " />
<glyph glyph-name="Q" unicode="Q" horiz-adv-x="676" d="M405 710 Q468 710 515 690.5 Q562 671 592.5 636.5 Q623 602 638 555.5 Q653 509 653 454 Q653 390 638 321.5 Q623 253 592.5 192 Q562 131 515 82.5 Q468 34 405 10 L444 -41 L478 -56 L552 -56 L534 -142 L408 -142 Q378 -142 362 -132.5 Q346 -123 335 -106 L273 -9 Q215 -6 172 14.5 Q129 35 100.5 68.5 Q72 102 58 147 Q44 192 44 244 Q44 295 53.5 349.5 Q63 404 82 456 Q101 508 130.5 554 Q160 600 200 634.5 Q240 669 291 689.5 Q342 710 405 710 Z M398 610 Q358 610 326 591 Q294 572 269.5 540 Q245 508 227.5 467.5 Q210 427 198.5 384 Q187 341 181.5 298.5 Q176 256 176 222 Q176 158 205 124 Q234 90 300 90 Q339 90 371 109 Q403 128 427.5 159 Q452 190 470 230 Q488 270 499.5 313 Q511 356 516.5 398 Q522 440 522 475 Q522 541 493.5 575.5 Q465 610 398 610 Z " />
<glyph glyph-name="R" unicode="R" horiz-adv-x="618" d="M269 607 L219 376 L316 376 Q391 376 433.5 412.5 Q476 449 476 520 Q476 562 450.5 584.5 Q425 607 366 607 L269 607 Z M14 0 L162 700 L388 700 Q491 700 548.5 659.5 Q606 619 606 536 Q606 486 589 449 Q572 412 545 386.5 Q518 361 484 347 Q450 333 416 330 L416 326 Q454 319 469.5 294 Q485 269 493 220 L525 0 L387 0 L362 217 Q360 239 356 252 Q352 265 346 272 Q340 279 331 281 Q322 283 310 283 L201 283 L138 0 L14 0 Z " />
<glyph glyph-name="S" unicode="S" horiz-adv-x="540" d="M488 219 Q488 165 467.5 122.5 Q447 80 409.5 50.5 Q372 21 318.5 5.5 Q265 -10 199 -10 Q160 -10 127 -5.5 Q94 -1 68.5 6 Q43 13 26 19.5 Q9 26 2 31 L23 130 Q78 107 121.5 98 Q165 89 202 89 Q286 89 323 119 Q360 149 360 193 Q360 228 334.5 249.5 Q309 271 249 298 Q213 314 183 332.5 Q153 351 131.5 374.5 Q110 398 97.5 427 Q85 456 85 494 Q85 547 105.5 587.5 Q126 628 163 655 Q200 682 250 696 Q300 710 360 710 Q430 710 475.5 698.5 Q521 687 537 680 L516 579 Q471 594 431.5 603 Q392 612 352 612 Q283 612 244.5 588 Q206 564 206 519 Q206 501 211 487 Q216 473 229 460 Q242 447 264.5 434 Q287 421 322 405 Q362 387 393 368 Q424 349 445 327 Q466 305 477 278.5 Q488 252 488 219 Z " />
<glyph glyph-name="T" unicode="T" horiz-adv-x="559" d="M627 700 L606 602 L406 602 L279 0 L155 0 L282 602 L81 602 L102 700 L627 700 Z " />
<glyph glyph-name="U" unicode="U" horiz-adv-x="647" d="M542 700 L660 700 L561 232 Q547 167 521 121 Q495 75 458.5 46 Q422 17 375.5 3.5 Q329 -10 275 -10 Q169 -10 110 32.5 Q51 75 51 163 Q51 180 53.5 203.5 Q56 227 60 246 L156 700 L285 700 L189 248 Q185 230 183 214.5 Q181 199 181 185 Q181 143 208 117 Q235 91 292 91 Q358 91 394 130 Q430 169 446 248 L542 700 Z " />
<glyph glyph-name="V" unicode="V" horiz-adv-x="607" d="M183 -2 L96 700 L230 700 L282 186 L551 700 L678 700 L298 -2 L183 -2 Z " />
<glyph glyph-name="W" unicode="W" horiz-adv-x="932" d="M504 484 L272 -2 L145 -2 L101 700 L232 700 L252 178 L490 700 L618 700 L637 178 L875 700 L997 700 L658 -2 L531 -2 L504 484 Z " />
<glyph glyph-name="X" unicode="X" horiz-adv-x="623" d="M301 261 L80 0 L-64 0 L255 361 L110 700 L247 700 L348 453 L558 700 L700 700 L394 354 L546 0 L406 0 L301 261 Z " />
<glyph glyph-name="Y" unicode="Y" horiz-adv-x="608" d="M183 0 L241 271 L90 700 L219 700 L325 394 L541 700 L671 700 L368 283 L308 0 L183 0 Z " />
<glyph glyph-name="Z" unicode="Z" horiz-adv-x="570" d="M-32 0 L-17 68 L428 603 L108 603 L129 700 L608 700 L594 631 L152 98 L498 98 L477 0 L-32 0 Z " />
<glyph glyph-name="bracketleft" unicode="&#x5b;" horiz-adv-x="303" d="M190 -102 L-22 -102 L167 786 L379 786 L362 705 L259 705 L105 -21 L207 -21 L190 -102 Z " />
<glyph glyph-name="backslash" unicode="&#x5c;" horiz-adv-x="422" d="M123 787 L200 787 L316 -102 L239 -102 L123 787 Z " />
<glyph glyph-name="bracketright" unicode="&#x5d;" horiz-adv-x="303" d="M131.012 785.994 L342.999 785.994 L154.01 -101.952 L-57.9769 -101.952 L-40.9779 -20.957 L62.0158 -20.957 L216.006 704.999 L114.013 704.999 L131.012 785.994 Z " />
<glyph glyph-name="asciicircum" unicode="&#x5e;" horiz-adv-x="433" d="M336 385 L241 614 L148 385 L69 385 L202 700 L280 700 L416 385 L336 385 Z " />
<glyph glyph-name="underscore" unicode="&#x5f;" horiz-adv-x="494" d="M-81 -80 L413 -80 L399 -142 L-95 -142 L-81 -80 Z " />
<glyph glyph-name="grave" unicode="&#x60;" horiz-adv-x="378" d="M154 684 L223 751 L242 751 L333 615 L293 579 L279 579 L154 684 Z " />
<glyph glyph-name="a" unicode="a" horiz-adv-x="549" d="M216 93 Q249 93 282 119.5 Q315 146 341 179 L387 396 Q353 438 300 438 Q265 438 236 418 Q207 398 186 364 Q165 330 153.5 285 Q142 240 142 189 Q142 147 160.5 120 Q179 93 216 93 Z M318 73 Q292 39 255 14.5 Q218 -10 171 -10 Q99 -10 60 40 Q21 90 21 173 Q21 246 40.5 312 Q60 378 95.5 428.5 Q131 479 180.5 508.5 Q230 538 290 538 Q329 538 359.5 524 Q390 510 409 485 L413 485 L415 495 Q418 507 427 517.5 Q436 528 459 528 L533 528 L421 0 L345 0 Q321 0 317.5 11 Q314 22 316 36 L324 73 L318 73 Z " />
<glyph glyph-name="b" unicode="b" horiz-adv-x="549" d="M242 -10 Q204 -10 173.5 4 Q143 18 124 43 L119 43 L117 33 Q114 20 105.5 10 Q97 0 72 0 L0 0 L154 730 L272 730 L214 458 Q239 492 277.5 515 Q316 538 361 538 Q434 538 472.5 487 Q511 436 511 352 Q511 278 491.5 212.5 Q472 147 437 97.5 Q402 48 352 19 Q302 -10 242 -10 Z M232 91 Q267 91 296.5 110.5 Q326 130 347 163 Q368 196 379.5 240.5 Q391 285 391 336 Q391 379 372.5 407 Q354 435 316 435 Q282 435 249 409.5 Q216 384 191 350 L145 131 Q180 91 232 91 Z " />
<glyph glyph-name="c" unicode="c" horiz-adv-x="464" d="M406 69 Q394 56 376 42 Q358 28 334.5 16.5 Q311 5 282 -2.5 Q253 -10 219 -10 Q180 -10 144.5 2 Q109 14 82 38.5 Q55 63 38.5 101.5 Q22 140 22 194 Q22 276 47.5 340 Q73 404 116 448 Q159 492 216 515 Q273 538 335 538 Q372 538 402 531.5 Q432 525 453 518 L432 424 Q406 431 384.5 435 Q363 439 330 439 Q288 439 253.5 422 Q219 405 194.5 375.5 Q170 346 156 305.5 Q142 265 142 217 Q142 152 169.5 121 Q197 90 243 90 Q278 90 306.5 102 Q335 114 361 135 L406 69 Z " />
<glyph glyph-name="d" unicode="d" horiz-adv-x="549" d="M217 93 Q249 93 282 117 Q315 141 339 174 L387 397 Q370 416 348.5 426 Q327 436 300 436 Q265 436 236 416.5 Q207 397 186 364 Q165 331 153.5 286.5 Q142 242 142 192 Q142 148 160.5 120.5 Q179 93 217 93 Z M318 66 Q293 34 254.5 12 Q216 -10 172 -10 Q99 -10 60 40.5 Q21 91 21 175 Q21 248 40.5 314 Q60 380 95.5 430 Q131 480 180.5 509 Q230 538 290 538 Q328 538 358 524.5 Q388 511 407 488 L459 730 L576 730 L421 0 L346 0 Q322 0 318.5 11 Q315 22 317 36 L323 66 L318 66 Z " />
<glyph glyph-name="e" unicode="e" horiz-adv-x="495" d="M225 -10 Q183 -10 146 1.5 Q109 13 82 37.5 Q55 62 39 100.5 Q23 139 23 193 Q23 274 46.5 338.5 Q70 403 110 447 Q150 491 201.5 514.5 Q253 538 309 538 Q381 538 427.5 504.5 Q474 471 474 407 Q474 367 458 336.5 Q442 306 416 283 Q390 260 356 243.5 Q322 227 285.5 216 Q249 205 212.5 198.5 Q176 192 145 189 Q147 139 175.5 114 Q204 89 255 89 Q289 89 318 102 Q347 115 376 136 L420 72 Q406 58 387.5 43.5 Q369 29 345 17 Q321 5 291 -2.5 Q261 -10 225 -10 Z M296 449 Q273 449 250 438.5 Q227 428 207 406.5 Q187 385 171.5 351 Q156 317 149 271 Q180 275 217.5 282 Q255 289 287.5 302.5 Q320 316 342 337 Q364 358 364 391 Q364 420 344.5 434.5 Q325 449 296 449 Z " />
<glyph glyph-name="f" unicode="f" horiz-adv-x="342" d="M147 0 Q129 -84 79 -132 Q29 -180 -65 -180 Q-95 -180 -114 -177 Q-133 -174 -139 -172 L-123 -91 Q-119 -92 -110 -92.5 Q-101 -93 -91.5 -93.5 Q-82 -94 -73.5 -94.5 Q-65 -95 -62 -95 Q-22 -95 -2 -74.5 Q18 -54 28 -7 L123 440 L51 440 L69 526 L141 526 L147 560 Q162 645 213.5 692.5 Q265 740 363 740 Q391 740 412.5 737.5 Q434 735 445 733 L428 648 Q425 649 414.5 649.5 Q404 650 392.5 650.5 Q381 651 371 651 Q361 651 359 651 Q316 651 296 631 Q276 611 266 564 L258 526 L377 526 L360 440 L240 440 L147 0 L147 0 Z " />
<glyph glyph-name="g" unicode="g" horiz-adv-x="535" d="M168 352 Q168 312 191 292 Q214 272 252 272 Q299 272 329 303 Q359 334 359 385 Q359 425 337 444.5 Q315 464 274 464 Q229 464 198.5 433.5 Q168 403 168 352 Z M465 6 Q465 -42 442.5 -77 Q420 -112 381 -135 Q342 -158 289 -169 Q236 -180 175 -180 Q129 -180 91 -174.5 Q53 -169 25.5 -156 Q-2 -143 -17 -122.5 Q-32 -102 -32 -72 Q-32 -47 -23.5 -28 Q-15 -9 -2.5 5 Q10 19 25.5 29 Q41 39 56 45 Q19 70 19 117 Q19 153 41 182.5 Q63 212 114 234 Q88 252 73 280.5 Q58 309 58 349 Q58 394 76 429.5 Q94 465 125 489 Q156 513 195.5 525.5 Q235 538 279 538 Q300 538 320 535.5 Q340 533 358 528 L546 528 L529 440 L468 440 L462 435 Q469 416 469 396 Q469 348 450.5 311 Q432 274 401 249.5 Q370 225 329.5 212 Q289 199 245 199 Q208 199 180 206 Q157 198 141.5 186 Q126 174 126 158 Q126 129 177 129 L311 129 Q380 129 422.5 98.5 Q465 68 465 6 Z M192 -101 Q225 -101 254.5 -95.5 Q284 -90 305.5 -79.5 Q327 -69 339.5 -53.5 Q352 -38 352 -17 Q352 6 333 15 Q314 24 269 24 L138 24 L122 24 Q106 15 89.5 -3 Q73 -21 73 -48 Q73 -72 99.5 -86.5 Q126 -101 192 -101 Z " />
<glyph glyph-name="h" unicode="h" horiz-adv-x="553" d="M329 434 Q308 434 287.5 424 Q267 414 248.5 399.5 Q230 385 214.5 368.5 Q199 352 189 339 L117 0 L0 0 L155 730 L272 730 L213 452 Q227 468 244.5 483.5 Q262 499 282 511 Q302 523 325.5 530.5 Q349 538 376 538 Q440 538 475.5 502 Q511 466 511 407 Q511 396 510 385 Q509 374 506 361 L429 0 L311 0 L385 344 Q388 360 388 375 Q388 403 374 418.5 Q360 434 329 434 Z " />
<glyph glyph-name="i" unicode="i" horiz-adv-x="246" d="M112 528 L230 528 L118 0 L0 0 L112 528 Z M125 657 Q125 693 145 715 Q165 737 207 737 Q236 737 251 722.5 Q266 708 266 685 Q266 650 246 627.5 Q226 605 184 605 Q155 605 140 620 Q125 635 125 657 Z " />
<glyph glyph-name="j" unicode="j" horiz-adv-x="246" d="M124 658 Q124 694 143.5 716 Q163 738 205 738 Q234 738 249 723 Q264 708 264 685 Q264 650 244.5 628 Q225 606 183 606 Q154 606 139 621 Q124 636 124 658 Z M113 528 L231 528 L119 5 Q110 -37 94.5 -71 Q79 -105 54 -129.5 Q29 -154 -7.5 -167 Q-44 -180 -95 -180 Q-128 -180 -146.5 -175.5 Q-165 -171 -167 -171 L-150 -88 Q-147 -88 -137 -88 Q-127 -88 -116 -88.5 Q-105 -89 -95.5 -89 Q-86 -89 -82 -89 Q-50 -89 -29.5 -65 Q-9 -41 -1 -2 L113 528 Z " />
<glyph glyph-name="k" unicode="k" horiz-adv-x="546" d="M117 0 L0 0 L155 730 L272 730 L187 329 L244 329 L448 528 L587 528 L345 299 L473 0 L346 0 L246 240 L168 240 L117 0 Z " />
<glyph glyph-name="l" unicode="l" horiz-adv-x="247" d="M156 730 L274 730 L119 0 L2 0 L156 730 Z " />
<glyph glyph-name="m" unicode="m" horiz-adv-x="867" d="M330 434 Q309 434 288.5 424 Q268 414 250 399.5 Q232 385 216.5 368.5 Q201 352 191 339 L117 0 L1 0 L112 528 L187 528 Q212 528 216.5 517 Q221 506 218 492 L209 451 L214 451 Q228 467 245 482.5 Q262 498 282.5 510.5 Q303 523 326.5 530.5 Q350 538 377 538 Q430 538 463 512.5 Q496 487 506 445 Q520 461 538.5 477.5 Q557 494 580 507.5 Q603 521 631 529.5 Q659 538 691 538 Q755 538 790.5 502 Q826 466 825 407 Q825 396 824 385 Q823 374 820 361 L743 0 L625 0 L699 344 Q702 362 702 376 Q702 403 687.5 418.5 Q673 434 644 434 Q623 434 602.5 425.5 Q582 417 563 404.5 Q544 392 529 378 Q514 364 504 352 L428 0 L311 0 L384 344 Q388 360 388 376 Q388 403 374 418.5 Q360 434 330 434 Z " />
<glyph glyph-name="n" unicode="n" horiz-adv-x="555" d="M331 434 Q310 434 289.5 424 Q269 414 250.5 399.5 Q232 385 216.5 368.5 Q201 352 191 339 L117 0 L1 0 L112 528 L187 528 Q212 528 216.5 517 Q221 506 218 492 L209 451 L214 451 Q228 467 245.5 482.5 Q263 498 283 510.5 Q303 523 326.5 530.5 Q350 538 377 538 Q442 538 477 502 Q512 466 513 408 Q513 397 511.5 385.5 Q510 374 508 361 L430 0 L313 0 L386 344 Q390 359 390 376 Q390 403 376 418.5 Q362 434 331 434 Z " />
<glyph glyph-name="o" unicode="o" horiz-adv-x="546" d="M25 201 Q25 284 49 347 Q73 410 112 452.5 Q151 495 201 516.5 Q251 538 304 538 Q347 538 384 525.5 Q421 513 448.5 487.5 Q476 462 491.5 423.5 Q507 385 507 333 Q507 249 483 184.5 Q459 120 420 77 Q381 34 330.5 12 Q280 -10 228 -10 Q186 -10 149 3 Q112 16 84.5 42 Q57 68 41 107.5 Q25 147 25 201 Z M146 197 Q146 82 233 82 Q270 82 298.5 105.5 Q327 129 346.5 166.5 Q366 204 376 250.5 Q386 297 386 342 Q386 392 364.5 419 Q343 446 298 446 Q261 446 232.5 422.5 Q204 399 185 363 Q166 327 156 283 Q146 239 146 197 Z " />
<glyph glyph-name="p" unicode="p" horiz-adv-x="548" d="M232 91 Q267 91 296.5 110.5 Q326 130 347 163 Q368 196 379.5 240.5 Q391 285 391 336 Q391 379 372.5 407 Q354 435 316 435 Q283 435 251 411 Q219 387 194 353 L145 131 Q180 91 232 91 Z M242 -10 Q204 -10 174.5 3.5 Q145 17 126 40 L80 -170 L-37 -170 L113 528 L187 528 Q211 528 215 517 Q219 506 216 492 L210 461 L216 461 Q241 494 279 516 Q317 538 361 538 Q434 538 472.5 487 Q511 436 511 352 Q511 278 491.5 212.5 Q472 147 437 97.5 Q402 48 352 19 Q302 -10 242 -10 Z " />
<glyph glyph-name="q" unicode="q" horiz-adv-x="549" d="M267 -170 L318 69 Q294 35 255.5 12.5 Q217 -10 172 -10 Q99 -10 60 40.5 Q21 91 21 175 Q21 248 40.5 314 Q60 380 95.5 430 Q131 480 180.5 509 Q230 538 290 538 Q330 538 360.5 523.5 Q391 509 410 484 L414 484 L417 495 Q419 507 428 517.5 Q437 528 460 528 L534 528 L384 -170 L267 -170 Z M217 93 Q251 93 284 118 Q317 143 341 177 L388 396 Q354 436 300 436 Q265 436 236 416.5 Q207 397 186 364 Q165 331 153.5 286.5 Q142 242 142 192 Q142 148 160.5 120.5 Q179 93 217 93 Z " />
<glyph glyph-name="r" unicode="r" horiz-adv-x="383" d="M337 424 Q299 424 259.5 397 Q220 370 189 328 L117 0 L0 0 L112 528 L187 528 Q211 528 215.5 517 Q220 506 217 492 L207 442 L212 442 Q225 459 241.5 476.5 Q258 494 279.5 507.5 Q301 521 327 529.5 Q353 538 385 538 Q397 538 406 537 Q415 536 420 535 L395 417 L388 417 Q378 420 364.5 422 Q351 424 337 424 Z " />
<glyph glyph-name="s" unicode="s" horiz-adv-x="445" d="M385 169 Q385 126 367.5 93 Q350 60 318.5 37 Q287 14 244.5 2 Q202 -10 153 -10 Q119 -10 90.5 -5 Q62 0 40 6.5 Q18 13 4.5 19.5 Q-9 26 -13 28 L6 122 Q54 100 91.5 92.5 Q129 85 153 85 Q210 85 237 105 Q264 125 264 153 Q264 179 244.5 194.5 Q225 210 176 227 Q108 250 80.5 286 Q53 322 53 370 Q53 406 68 436.5 Q83 467 112.5 489.5 Q142 512 184.5 525 Q227 538 282 538 Q314 538 341.5 533.5 Q369 529 389 524 Q413 518 432 510 L411 420 Q374 434 336.5 440.5 Q299 447 279 447 Q231 447 200.5 431 Q170 415 170 385 Q170 362 186.5 348.5 Q203 335 247 319 Q312 296 348.5 261.5 Q385 227 385 169 Z " />
<glyph glyph-name="t" unicode="t" horiz-adv-x="350" d="M129 -10 Q75 -10 54 15 Q33 40 45 99 L118 440 L49 440 L67 526 L130 526 L207 670 L283 670 L253 526 L372 526 L353 440 L234 440 L160 82 L291 82 L272 0 Q271 0 256 -2 Q241 -4 219.5 -5.5 Q198 -7 173.5 -8.5 Q149 -10 129 -10 Z " />
<glyph glyph-name="u" unicode="u" horiz-adv-x="546" d="M317 76 Q303 60 286 44.5 Q269 29 249 17 Q229 5 206 -2.5 Q183 -10 157 -10 Q94 -10 60 25.5 Q26 61 26 119 Q25 140 31 166 L108 528 L226 528 L152 183 Q149 166 149 152 Q149 124 162 108.5 Q175 93 203 93 Q223 93 243 103 Q263 113 281 127.5 Q299 142 314 158.5 Q329 175 339 188 L413 528 L530 528 L419 0 L344 0 Q319 0 314.5 11 Q310 22 313 35 L322 76 L317 76 Z " />
<glyph glyph-name="v" unicode="v" horiz-adv-x="519" d="M145 -2 L57 528 L184 528 L232 157 L435 528 L553 528 L252 -2 L145 -2 Z " />
<glyph glyph-name="w" unicode="w" horiz-adv-x="775" d="M394 335 L232 -2 L120 -2 L63 528 L185 528 L209 158 L390 528 L484 528 L507 155 L689 528 L805 528 L529 -2 L415 -2 L394 335 Z " />
<glyph glyph-name="x" unicode="x" horiz-adv-x="522" d="M237 180 L77 0 L-58 0 L191 269 L62 528 L189 528 L272 354 L425 528 L560 528 L317 269 L449 0 L323 0 L237 180 Z " />
<glyph glyph-name="y" unicode="y" horiz-adv-x="518" d="M55 -170 L146 -3 L58 528 L184 528 L232 155 L434 528 L552 528 L159 -170 L55 -170 Z " />
<glyph glyph-name="z" unicode="z" horiz-adv-x="491" d="M-32 0 L-21 53 L316 434 L64 434 L84 528 L498 528 L487 474 L151 94 L417 94 L398 0 L-32 0 Z " />
<glyph glyph-name="braceleft" unicode="&#x7b;" horiz-adv-x="344" d="M234 -103 Q219 -105 205.5 -106 Q192 -107 178 -107 Q112 -107 76.5 -80.5 Q41 -54 41 6 Q41 29 47 59 L80 214 Q84 232 86 245 Q88 258 88 269 Q88 291 75 299.5 Q62 308 30 311 L46 386 Q70 388 85 393 Q100 398 109.5 408.5 Q119 419 125 436.5 Q131 454 137 483 L168 624 Q177 668 192 699.5 Q207 731 230.5 751 Q254 771 287.5 780.5 Q321 790 369 790 Q383 790 396 789 Q409 788 423 786 L409 717 Q405 717 392.5 716.5 Q380 716 377 716 Q342 714 317 694.5 Q292 675 280 622 L255 509 Q244 461 234 432.5 Q224 404 211 387.5 Q198 371 180 363.5 Q162 356 136 350 L136 347 Q168 339 183 322 Q198 305 198 270 Q198 254 195.5 234.5 Q193 215 187 189 L160 61 Q156 42 156 25 Q156 -7 172 -19 Q188 -31 216 -33 Q219 -33 232 -33.5 Q245 -34 249 -34 L234 -103 Z " />
<glyph glyph-name="bar" unicode="&#x7c;" horiz-adv-x="269" d="M103 -102 L103 787 L183 787 L183 -102 L103 -102 Z " />
<glyph glyph-name="braceright" unicode="&#x7d;" horiz-adv-x="343" d="M127.014 785.994 Q142.013 787.994 155.513 788.994 Q169.012 789.993 183.011 789.993 Q249.007 789.993 284.505 763.495 Q320.003 736.997 320.003 677 Q320.003 654.002 314.003 624.004 L281.005 469.013 Q277.005 451.014 275.005 438.015 Q273.005 425.016 273.005 414.016 Q273.005 392.018 286.005 383.518 Q299.004 375.019 331.002 372.019 L315.003 297.024 Q291.004 295.024 276.005 290.024 Q261.006 285.024 251.507 274.525 Q242.007 264.026 236.008 246.527 Q230.008 229.028 224.008 200.029 L193.01 59.0381 Q184.011 15.0408 169.012 -16.4573 Q154.013 -47.9554 130.514 -67.9542 Q107.016 -87.9529 73.5175 -97.4524 Q40.0196 -106.952 -7.97748 -106.952 Q-21.9766 -106.952 -34.9758 -105.952 Q-47.975 -104.952 -61.9742 -102.952 L-47.975 -33.9562 Q-43.9753 -33.9562 -31.476 -33.4563 Q-18.9768 -32.9563 -15.977 -32.9563 Q19.0209 -30.9564 44.0193 -11.4576 Q69.0178 8.0412 81.0171 61.038 L106.016 174.031 Q117.015 222.028 127.014 250.526 Q137.014 279.025 150.013 295.524 Q163.012 312.023 181.011 319.522 Q199.01 327.022 225.008 333.021 L225.008 336.021 Q193.01 344.021 178.011 361.02 Q163.012 378.019 163.012 413.016 Q163.012 429.016 165.512 448.514 Q168.012 468.013 174.011 494.012 L201.01 622.004 Q205.01 641.003 205.01 658.002 Q205.01 690 189.01 701.999 Q173.011 713.998 145.013 715.998 Q142.013 715.998 129.014 716.498 Q116.015 716.998 112.015 716.998 L127.014 785.994 Z " />
<glyph glyph-name="asciitilde" unicode="&#x7e;" horiz-adv-x="623" d="M53 286 Q81 335 120.5 364.5 Q160 394 211 394 Q246 394 276.5 382 Q307 370 334 355 Q361 340 385.5 328 Q410 316 434 316 Q452 316 470 325 L532 389 L576 351 Q547 302 507 273 Q467 244 417 244 Q382 244 351.5 256 Q321 268 294 283 Q267 298 242.5 310 Q218 322 194 322 Q175 322 159 313 L97 249 Q96 249 89.5 254.5 Q83 260 75 267 Q65 275 53 286 Z " />
<glyph glyph-name="uni00A0" unicode="&#xa0;" horiz-adv-x="222" d="" />
<glyph glyph-name="exclamdown" unicode="&#xa1;" horiz-adv-x="251" d="M234 479.003 Q234 447.005 209.002 422.506 Q184.003 398.008 146.006 398.008 Q120.007 398.008 103.508 416.007 Q87.0093 434.006 87.0093 457.004 Q87.0093 489.002 111.508 513.501 Q136.006 537.999 175.004 537.999 Q200.002 537.999 217.001 520.5 Q234 503.002 234 479.003 Z M177.004 322.013 L135.006 18.0311 L94.0089 -171.957 L-43.9827 -171.957 L-1.98529 18.0311 L83.0095 322.013 L177.004 322.013 Z " />
<glyph glyph-name="cent" unicode="&#xa2;" horiz-adv-x="491" d="M430 165 Q408 140 368.5 114 Q329 88 268 80 L249 -10 L197 -10 L216 80 Q183 83 152.5 96.5 Q122 110 99 134.5 Q76 159 62.5 195.5 Q49 232 49 281 Q49 358 71.5 419 Q94 480 133 524 Q172 568 223.5 593.5 Q275 619 332 625 L350 710 L402 710 L384 626 Q417 624 443.5 619 Q470 614 489 607 L469 513 Q443 521 420.5 524.5 Q398 528 363 529 L289 179 Q318 181 342.5 191.5 Q367 202 389 219 L430 165 Z M169 304 Q169 253 187.5 223.5 Q206 194 238 184 L310 522 Q278 513 252 493.5 Q226 474 207.5 445.5 Q189 417 179 381 Q169 345 169 304 Z " />
<glyph glyph-name="sterling" unicode="&#xa3;" horiz-adv-x="585" d="M477 0 L-18 0 L3 98 L73 98 L118 309 L49 309 L64 379 L133 379 L156 486 Q165 530 187.5 570.5 Q210 611 246.5 642 Q283 673 334 691.5 Q385 710 451 710 Q486 710 514.5 706.5 Q543 703 564 698.5 Q585 694 597.5 690 Q610 686 614 685 L593 588 Q557 602 519 609 Q481 616 445 616 Q375 616 336.5 587 Q298 558 283 486 L260 379 L413 379 L399 309 L245 309 L200 98 L497 98 L477 0 Z " />
<glyph glyph-name="currency" unicode="&#xa4;" horiz-adv-x="533" d="M337 203 Q306 186 270 186 Q232 186 202 204 L121 122 L63 178 L146 260 Q128 290 128 326 Q128 345 133 362.5 Q138 380 146 394 L64 476 L122 533 L203 451 Q218 459 234.5 464 Q251 469 270 469 Q288 469 305 464 Q322 459 337 451 L418 533 L475 476 L394 394 Q402 379 406.5 362 Q411 345 411 326 Q411 308 406.5 291 Q402 274 394 259 L475 178 L418 122 L337 203 Z M195 326 Q195 294 217.5 271 Q240 248 270 248 Q301 248 323 271 Q345 294 345 326 Q345 359 323 382 Q301 405 270 405 Q240 405 217.5 382 Q195 359 195 326 Z " />
<glyph glyph-name="yen" unicode="&#xa5;" horiz-adv-x="643" d="M115 368 L226 368 L109 700 L238 700 L344 394 L560 700 L690 700 L448 368 L573 368 L558 297 L397 297 L387 283 L378 240 L545 240 L531 169 L363 169 L327 0 L202 0 L238 169 L72 169 L87 240 L253 240 L260 271 L251 297 L100 297 L115 368 Z " />
<glyph glyph-name="brokenbar" unicode="&#xa6;" horiz-adv-x="280" d="M107 413 L107 787 L190 787 L190 413 L107 413 Z M107 -102 L107 272 L190 272 L190 -102 L107 -102 Z " />
<glyph glyph-name="section" unicode="&#xa7;" horiz-adv-x="555" d="M154 -210 Q117 -210 85.5 -206 Q54 -202 29.5 -196 Q5 -190 -11.5 -184 Q-28 -178 -35 -173 L-14 -74 Q40 -95 83 -103.5 Q126 -112 158 -112 Q200 -112 228.5 -104.5 Q257 -97 274.5 -85 Q292 -73 299.5 -57.5 Q307 -42 307 -26 Q307 -12 301.5 -1 Q296 10 283 20.5 Q270 31 250 41 Q230 51 200 64 Q166 79 136 95 Q106 111 84 132 Q62 153 49 180 Q36 207 36 243 Q36 302 66.5 342.5 Q97 383 150 406 Q129 428 117.5 455.5 Q106 483 106 521 Q106 563 126.5 598 Q147 633 183 658 Q219 683 269 696.5 Q319 710 378 710 Q447 710 492 699.5 Q537 689 553 682 L532 581 Q487 595 447.5 603.5 Q408 612 370 612 Q303 612 265 592 Q227 572 227 534 Q227 519 232.5 508 Q238 497 251 486.5 Q264 476 286 465 Q308 454 341 439 Q380 422 410.5 404.5 Q441 387 462.5 367.5 Q484 348 495 324.5 Q506 301 506 271 Q506 208 473 169 Q440 130 383 108 Q409 85 421.5 58 Q434 31 434 -5 Q434 -47 415 -84.5 Q396 -122 360 -150 Q324 -178 272 -194 Q220 -210 154 -210 Z M273 171 Q280 169 292.5 163 Q305 157 310 154 Q350 166 368.5 188.5 Q387 211 387 238 Q387 254 380 265.5 Q373 277 359 287 Q345 297 322 307.5 Q299 318 268 332 Q264 333 256.5 336.5 Q249 340 241.5 344 Q234 348 227 351 Q220 354 217 356 Q186 342 169 320.5 Q152 299 152 274 Q152 257 157.5 245 Q163 233 177 221.5 Q191 210 214.5 198 Q238 186 273 171 Z " />
<glyph glyph-name="dieresis" unicode="&#xa8;" horiz-adv-x="332" d="M103 660 Q103 685 121.5 704 Q140 723 171 723 Q192 723 204.5 709 Q217 695 217 677 Q217 651 198 633 Q179 615 149 615 Q127 615 115 628.5 Q103 642 103 660 Z M255 660 Q255 685 273.5 704 Q292 723 323 723 Q344 723 356.5 709 Q369 695 369 677 Q369 651 350 633 Q331 615 301 615 Q279 615 267 628.5 Q255 642 255 660 Z " />
<glyph glyph-name="copyright" unicode="&#xa9;" horiz-adv-x="820" d="M61 349 Q61 423 89 488.5 Q117 554 166 603 Q215 652 280 680.5 Q345 709 420 709 Q494 709 559.5 680.5 Q625 652 674 603 Q723 554 751.5 488.5 Q780 423 780 349 Q780 274 751.5 209 Q723 144 674 95 Q625 46 559.5 18 Q494 -10 420 -10 Q345 -10 280 18 Q215 46 166 95 Q117 144 89 209 Q61 274 61 349 Z M110 349 Q110 284 134 226.5 Q158 169 200 126 Q242 83 298.5 58.5 Q355 34 420 34 Q484 34 540.5 58.5 Q597 83 639 126 Q681 169 705.5 226.5 Q730 284 730 349 Q730 414 705.5 471.5 Q681 529 639 572 Q597 615 540.5 640 Q484 665 420 665 Q355 665 298.5 640 Q242 615 200 572 Q158 529 134 471.5 Q110 414 110 349 Z M540 136 Q518 125 488 119.5 Q458 114 426 114 Q384 114 347 127.5 Q310 141 283 169 Q256 197 240 240.5 Q224 284 224 343 Q224 402 240.5 446 Q257 490 285.5 519.5 Q314 549 353 563.5 Q392 578 436 578 Q469 578 495 574 Q521 570 539 564 L539 484 Q517 490 497.5 493 Q478 496 450 496 Q327 496 327 347 Q327 269 360 233.5 Q393 198 454 198 Q478 198 500.5 202 Q523 206 540 212 L540 136 Z " />
<glyph glyph-name="ordfeminine" unicode="&#xaa;" horiz-adv-x="379" d="M210 441 Q227 441 246.5 455 Q266 469 279 486 L310 627 Q287 648 256 648 Q236 648 219 636.5 Q202 625 190 604.5 Q178 584 171 557.5 Q164 531 164 501 Q164 475 175.5 458 Q187 441 210 441 Z M266 424 Q251 404 228 391.5 Q205 379 178 379 Q134 379 110 409.5 Q86 440 86 491 Q86 535 98 575 Q110 615 131.5 645 Q153 675 183.5 692.5 Q214 710 250 710 Q274 710 293.5 701 Q313 692 324 676 L326 676 L328 683 Q330 691 335 697.5 Q340 704 354 704 L401 704 L333 383 L283 383 Q269 383 266.5 390 Q264 397 266 405 L270 424 L266 424 Z " />
<glyph glyph-name="guillemotleft" unicode="&#xab;" horiz-adv-x="499" d="M297.999 463.003 L115.01 249.016 L208.005 46.0283 L119.01 46.0283 L20.0161 235.017 L28.0156 273.014 L204.005 463.003 L297.999 463.003 Z M493.999 463.003 L311.01 249.016 L404.005 46.0283 L315.01 46.0283 L216.016 235.017 L224.016 273.014 L400.005 463.003 L493.999 463.003 Z " />
<glyph glyph-name="logicalnot" unicode="&#xac;" horiz-adv-x="569" d="M71 373 L485 373 L485 152 L410 152 L410 298 L71 298 L71 373 Z " />
<glyph glyph-name="uni00AD" unicode="&#xad;" horiz-adv-x="518" d="" />
<glyph glyph-name="registered" unicode="&#xae;" horiz-adv-x="676" d="M77 421 Q77 481 99.5 533.5 Q122 586 161 625 Q200 664 252 687 Q304 710 363 710 Q423 710 475 687 Q527 664 566 625 Q605 586 627.5 533.5 Q650 481 650 421 Q650 361 627.5 308.5 Q605 256 566 217 Q527 178 475 155 Q423 132 363 132 Q304 132 252 155 Q200 178 161 217 Q122 256 99.5 308.5 Q77 361 77 421 Z M120 421 Q120 369 139 323.5 Q158 278 191 244 Q224 210 268.5 190.5 Q313 171 364 171 Q414 171 458.5 191 Q503 211 536 245 Q569 279 588 324.5 Q607 370 607 421 Q607 473 588 518.5 Q569 564 536 598 Q503 632 458.5 652 Q414 672 364 672 Q313 672 268.5 652 Q224 632 191 598 Q158 564 139 518.5 Q120 473 120 421 Z M245 578 L367 578 Q424 578 457.5 557.5 Q491 537 491 491 Q491 472 485 458.5 Q479 445 469 435.5 Q459 426 446.5 420.5 Q434 415 421 413 L421 412 Q437 408 446 397.5 Q455 387 463 366 L504 265 L418 265 L390 357 Q384 377 377.5 381.5 Q371 386 360 386 L318 386 L318 265 L245 265 L245 578 Z M318 527 L318 439 L366 439 Q393 439 404 450 Q415 461 415 484 Q415 504 404 515.5 Q393 527 366 527 L318 527 Z " />
<glyph glyph-name="macron" unicode="&#xaf;" horiz-adv-x="388" d="M150 697 L403 697 L388 627 L135 627 L150 697 Z " />
<glyph glyph-name="degree" unicode="&#xb0;" horiz-adv-x="377" d="M90 559 Q90 590 102 617.5 Q114 645 134.5 665.5 Q155 686 182 698 Q209 710 240 710 Q271 710 298.5 698 Q326 686 346.5 665.5 Q367 645 379 617.5 Q391 590 391 559 Q391 528 379 501 Q367 474 346.5 453.5 Q326 433 298.5 421 Q271 409 240 409 Q209 409 182 421 Q155 433 134.5 453.5 Q114 474 102 501 Q90 528 90 559 Z M156 559 Q156 541 163 525 Q170 509 181.5 497.5 Q193 486 208 479 Q223 472 240 472 Q257 472 272 479 Q287 486 298.5 497.5 Q310 509 317 525 Q324 541 324 559 Q324 577 317 593 Q310 609 298.5 621 Q287 633 272 640 Q257 647 240 647 Q223 647 208 640 Q193 633 181.5 621 Q170 609 163 593 Q156 577 156 559 Z " />
<glyph glyph-name="plusminus" unicode="&#xb1;" horiz-adv-x="563" d="M69 443 L239 443 L239 594 L313 594 L313 443 L483 443 L483 368 L313 368 L313 217 L239 217 L239 368 L69 368 L69 443 Z M68 162 L482 162 L482 88 L68 88 L68 162 Z " />
<glyph glyph-name="twosuperior" unicode="&#xb2;" horiz-adv-x="290" d="M75 506 L88 565 Q92 584 99 598 Q106 612 118.5 624 Q131 636 149.5 648 Q168 660 196 675 Q236 698 253.5 712.5 Q271 727 271 744 Q271 753 263 760 Q255 767 233 767 Q210 767 182.5 761.5 Q155 756 130 745 L144 813 Q159 819 177 824 Q192 828 211.5 831.5 Q231 835 254 835 Q308 835 329.5 812 Q351 789 351 761 Q351 740 345.5 723.5 Q340 707 327 692 Q314 677 292 661.5 Q270 646 238 628 Q204 609 190.5 600.5 Q177 592 173 581 L171 573 L322 573 L307 506 L75 506 Z " />
<glyph glyph-name="threesuperior" unicode="&#xb3;" horiz-adv-x="282" d="M88 580 Q113 571 137.5 567.5 Q162 564 182 564 Q210 564 223.5 576 Q237 588 237 608 Q237 626 227 633 Q217 640 200 640 L160 640 L172 700 L212 700 Q233 700 247.5 710.5 Q262 721 262 741 Q262 753 253.5 761.5 Q245 770 223 770 Q206 770 183 767.5 Q160 765 131 758 L144 819 Q159 823 176 827 Q190 830 208.5 832.5 Q227 835 247 835 Q274 835 292 829 Q310 823 321 812.5 Q332 802 337 788.5 Q342 775 342 761 Q342 727 323.5 704 Q305 681 271 672 L271 670 Q317 654 317 610 Q317 590 309.5 570.5 Q302 551 286 535.5 Q270 520 244 510.5 Q218 501 182 501 Q159 501 140 503.5 Q121 506 107 510 Q90 514 76 520 L88 580 Z " />
<glyph glyph-name="acute" unicode="&#xb4;" horiz-adv-x="378" d="M331 751 L372 684 L203 579 L184 579 L159 615 L308 751 L331 751 Z " />
<glyph glyph-name="paragraph" unicode="&#xb6;" horiz-adv-x="608" d="M187 -170 L276 252 Q64 270 64 445 Q64 511 86.5 559 Q109 607 150 638.5 Q191 670 248.5 685 Q306 700 376 700 L449 700 L264 -170 L187 -170 Z M621 700 L437 -170 L358 -170 L543 700 L621 700 Z " />
<glyph glyph-name="periodcentered" unicode="&#xb7;" horiz-adv-x="243" d="M64 364 Q64 394 86.5 418 Q109 442 147 442 Q174 442 190 425 Q206 408 206 385 Q206 354 182.5 331 Q159 308 121 308 Q94 308 79 324.5 Q64 341 64 364 Z " />
<glyph glyph-name="cedilla" unicode="&#xb8;" horiz-adv-x="392" d="M117 -180 Q86 -180 60.5 -172 Q35 -164 21 -153 L45 -115 Q53 -120 73.5 -127.5 Q94 -135 116 -135 Q135 -135 149.5 -128.5 Q164 -122 164 -104 Q164 -89 142.5 -80.5 Q121 -72 85 -68 L89 -48 L151 13 L213 12 L165 -38 Q246 -44 246 -97 Q246 -120 234.5 -136 Q223 -152 204.5 -162 Q186 -172 163 -176 Q140 -180 117 -180 Z " />
<glyph glyph-name="onesuperior" unicode="&#xb9;" horiz-adv-x="245" d="M75 506 L87 561 L143 561 L184 751 L128 751 L140 807 L188 807 Q204 807 216.5 815.5 Q229 824 234 833 L281 833 L222 561 L282 561 L270 506 L75 506 Z " />
<glyph glyph-name="ordmasculine" unicode="&#xba;" horiz-adv-x="367" d="M379 586 Q379 535 364.5 496.5 Q350 458 326.5 432 Q303 406 272.5 393 Q242 380 210 380 Q158 380 122.5 410.5 Q87 441 87 505 Q87 556 101.5 594.5 Q116 633 139.5 658.5 Q163 684 193.5 697 Q224 710 256 710 Q309 710 344 679.5 Q379 649 379 586 Z M304 598 Q304 622 291.5 636 Q279 650 253 650 Q230 650 213 635 Q196 620 185 596.5 Q174 573 168 546 Q162 519 162 495 Q162 440 213 440 Q235 440 252.5 455.5 Q270 471 281 494 Q292 517 298 545 Q304 573 304 598 Z " />
<glyph glyph-name="guillemotright" unicode="&#xbb;" horiz-adv-x="499" d="M-15 46 L168 260 L75 463 L164 463 L263 274 L255 236 L79 46 L-15 46 Z M181 46 L364 260 L271 463 L360 463 L459 274 L451 236 L275 46 L181 46 Z " />
<glyph glyph-name="onequarter" unicode="&#xbc;" horiz-adv-x="631" d="M511 70 L496 0 L419 0 L433 70 L283 70 L296 129 L493 327 L566 327 L525 134 L564 134 L550 70 L511 70 Z M470 240 L365 134 L447 134 L470 240 Z M61 376 L73 431 L129 431 L170 621 L114 621 L126 677 L174 677 Q190 677 202.5 685.5 Q215 694 220 703 L267 703 L208 431 L268 431 L256 376 L61 376 Z M544 700 L616 700 L97 0 L25 0 L544 700 Z " />
<glyph glyph-name="onehalf" unicode="&#xbd;" horiz-adv-x="653" d="M324 0 L337 59 Q341 78 348 92 Q355 106 367.5 118 Q380 130 398.5 142 Q417 154 445 169 Q485 192 502.5 206.5 Q520 221 520 238 Q520 247 512 254 Q504 261 482 261 Q459 261 431.5 255.5 Q404 250 379 239 L393 307 Q408 313 426 318 Q441 322 460.5 325.5 Q480 329 503 329 Q557 329 578.5 306 Q600 283 600 255 Q600 234 594.5 217.5 Q589 201 576 186 Q563 171 541 155.5 Q519 140 487 122 Q453 103 439.5 94.5 Q426 86 422 75 L420 67 L571 67 L556 0 L324 0 Z M60 376 L72 431 L128 431 L169 621 L113 621 L125 677 L173 677 Q189 677 201.5 685.5 Q214 694 219 703 L266 703 L207 431 L267 431 L255 376 L60 376 Z M544 700 L616 700 L97 0 L25 0 L544 700 Z " />
<glyph glyph-name="threequarters" unicode="&#xbe;" horiz-adv-x="657" d="M537 70 L522 0 L445 0 L459 70 L309 70 L322 129 L519 327 L592 327 L551 134 L590 134 L576 70 L537 70 Z M496 240 L391 134 L473 134 L496 240 Z M570 700 L642 700 L123 0 L51 0 L570 700 Z M71 450 Q96 441 120.5 437.5 Q145 434 165 434 Q193 434 206.5 446 Q220 458 220 478 Q220 496 210 503 Q200 510 183 510 L143 510 L155 570 L195 570 Q216 570 230.5 580.5 Q245 591 245 611 Q245 623 236.5 631.5 Q228 640 206 640 Q189 640 166 637.5 Q143 635 114 628 L127 689 Q142 693 159 697 Q173 700 191.5 702.5 Q210 705 230 705 Q257 705 275 699 Q293 693 304 682.5 Q315 672 320 658.5 Q325 645 325 631 Q325 597 306.5 574 Q288 551 254 542 L254 540 Q300 524 300 480 Q300 460 292.5 440.5 Q285 421 269 405.5 Q253 390 227 380.5 Q201 371 165 371 Q142 371 123 373.5 Q104 376 90 380 Q73 384 59 390 L71 450 Z " />
<glyph glyph-name="questiondown" unicode="&#xbf;" horiz-adv-x="478" d="M396.004 479.003 Q396.004 463.004 389.505 448.005 Q383.005 433.006 371.506 421.507 Q360.006 410.007 343.507 403.008 Q327.008 396.008 307.01 396.008 Q281.011 396.008 263.512 414.007 Q246.013 432.006 246.013 455.004 Q246.013 488.002 271.012 513.001 Q296.01 537.999 336.008 537.999 Q362.006 537.999 379.005 520 Q396.004 502.002 396.004 479.003 Z M357.007 -134.96 Q345.007 -140.959 325.509 -148.959 Q306.01 -156.958 281.511 -164.458 Q257.013 -171.957 227.514 -176.957 Q198.016 -181.957 165.018 -181.957 Q111.022 -181.957 72.524 -169.957 Q34.0263 -157.958 9.5278 -137.959 Q-14.9707 -117.961 -26.97 -91.9622 Q-38.9692 -65.9637 -38.9692 -37.9655 Q-38.9692 -1.96765 -30.4698 27.0306 Q-21.9703 56.0288 -2.47147 80.5273 Q17.0273 105.026 49.0254 126.525 Q81.0234 148.023 128.021 168.022 Q154.019 179.021 171.018 188.021 Q188.017 197.02 198.516 205.02 Q209.016 213.019 215.015 222.019 Q221.015 231.018 224.015 243.017 L243.014 322.013 L341.008 322.013 L329.008 236.018 Q326.008 208.02 315.009 189.521 Q304.01 171.022 286.511 157.523 Q269.012 144.023 245.513 132.524 Q222.015 121.025 193.017 107.026 Q135.02 79.0274 113.021 52.529 Q91.0228 26.0306 91.0228 -8.96722 Q91.0228 -40.9653 116.521 -59.9641 Q142.02 -78.963 204.016 -78.963 Q222.015 -78.963 245.013 -75.4632 Q268.012 -71.9634 291.511 -66.4637 Q315.009 -60.9641 337.508 -52.9645 Q360.006 -44.965 378.005 -35.9656 L357.007 -134.96 Z " />
<glyph glyph-name="Agrave" unicode="&#xc0;" horiz-adv-x="620" d="M398 154 L163 154 L85 0 L-46 0 L325 702 L454 702 L549 0 L416 0 L398 154 Z M211 248 L388 248 L356 533 L211 248 Z M392 752 L267 856 L336 924 L355 924 L446 788 L406 752 L392 752 Z " />
<glyph glyph-name="Aacute" unicode="&#xc1;" horiz-adv-x="620" d="M398 154 L163 154 L85 0 L-46 0 L325 702 L454 702 L549 0 L416 0 L398 154 Z M211 248 L388 248 L356 533 L211 248 Z M397 752 L372 788 L520 924 L544 924 L584 856 L415 752 L397 752 Z " />
<glyph glyph-name="Acircumflex" unicode="&#xc2;" horiz-adv-x="620" d="M398 154 L163 154 L85 0 L-46 0 L325 702 L454 702 L549 0 L416 0 L398 154 Z M211 248 L388 248 L356 533 L211 248 Z M421 834 L300 752 L279 752 L258 782 L416 926 L456 926 L553 782 L521 752 L507 752 L421 834 Z " />
<glyph glyph-name="Atilde" unicode="&#xc3;" horiz-adv-x="620" d="M398 154 L163 154 L85 0 L-46 0 L325 702 L454 702 L549 0 L416 0 L398 154 Z M211 248 L388 248 L356 533 L211 248 Z M588 897 L579 856 Q569 811 547 789 Q525 767 483 767 Q465 767 446.5 774 Q428 781 411.5 789.5 Q395 798 380 805 Q365 812 353 812 Q336 812 328 805 Q320 798 318 793 L310 757 L245 757 L253 796 Q264 847 286 869 Q308 891 348 891 Q365 891 383 883.5 Q401 876 418 866.5 Q435 857 451.5 849.5 Q468 842 482 842 Q502 842 509 851 Q516 860 518 865 L524 897 L588 897 Z " />
<glyph glyph-name="Adieresis" unicode="&#xc4;" horiz-adv-x="620" d="M398 154 L163 154 L85 0 L-46 0 L325 702 L454 702 L549 0 L416 0 L398 154 Z M211 248 L388 248 L356 533 L211 248 Z M288 828 Q288 852 306.5 871 Q325 890 356 890 Q377 890 390 876.5 Q403 863 403 845 Q403 819 383.5 801 Q364 783 334 783 Q312 783 300 796 Q288 809 288 828 Z M440 828 Q440 852 458.5 871 Q477 890 508 890 Q529 890 542 876.5 Q555 863 555 845 Q555 819 535.5 801 Q516 783 486 783 Q464 783 452 796 Q440 809 440 828 Z " />
<glyph glyph-name="Aring" unicode="&#xc5;" horiz-adv-x="620" d="M398 154 L163 154 L85 0 L-46 0 L325 702 L454 702 L549 0 L416 0 L398 154 Z M211 248 L388 248 L356 533 L211 248 Z M366 819 Q366 787 410 787 Q441 787 457.5 800.5 Q474 814 474 838 Q474 870 428 870 Q399 870 382.5 856.5 Q366 843 366 819 Z M434 914 Q481 914 509.5 894.5 Q538 875 538 838 Q538 813 527 795 Q516 777 498 765.5 Q480 754 456 748.5 Q432 743 405 743 Q360 743 331 761 Q302 779 302 814 Q302 840 312.5 859 Q323 878 341 890 Q359 902 383 908 Q407 914 434 914 Z " />
<glyph glyph-name="AE" unicode="&#xc6;" horiz-adv-x="943" d="M982 700 L961 602 L646 602 L604 405 L867 405 L846 309 L583 309 L538 98 L863 98 L842 0 L393 0 L426 154 L186 154 L72 0 L-66 0 L457 700 L982 700 Z M507 602 L251 247 L445 247 L520 602 L507 602 Z " />
<glyph glyph-name="Ccedilla" unicode="&#xc7;" horiz-adv-x="556" d="M240 -180 Q209 -180 183.5 -172 Q158 -164 144 -153 L168 -115 Q176 -120 196.5 -127.5 Q217 -135 239 -135 Q258 -135 272.5 -128.5 Q287 -122 287 -104 Q287 -89 265.5 -80.5 Q244 -72 208 -68 L212 -48 L254 -6 Q154 7 100 72 Q46 137 46 247 Q46 353 74.5 439 Q103 525 155.5 585 Q208 645 282 677.5 Q356 710 448 710 Q498 710 536 701.5 Q574 693 596 685 L574 584 Q540 595 507.5 600.5 Q475 606 445 606 Q385 606 336 585 Q287 564 251.5 520.5 Q216 477 196.5 411.5 Q177 346 177 258 Q177 181 214.5 136.5 Q252 92 338 92 Q376 92 412 98.5 Q448 105 486 119 L468 16 Q439 5 401 -2 Q363 -9 315 -10 L288 -38 Q369 -44 369 -97 Q369 -120 357.5 -136 Q346 -152 327.5 -162 Q309 -172 286 -176 Q263 -180 240 -180 Z " />
<glyph glyph-name="Egrave" unicode="&#xc8;" horiz-adv-x="563" d="M391 752 L266 856 L335 924 L354 924 L445 788 L405 752 L391 752 Z M267 602 L225 405 L488 405 L467 309 L204 309 L158 98 L484 98 L463 0 L13 0 L162 700 L603 700 L582 602 L267 602 Z " />
<glyph glyph-name="Eacute" unicode="&#xc9;" horiz-adv-x="563" d="M267 602 L225 405 L488 405 L467 309 L204 309 L158 98 L484 98 L463 0 L13 0 L162 700 L603 700 L582 602 L267 602 Z M391 752 L366 788 L514 924 L538 924 L578 856 L409 752 L391 752 Z " />
<glyph glyph-name="Ecircumflex" unicode="&#xca;" horiz-adv-x="563" d="M421 834 L300 752 L279 752 L258 782 L416 926 L456 926 L553 782 L521 752 L507 752 L421 834 Z M267 602 L225 405 L488 405 L467 309 L204 309 L158 98 L484 98 L463 0 L13 0 L162 700 L603 700 L582 602 L267 602 Z " />
<glyph glyph-name="Edieresis" unicode="&#xcb;" horiz-adv-x="563" d="M267 602 L225 405 L488 405 L467 309 L204 309 L158 98 L484 98 L463 0 L13 0 L162 700 L603 700 L582 602 L267 602 Z M286 828 Q286 852 304.5 871 Q323 890 354 890 Q375 890 388 876.5 Q401 863 401 845 Q401 819 381.5 801 Q362 783 332 783 Q310 783 298 796 Q286 809 286 828 Z M438 828 Q438 852 456.5 871 Q475 890 506 890 Q527 890 540 876.5 Q553 863 553 845 Q553 819 533.5 801 Q514 783 484 783 Q462 783 450 796 Q438 809 438 828 Z " />
<glyph glyph-name="Igrave" unicode="&#xcc;" horiz-adv-x="279" d="M162 700 L286 700 L138 0 L14 0 L162 700 Z M223 752 L98 856 L167 924 L186 924 L277 788 L237 752 L223 752 Z " />
<glyph glyph-name="Iacute" unicode="&#xcd;" horiz-adv-x="279" d="M162 700 L286 700 L138 0 L14 0 L162 700 Z M228 752 L203 788 L351 924 L375 924 L415 856 L246 752 L228 752 Z " />
<glyph glyph-name="Icircumflex" unicode="&#xce;" horiz-adv-x="279" d="M162 700 L286 700 L138 0 L14 0 L162 700 Z M252 834 L131 752 L110 752 L89 782 L247 926 L287 926 L384 782 L352 752 L338 752 L252 834 Z " />
<glyph glyph-name="Idieresis" unicode="&#xcf;" horiz-adv-x="279" d="M162 700 L286 700 L138 0 L14 0 L162 700 Z M118 828 Q118 852 136.5 871 Q155 890 186 890 Q207 890 220 876.5 Q233 863 233 845 Q233 819 213.5 801 Q194 783 164 783 Q142 783 130 796 Q118 809 118 828 Z M270 828 Q270 852 288.5 871 Q307 890 338 890 Q359 890 372 876.5 Q385 863 385 845 Q385 819 365.5 801 Q346 783 316 783 Q294 783 282 796 Q270 809 270 828 Z " />
<glyph glyph-name="Eth" unicode="&#xd0;" horiz-adv-x="667" d="M35 389 L99 389 L165 700 L374 700 Q435 700 484 684 Q533 668 567.5 636.5 Q602 605 620.5 557 Q639 509 639 446 Q639 339 611 256 Q583 173 532 116 Q481 59 408 29.5 Q335 0 245 0 L17 0 L86 325 L22 325 L35 389 Z M223 389 L395 389 L381 325 L210 325 L162 98 L268 98 Q317 98 361 120.5 Q405 143 437.5 187 Q470 231 489 296 Q508 361 508 447 Q508 525 471.5 564 Q435 603 354 603 L269 603 L223 389 Z " />
<glyph glyph-name="Ntilde" unicode="&#xd1;" horiz-adv-x="661" d="M607 897 L598 856 Q588 811 566 789 Q544 767 502 767 Q484 767 465.5 774 Q447 781 430.5 789.5 Q414 798 399 805 Q384 812 372 812 Q355 812 347 805 Q339 798 337 793 L329 757 L264 757 L272 796 Q283 847 305 869 Q327 891 367 891 Q384 891 402 883.5 Q420 876 437 866.5 Q454 857 470.5 849.5 Q487 842 501 842 Q521 842 528 851 Q535 860 537 865 L543 897 L607 897 Z M431 -3 L224 491 L121 0 L11 0 L160 700 L269 700 L461 237 L559 700 L669 700 L520 -3 L431 -3 Z " />
<glyph glyph-name="Ograve" unicode="&#xd2;" horiz-adv-x="677" d="M430 752 L305 856 L374 924 L393 924 L484 788 L444 752 L430 752 Z M405 710 Q468 710 515 690.5 Q562 671 592.5 636.5 Q623 602 638 555.5 Q653 509 653 454 Q653 377 631.5 295 Q610 213 566 145 Q522 77 454.5 33.5 Q387 -10 294 -10 Q231 -10 184 9.5 Q137 29 106 63 Q75 97 59.5 143.5 Q44 190 44 244 Q44 295 53.5 349.5 Q63 404 82 456 Q101 508 130.5 554 Q160 600 200 634.5 Q240 669 291.5 689.5 Q343 710 405 710 Z M398 610 Q358 610 326 591 Q294 572 269.5 540 Q245 508 227.5 467.5 Q210 427 198.5 384 Q187 341 181.5 299 Q176 257 176 222 Q176 158 205 124 Q234 90 300 90 Q339 90 371 109 Q403 128 427.5 159 Q452 190 470 230 Q488 270 499.5 313 Q511 356 516.5 398 Q522 440 522 475 Q522 541 493.5 575.5 Q465 610 398 610 Z " />
<glyph glyph-name="Oacute" unicode="&#xd3;" horiz-adv-x="677" d="M431 752 L406 788 L554 924 L578 924 L618 856 L449 752 L431 752 Z M405 710 Q468 710 515 690.5 Q562 671 592.5 636.5 Q623 602 638 555.5 Q653 509 653 454 Q653 377 631.5 295 Q610 213 566 145 Q522 77 454.5 33.5 Q387 -10 294 -10 Q231 -10 184 9.5 Q137 29 106 63 Q75 97 59.5 143.5 Q44 190 44 244 Q44 295 53.5 349.5 Q63 404 82 456 Q101 508 130.5 554 Q160 600 200 634.5 Q240 669 291.5 689.5 Q343 710 405 710 Z M398 610 Q358 610 326 591 Q294 572 269.5 540 Q245 508 227.5 467.5 Q210 427 198.5 384 Q187 341 181.5 299 Q176 257 176 222 Q176 158 205 124 Q234 90 300 90 Q339 90 371 109 Q403 128 427.5 159 Q452 190 470 230 Q488 270 499.5 313 Q511 356 516.5 398 Q522 440 522 475 Q522 541 493.5 575.5 Q465 610 398 610 Z " />
<glyph glyph-name="Ocircumflex" unicode="&#xd4;" horiz-adv-x="677" d="M456 834 L335 752 L314 752 L293 782 L451 926 L491 926 L588 782 L556 752 L542 752 L456 834 Z M405 710 Q468 710 515 690.5 Q562 671 592.5 636.5 Q623 602 638 555.5 Q653 509 653 454 Q653 377 631.5 295 Q610 213 566 145 Q522 77 454.5 33.5 Q387 -10 294 -10 Q231 -10 184 9.5 Q137 29 106 63 Q75 97 59.5 143.5 Q44 190 44 244 Q44 295 53.5 349.5 Q63 404 82 456 Q101 508 130.5 554 Q160 600 200 634.5 Q240 669 291.5 689.5 Q343 710 405 710 Z M398 610 Q358 610 326 591 Q294 572 269.5 540 Q245 508 227.5 467.5 Q210 427 198.5 384 Q187 341 181.5 299 Q176 257 176 222 Q176 158 205 124 Q234 90 300 90 Q339 90 371 109 Q403 128 427.5 159 Q452 190 470 230 Q488 270 499.5 313 Q511 356 516.5 398 Q522 440 522 475 Q522 541 493.5 575.5 Q465 610 398 610 Z " />
<glyph glyph-name="Otilde" unicode="&#xd5;" horiz-adv-x="677" d="M405 710 Q468 710 515 690.5 Q562 671 592.5 636.5 Q623 602 638 555.5 Q653 509 653 454 Q653 377 631.5 295 Q610 213 566 145 Q522 77 454.5 33.5 Q387 -10 294 -10 Q231 -10 184 9.5 Q137 29 106 63 Q75 97 59.5 143.5 Q44 190 44 244 Q44 295 53.5 349.5 Q63 404 82 456 Q101 508 130.5 554 Q160 600 200 634.5 Q240 669 291.5 689.5 Q343 710 405 710 Z M398 610 Q358 610 326 591 Q294 572 269.5 540 Q245 508 227.5 467.5 Q210 427 198.5 384 Q187 341 181.5 299 Q176 257 176 222 Q176 158 205 124 Q234 90 300 90 Q339 90 371 109 Q403 128 427.5 159 Q452 190 470 230 Q488 270 499.5 313 Q511 356 516.5 398 Q522 440 522 475 Q522 541 493.5 575.5 Q465 610 398 610 Z M623 897 L614 856 Q604 811 582 789 Q560 767 518 767 Q500 767 481.5 774 Q463 781 446.5 789.5 Q430 798 415 805 Q400 812 388 812 Q371 812 363 805 Q355 798 353 793 L345 757 L280 757 L288 796 Q299 847 321 869 Q343 891 383 891 Q400 891 418 883.5 Q436 876 453 866.5 Q470 857 486.5 849.5 Q503 842 517 842 Q537 842 544 851 Q551 860 553 865 L559 897 L623 897 Z " />
<glyph glyph-name="Odieresis" unicode="&#xd6;" horiz-adv-x="677" d="M405 710 Q468 710 515 690.5 Q562 671 592.5 636.5 Q623 602 638 555.5 Q653 509 653 454 Q653 377 631.5 295 Q610 213 566 145 Q522 77 454.5 33.5 Q387 -10 294 -10 Q231 -10 184 9.5 Q137 29 106 63 Q75 97 59.5 143.5 Q44 190 44 244 Q44 295 53.5 349.5 Q63 404 82 456 Q101 508 130.5 554 Q160 600 200 634.5 Q240 669 291.5 689.5 Q343 710 405 710 Z M398 610 Q358 610 326 591 Q294 572 269.5 540 Q245 508 227.5 467.5 Q210 427 198.5 384 Q187 341 181.5 299 Q176 257 176 222 Q176 158 205 124 Q234 90 300 90 Q339 90 371 109 Q403 128 427.5 159 Q452 190 470 230 Q488 270 499.5 313 Q511 356 516.5 398 Q522 440 522 475 Q522 541 493.5 575.5 Q465 610 398 610 Z M322 828 Q322 852 340.5 871 Q359 890 390 890 Q411 890 424 876.5 Q437 863 437 845 Q437 819 417.5 801 Q398 783 368 783 Q346 783 334 796 Q322 809 322 828 Z M474 828 Q474 852 492.5 871 Q511 890 542 890 Q563 890 576 876.5 Q589 863 589 845 Q589 819 569.5 801 Q550 783 520 783 Q498 783 486 796 Q474 809 474 828 Z " />
<glyph glyph-name="multiply" unicode="&#xd7;" horiz-adv-x="501" d="M65 200 L198 331 L66 463 L123 519 L254 388 L386 519 L443 463 L310 331 L443 200 L387 142 L254 275 L122 142 L65 200 Z " />
<glyph glyph-name="Oslash" unicode="&#xd8;" horiz-adv-x="677" d="M405 710 Q463 710 507 693.5 Q551 677 582 647 L640 710 L723 710 L619 598 Q653 537 653 454 Q653 377 631.5 295 Q610 213 566 145 Q522 77 454.5 33.5 Q387 -10 294 -10 Q235 -10 191 6.5 Q147 23 116 52 L59 -10 L-25 -10 L78 101 Q61 131 52.5 167 Q44 203 44 244 Q44 295 53.5 349.5 Q63 404 82 456 Q101 508 130.5 554 Q160 600 200 634.5 Q240 669 291 689.5 Q342 710 405 710 Z M398 610 Q358 610 326 591 Q294 572 269.5 540 Q245 508 227.5 467.5 Q210 427 198.5 384 Q187 341 181.5 298.5 Q176 256 176 222 L176 208 L503 562 Q474 610 398 610 Z M300 90 Q339 90 371 109 Q403 128 427.5 159 Q452 190 470 230 Q488 270 499.5 313 Q511 356 516.5 398 Q522 440 522 475 Q522 479 522 483 Q522 487 521 491 L195 137 Q224 90 300 90 Z " />
<glyph glyph-name="Ugrave" unicode="&#xd9;" horiz-adv-x="647" d="M417 752 L292 856 L361 924 L380 924 L471 788 L431 752 L417 752 Z M542 700 L660 700 L561 232 Q547 167 521 121 Q495 75 458.5 46 Q422 17 375.5 3.5 Q329 -10 275 -10 Q169 -10 110 32.5 Q51 75 51 163 Q51 180 53.5 203.5 Q56 227 60 246 L156 700 L285 700 L189 248 Q185 230 183 214.5 Q181 199 181 185 Q181 143 208 117 Q235 91 292 91 Q358 91 394 130 Q430 169 446 248 L542 700 Z " />
<glyph glyph-name="Uacute" unicode="&#xda;" horiz-adv-x="647" d="M542 700 L660 700 L561 232 Q547 167 521 121 Q495 75 458.5 46 Q422 17 375.5 3.5 Q329 -10 275 -10 Q169 -10 110 32.5 Q51 75 51 163 Q51 180 53.5 203.5 Q56 227 60 246 L156 700 L285 700 L189 248 Q185 230 183 214.5 Q181 199 181 185 Q181 143 208 117 Q235 91 292 91 Q358 91 394 130 Q430 169 446 248 L542 700 Z M421 752 L396 788 L544 924 L568 924 L608 856 L439 752 L421 752 Z " />
<glyph glyph-name="Ucircumflex" unicode="&#xdb;" horiz-adv-x="647" d="M446 834 L325 752 L304 752 L283 782 L441 926 L481 926 L578 782 L546 752 L532 752 L446 834 Z M542 700 L660 700 L561 232 Q547 167 521 121 Q495 75 458.5 46 Q422 17 375.5 3.5 Q329 -10 275 -10 Q169 -10 110 32.5 Q51 75 51 163 Q51 180 53.5 203.5 Q56 227 60 246 L156 700 L285 700 L189 248 Q185 230 183 214.5 Q181 199 181 185 Q181 143 208 117 Q235 91 292 91 Q358 91 394 130 Q430 169 446 248 L542 700 Z " />
<glyph glyph-name="Udieresis" unicode="&#xdc;" horiz-adv-x="647" d="M542 700 L660 700 L561 232 Q547 167 521 121 Q495 75 458.5 46 Q422 17 375.5 3.5 Q329 -10 275 -10 Q169 -10 110 32.5 Q51 75 51 163 Q51 180 53.5 203.5 Q56 227 60 246 L156 700 L285 700 L189 248 Q185 230 183 214.5 Q181 199 181 185 Q181 143 208 117 Q235 91 292 91 Q358 91 394 130 Q430 169 446 248 L542 700 Z M312 828 Q312 852 330.5 871 Q349 890 380 890 Q401 890 414 876.5 Q427 863 427 845 Q427 819 407.5 801 Q388 783 358 783 Q336 783 324 796 Q312 809 312 828 Z M464 828 Q464 852 482.5 871 Q501 890 532 890 Q553 890 566 876.5 Q579 863 579 845 Q579 819 559.5 801 Q540 783 510 783 Q488 783 476 796 Q464 809 464 828 Z " />
<glyph glyph-name="Yacute" unicode="&#xdd;" horiz-adv-x="608" d="M183 0 L241 271 L90 700 L219 700 L325 394 L541 700 L671 700 L368 283 L308 0 L183 0 Z M397 752 L372 788 L520 924 L544 924 L584 856 L415 752 L397 752 Z " />
<glyph glyph-name="Ygrave" unicode="&#x1ef2;" horiz-adv-x="608" d="M183 0 L241 271 L90 700 L219 700 L325 394 L541 700 L671 700 L368 283 L308 0 L183 0 Z M372 752 L247 856 L316 924 L335 924 L426 788 L386 752 L372 752 Z " />
<glyph glyph-name="Thorn" unicode="&#xde;" horiz-adv-x="599" d="M169 143 L139 0 L14 0 L163 700 L287 700 L259 568 L355 568 Q462 568 523 524.5 Q584 481 584 388 Q584 326 562 280 Q540 234 500 203.5 Q460 173 402.5 158 Q345 143 275 143 L169 143 Z M188 236 L295 236 Q369 236 411.5 272.5 Q454 309 454 386 Q454 430 426 452.5 Q398 475 335 475 L239 475 L188 236 Z " />
<glyph glyph-name="germandbls" unicode="&#xdf;" horiz-adv-x="608" d="M146 0 Q129 -84 79 -132 Q29 -180 -66 -180 Q-93 -180 -111.5 -177.5 Q-130 -175 -137 -173 L-120 -92 Q-117 -93 -108.5 -93.5 Q-100 -94 -91 -94.5 Q-82 -95 -74 -95 Q-66 -95 -63 -95 Q-23 -95 -3 -74.5 Q17 -54 27 -7 L123 445 L51 445 L68 526 L141 526 L147 560 Q162 645 226.5 692.5 Q291 740 388 740 Q416 740 448 733.5 Q480 727 506.5 711.5 Q533 696 550.5 670.5 Q568 645 568 608 Q568 578 557.5 555.5 Q547 533 532 514.5 Q517 496 498.5 481 Q480 466 465 451.5 Q450 437 439.5 421.5 Q429 406 429 388 Q429 369 441.5 352.5 Q454 336 475 309 Q491 289 506 271 Q521 253 532.5 235 Q544 217 551 197.5 Q558 178 558 155 Q558 120 544 90 Q530 60 504.5 37.5 Q479 15 443 2.5 Q407 -10 363 -10 Q321 -10 286.5 -1 Q252 8 236 16 L254 102 Q277 89 303.5 81 Q330 73 362 73 Q400 73 422.5 91 Q445 109 445 140 Q445 166 425 190.5 Q405 215 379 245 Q349 279 331 303.5 Q313 328 313 357 Q313 380 324 400.5 Q335 421 351.5 440 Q368 459 387.5 477 Q407 495 423.5 513 Q440 531 451 549.5 Q462 568 462 588 Q462 606 454.5 619.5 Q447 633 434.5 641 Q422 649 406 653 Q390 657 374 657 Q331 657 303 636.5 Q275 616 264 567 L146 0 Z " />
<glyph glyph-name="agrave" unicode="&#xe0;" horiz-adv-x="549" d="M216 93 Q249 93 282 119.5 Q315 146 341 179 L387 396 Q353 438 300 438 Q265 438 236 418 Q207 398 186 364 Q165 330 153.5 285 Q142 240 142 189 Q142 147 160.5 120 Q179 93 216 93 Z M318 73 Q292 39 255 14.5 Q218 -10 171 -10 Q99 -10 60 40 Q21 90 21 173 Q21 246 40.5 312 Q60 378 95.5 428.5 Q131 479 180.5 508.5 Q230 538 290 538 Q329 538 359.5 524 Q390 510 409 485 L413 485 L415 495 Q418 507 427 517.5 Q436 528 459 528 L533 528 L421 0 L345 0 Q321 0 317.5 11 Q314 22 316 36 L324 73 L318 73 Z M205 684 L274 751 L293 751 L384 615 L344 579 L330 579 L205 684 Z " />
<glyph glyph-name="aacute" unicode="&#xe1;" horiz-adv-x="549" d="M216 93 Q249 93 282 119.5 Q315 146 341 179 L387 396 Q353 438 300 438 Q265 438 236 418 Q207 398 186 364 Q165 330 153.5 285 Q142 240 142 189 Q142 147 160.5 120 Q179 93 216 93 Z M318 73 Q292 39 255 14.5 Q218 -10 171 -10 Q99 -10 60 40 Q21 90 21 173 Q21 246 40.5 312 Q60 378 95.5 428.5 Q131 479 180.5 508.5 Q230 538 290 538 Q329 538 359.5 524 Q390 510 409 485 L413 485 L415 495 Q418 507 427 517.5 Q436 528 459 528 L533 528 L421 0 L345 0 Q321 0 317.5 11 Q314 22 316 36 L324 73 L318 73 Z M474 751 L515 684 L346 579 L327 579 L302 615 L451 751 L474 751 Z " />
<glyph glyph-name="acircumflex" unicode="&#xe2;" horiz-adv-x="549" d="M216 93 Q249 93 282 119.5 Q315 146 341 179 L387 396 Q353 438 300 438 Q265 438 236 418 Q207 398 186 364 Q165 330 153.5 285 Q142 240 142 189 Q142 147 160.5 120 Q179 93 216 93 Z M318 73 Q292 39 255 14.5 Q218 -10 171 -10 Q99 -10 60 40 Q21 90 21 173 Q21 246 40.5 312 Q60 378 95.5 428.5 Q131 479 180.5 508.5 Q230 538 290 538 Q329 538 359.5 524 Q390 510 409 485 L413 485 L415 495 Q418 507 427 517.5 Q436 528 459 528 L533 528 L421 0 L345 0 Q321 0 317.5 11 Q314 22 316 36 L324 73 L318 73 Z M362 657 L241 575 L220 575 L199 605 L357 749 L397 749 L494 605 L461 575 L447 575 L362 657 Z " />
<glyph glyph-name="atilde" unicode="&#xe3;" horiz-adv-x="549" d="M216 93 Q249 93 282 119.5 Q315 146 341 179 L387 396 Q353 438 300 438 Q265 438 236 418 Q207 398 186 364 Q165 330 153.5 285 Q142 240 142 189 Q142 147 160.5 120 Q179 93 216 93 Z M318 73 Q292 39 255 14.5 Q218 -10 171 -10 Q99 -10 60 40 Q21 90 21 173 Q21 246 40.5 312 Q60 378 95.5 428.5 Q131 479 180.5 508.5 Q230 538 290 538 Q329 538 359.5 524 Q390 510 409 485 L413 485 L415 495 Q418 507 427 517.5 Q436 528 459 528 L533 528 L421 0 L345 0 Q321 0 317.5 11 Q314 22 316 36 L324 73 L318 73 Z M523 724 L514 683 Q504 638 482 616 Q460 594 418 594 Q400 594 382 601 Q364 608 347.5 616.5 Q331 625 316 632 Q301 639 289 639 Q272 639 264 633 Q256 627 254 620 L245 584 L181 584 L189 622 Q200 673 222 695.5 Q244 718 283 718 Q300 718 318 710.5 Q336 703 353 693.5 Q370 684 386.5 676.5 Q403 669 418 669 Q437 669 444.5 676.5 Q452 684 453 692 L460 724 L523 724 Z " />
<glyph glyph-name="adieresis" unicode="&#xe4;" horiz-adv-x="549" d="M216 93 Q249 93 282 119.5 Q315 146 341 179 L387 396 Q353 438 300 438 Q265 438 236 418 Q207 398 186 364 Q165 330 153.5 285 Q142 240 142 189 Q142 147 160.5 120 Q179 93 216 93 Z M318 73 Q292 39 255 14.5 Q218 -10 171 -10 Q99 -10 60 40 Q21 90 21 173 Q21 246 40.5 312 Q60 378 95.5 428.5 Q131 479 180.5 508.5 Q230 538 290 538 Q329 538 359.5 524 Q390 510 409 485 L413 485 L415 495 Q418 507 427 517.5 Q436 528 459 528 L533 528 L421 0 L345 0 Q321 0 317.5 11 Q314 22 316 36 L324 73 L318 73 Z M222 660 Q222 685 240.5 704 Q259 723 290 723 Q311 723 323.5 709 Q336 695 336 677 Q336 651 317 633 Q298 615 268 615 Q246 615 234 628.5 Q222 642 222 660 Z M374 660 Q374 685 392.5 704 Q411 723 442 723 Q463 723 475.5 709 Q488 695 488 677 Q488 651 469 633 Q450 615 420 615 Q398 615 386 628.5 Q374 642 374 660 Z " />
<glyph glyph-name="aring" unicode="&#xe5;" horiz-adv-x="549" d="M216 93 Q249 93 282 119.5 Q315 146 341 179 L387 396 Q353 438 300 438 Q265 438 236 418 Q207 398 186 364 Q165 330 153.5 285 Q142 240 142 189 Q142 147 160.5 120 Q179 93 216 93 Z M318 73 Q292 39 255 14.5 Q218 -10 171 -10 Q99 -10 60 40 Q21 90 21 173 Q21 246 40.5 312 Q60 378 95.5 428.5 Q131 479 180.5 508.5 Q230 538 290 538 Q329 538 359.5 524 Q390 510 409 485 L413 485 L415 495 Q418 507 427 517.5 Q436 528 459 528 L533 528 L421 0 L345 0 Q321 0 317.5 11 Q314 22 316 36 L324 73 L318 73 Z M301 647 Q301 614 345 614 Q376 614 392.5 628 Q409 642 409 666 Q409 698 363 698 Q334 698 317.5 684 Q301 670 301 647 Z M369 742 Q416 742 444 722.5 Q472 703 472 666 Q472 641 461 623 Q450 605 432 593 Q414 581 390 575.5 Q366 570 340 570 Q295 570 266 588.5 Q237 607 237 642 Q237 668 247.5 687 Q258 706 276 718 Q294 730 318 736 Q342 742 369 742 Z " />
<glyph glyph-name="ae" unicode="&#xe6;" horiz-adv-x="780" d="M511 -10 Q455 -10 409.5 9.5 Q364 29 338 74 Q330 66 313 52 Q296 38 271.5 24.5 Q247 11 215.5 0.5 Q184 -10 148 -10 Q106 -10 76.5 2 Q47 14 28.5 34 Q10 54 2 80 Q-6 106 -6 135 Q-6 177 8.5 208 Q23 239 49.5 260 Q76 281 113 291.5 Q150 302 194 302 L321 302 L326 330 Q332 354 332 373 Q332 403 313 421 Q294 439 243 439 Q195 439 152 428.5 Q109 418 88 409 L109 510 Q113 512 128 516.5 Q143 521 166 526 Q189 531 218 534.5 Q247 538 280 538 Q340 538 374 521 Q408 504 421 470 Q457 503 501 520.5 Q545 538 593 538 Q629 538 660 529.5 Q691 521 713 504 Q735 487 747.5 462.5 Q760 438 760 407 Q760 347 726.5 311 Q693 275 643 255 Q593 235 535.5 227.5 Q478 220 430 219 Q429 214 429 208.5 Q429 203 429 199 Q429 143 458.5 116 Q488 89 541 89 Q574 89 603.5 102 Q633 115 662 136 L706 72 Q692 58 673.5 43.5 Q655 29 631 17 Q607 5 577 -2.5 Q547 -10 511 -10 Z M177 85 Q220 85 256.5 102 Q293 119 315 134 Q309 159 309 193 Q309 216 310 219 L212 219 Q171 219 141.5 202.5 Q112 186 112 145 Q112 118 127 101.5 Q142 85 177 85 Z M581 450 Q560 450 539 441 Q518 432 499 414 Q480 396 464.5 367.5 Q449 339 440 300 Q471 302 508 306.5 Q545 311 576.5 320.5 Q608 330 629 347 Q650 364 650 391 Q650 421 630 435.5 Q610 450 581 450 Z " />
<glyph glyph-name="ccedilla" unicode="&#xe7;" horiz-adv-x="464" d="M160 -180 Q129 -180 103.5 -172 Q78 -164 64 -153 L88 -115 Q96 -120 116.5 -127.5 Q137 -135 159 -135 Q178 -135 192.5 -128.5 Q207 -122 207 -104 Q207 -89 185.5 -80.5 Q164 -72 128 -68 L132 -48 L174 -6 Q142 0 114.5 14.5 Q87 29 66.5 54 Q46 79 34 113.5 Q22 148 22 194 Q22 276 47.5 340 Q73 404 116 448 Q159 492 216 515 Q273 538 335 538 Q372 538 402 531.5 Q432 525 453 518 L432 424 Q406 431 384.5 435 Q363 439 330 439 Q288 439 253.5 422 Q219 405 194.5 375.5 Q170 346 156 305.5 Q142 265 142 217 Q142 152 169.5 121 Q197 90 243 90 Q278 90 306.5 102 Q335 114 361 135 L406 69 Q394 57 377.5 44 Q361 31 339.5 20 Q318 9 292 1 Q266 -7 235 -9 L208 -38 Q289 -44 289 -97 Q289 -120 277.5 -136 Q266 -152 247.5 -162 Q229 -172 206 -176 Q183 -180 160 -180 Z " />
<glyph glyph-name="egrave" unicode="&#xe8;" horiz-adv-x="495" d="M225 -10 Q183 -10 146 1.5 Q109 13 82 37.5 Q55 62 39 100.5 Q23 139 23 193 Q23 274 46.5 338.5 Q70 403 110 447 Q150 491 201.5 514.5 Q253 538 309 538 Q381 538 427.5 504.5 Q474 471 474 407 Q474 367 458 336.5 Q442 306 416 283 Q390 260 356 243.5 Q322 227 285.5 216 Q249 205 212.5 198.5 Q176 192 145 189 Q147 139 175.5 114 Q204 89 255 89 Q289 89 318 102 Q347 115 376 136 L420 72 Q406 58 387.5 43.5 Q369 29 345 17 Q321 5 291 -2.5 Q261 -10 225 -10 Z M296 449 Q273 449 250 438.5 Q227 428 207 406.5 Q187 385 171.5 351 Q156 317 149 271 Q180 275 217.5 282 Q255 289 287.5 302.5 Q320 316 342 337 Q364 358 364 391 Q364 420 344.5 434.5 Q325 449 296 449 Z M189 684 L258 751 L277 751 L368 615 L328 579 L314 579 L189 684 Z " />
<glyph glyph-name="eacute" unicode="&#xe9;" horiz-adv-x="495" d="M459 751 L500 684 L331 579 L312 579 L287 615 L436 751 L459 751 Z M225 -10 Q183 -10 146 1.5 Q109 13 82 37.5 Q55 62 39 100.5 Q23 139 23 193 Q23 274 46.5 338.5 Q70 403 110 447 Q150 491 201.5 514.5 Q253 538 309 538 Q381 538 427.5 504.5 Q474 471 474 407 Q474 367 458 336.5 Q442 306 416 283 Q390 260 356 243.5 Q322 227 285.5 216 Q249 205 212.5 198.5 Q176 192 145 189 Q147 139 175.5 114 Q204 89 255 89 Q289 89 318 102 Q347 115 376 136 L420 72 Q406 58 387.5 43.5 Q369 29 345 17 Q321 5 291 -2.5 Q261 -10 225 -10 Z M296 449 Q273 449 250 438.5 Q227 428 207 406.5 Q187 385 171.5 351 Q156 317 149 271 Q180 275 217.5 282 Q255 289 287.5 302.5 Q320 316 342 337 Q364 358 364 391 Q364 420 344.5 434.5 Q325 449 296 449 Z " />
<glyph glyph-name="ecircumflex" unicode="&#xea;" horiz-adv-x="495" d="M337 657 L216 575 L195 575 L174 605 L332 749 L372 749 L469 605 L436 575 L422 575 L337 657 Z M225 -10 Q183 -10 146 1.5 Q109 13 82 37.5 Q55 62 39 100.5 Q23 139 23 193 Q23 274 46.5 338.5 Q70 403 110 447 Q150 491 201.5 514.5 Q253 538 309 538 Q381 538 427.5 504.5 Q474 471 474 407 Q474 367 458 336.5 Q442 306 416 283 Q390 260 356 243.5 Q322 227 285.5 216 Q249 205 212.5 198.5 Q176 192 145 189 Q147 139 175.5 114 Q204 89 255 89 Q289 89 318 102 Q347 115 376 136 L420 72 Q406 58 387.5 43.5 Q369 29 345 17 Q321 5 291 -2.5 Q261 -10 225 -10 Z M296 449 Q273 449 250 438.5 Q227 428 207 406.5 Q187 385 171.5 351 Q156 317 149 271 Q180 275 217.5 282 Q255 289 287.5 302.5 Q320 316 342 337 Q364 358 364 391 Q364 420 344.5 434.5 Q325 449 296 449 Z " />
<glyph glyph-name="edieresis" unicode="&#xeb;" horiz-adv-x="495" d="M206 660 Q206 685 224.5 704 Q243 723 274 723 Q295 723 307.5 709 Q320 695 320 677 Q320 651 301 633 Q282 615 252 615 Q230 615 218 628.5 Q206 642 206 660 Z M358 660 Q358 685 376.5 704 Q395 723 426 723 Q447 723 459.5 709 Q472 695 472 677 Q472 651 453 633 Q434 615 404 615 Q382 615 370 628.5 Q358 642 358 660 Z M225 -10 Q183 -10 146 1.5 Q109 13 82 37.5 Q55 62 39 100.5 Q23 139 23 193 Q23 274 46.5 338.5 Q70 403 110 447 Q150 491 201.5 514.5 Q253 538 309 538 Q381 538 427.5 504.5 Q474 471 474 407 Q474 367 458 336.5 Q442 306 416 283 Q390 260 356 243.5 Q322 227 285.5 216 Q249 205 212.5 198.5 Q176 192 145 189 Q147 139 175.5 114 Q204 89 255 89 Q289 89 318 102 Q347 115 376 136 L420 72 Q406 58 387.5 43.5 Q369 29 345 17 Q321 5 291 -2.5 Q261 -10 225 -10 Z M296 449 Q273 449 250 438.5 Q227 428 207 406.5 Q187 385 171.5 351 Q156 317 149 271 Q180 275 217.5 282 Q255 289 287.5 302.5 Q320 316 342 337 Q364 358 364 391 Q364 420 344.5 434.5 Q325 449 296 449 Z " />
<glyph glyph-name="igrave" unicode="&#xec;" horiz-adv-x="246" d="M112 528 L230 528 L118 0 L0 0 L112 528 Z M46 684 L115 751 L134 751 L225 615 L185 579 L171 579 L46 684 Z " />
<glyph glyph-name="iacute" unicode="&#xed;" horiz-adv-x="246" d="M318 751 L359 684 L190 579 L171 579 L146 615 L295 751 L318 751 Z M112 528 L230 528 L118 0 L0 0 L112 528 Z " />
<glyph glyph-name="icircumflex" unicode="&#xee;" horiz-adv-x="246" d="M195 657 L74 575 L53 575 L32 605 L190 749 L230 749 L327 605 L294 575 L280 575 L195 657 Z M112 528 L230 528 L118 0 L0 0 L112 528 Z " />
<glyph glyph-name="idieresis" unicode="&#xef;" horiz-adv-x="246" d="M65 660 Q65 685 83.5 704 Q102 723 133 723 Q154 723 166.5 709 Q179 695 179 677 Q179 651 160 633 Q141 615 111 615 Q89 615 77 628.5 Q65 642 65 660 Z M217 660 Q217 685 235.5 704 Q254 723 285 723 Q306 723 318.5 709 Q331 695 331 677 Q331 651 312 633 Q293 615 263 615 Q241 615 229 628.5 Q217 642 217 660 Z M112 528 L230 528 L118 0 L0 0 L112 528 Z " />
<glyph glyph-name="eth" unicode="&#xf0;" horiz-adv-x="547" d="M228 -10 Q185 -10 148 2.5 Q111 15 83.5 41.5 Q56 68 40.5 107.5 Q25 147 25 201 Q25 284 49 347 Q73 410 112 452.5 Q151 495 200.5 516.5 Q250 538 301 538 Q350 538 376 513 Q363 564 335 609 L254 574 L241 623 L305 650 Q283 677 256 699 L301 741 Q324 729 344 714.5 Q364 700 381 683 L465 718 L479 669 L417 643 Q467 577 487 496 Q507 415 507 333 Q507 249 483 184.5 Q459 120 420 77 Q381 34 330.5 12 Q280 -10 228 -10 Z M145 197 Q145 135 165.5 107 Q186 79 233 79 Q270 79 298.5 103 Q327 127 346.5 164.5 Q366 202 376 249 Q386 296 386 342 Q386 396 365.5 422.5 Q345 449 298 449 Q261 449 232.5 425.5 Q204 402 184.5 365.5 Q165 329 155 284 Q145 239 145 197 Z " />
<glyph glyph-name="ntilde" unicode="&#xf1;" horiz-adv-x="555" d="M331 434 Q310 434 289.5 424 Q269 414 250.5 399.5 Q232 385 216.5 368.5 Q201 352 191 339 L117 0 L1 0 L112 528 L187 528 Q212 528 216.5 517 Q221 506 218 492 L209 451 L214 451 Q228 467 245.5 482.5 Q263 498 283 510.5 Q303 523 326.5 530.5 Q350 538 377 538 Q442 538 477 502 Q512 466 513 408 Q513 397 511.5 385.5 Q510 374 508 361 L430 0 L313 0 L386 344 Q390 359 390 376 Q390 403 376 418.5 Q362 434 331 434 Z M530 724 L521 683 Q511 638 489 616 Q467 594 425 594 Q407 594 389 601 Q371 608 354.5 616.5 Q338 625 323 632 Q308 639 296 639 Q279 639 271 633 Q263 627 261 620 L252 584 L188 584 L196 622 Q207 673 229 695.5 Q251 718 290 718 Q307 718 325 710.5 Q343 703 360 693.5 Q377 684 393.5 676.5 Q410 669 425 669 Q444 669 451.5 676.5 Q459 684 460 692 L467 724 L530 724 Z " />
<glyph glyph-name="ograve" unicode="&#xf2;" horiz-adv-x="546" d="M25 201 Q25 284 49 347 Q73 410 112 452.5 Q151 495 201 516.5 Q251 538 304 538 Q347 538 384 525.5 Q421 513 448.5 487.5 Q476 462 491.5 423.5 Q507 385 507 333 Q507 249 483 184.5 Q459 120 420 77 Q381 34 330.5 12 Q280 -10 228 -10 Q186 -10 149 3 Q112 16 84.5 42 Q57 68 41 107.5 Q25 147 25 201 Z M146 197 Q146 82 233 82 Q270 82 298.5 105.5 Q327 129 346.5 166.5 Q366 204 376 250.5 Q386 297 386 342 Q386 392 364.5 419 Q343 446 298 446 Q261 446 232.5 422.5 Q204 399 185 363 Q166 327 156 283 Q146 239 146 197 Z M195 684 L264 751 L283 751 L374 615 L334 579 L320 579 L195 684 Z " />
<glyph glyph-name="oacute" unicode="&#xf3;" horiz-adv-x="546" d="M470 751 L511 684 L342 579 L323 579 L298 615 L447 751 L470 751 Z M25 201 Q25 284 49 347 Q73 410 112 452.5 Q151 495 201 516.5 Q251 538 304 538 Q347 538 384 525.5 Q421 513 448.5 487.5 Q476 462 491.5 423.5 Q507 385 507 333 Q507 249 483 184.5 Q459 120 420 77 Q381 34 330.5 12 Q280 -10 228 -10 Q186 -10 149 3 Q112 16 84.5 42 Q57 68 41 107.5 Q25 147 25 201 Z M146 197 Q146 82 233 82 Q270 82 298.5 105.5 Q327 129 346.5 166.5 Q366 204 376 250.5 Q386 297 386 342 Q386 392 364.5 419 Q343 446 298 446 Q261 446 232.5 422.5 Q204 399 185 363 Q166 327 156 283 Q146 239 146 197 Z " />
<glyph glyph-name="ocircumflex" unicode="&#xf4;" horiz-adv-x="546" d="M351 657 L230 575 L209 575 L188 605 L346 749 L386 749 L483 605 L450 575 L436 575 L351 657 Z M25 201 Q25 284 49 347 Q73 410 112 452.5 Q151 495 201 516.5 Q251 538 304 538 Q347 538 384 525.5 Q421 513 448.5 487.5 Q476 462 491.5 423.5 Q507 385 507 333 Q507 249 483 184.5 Q459 120 420 77 Q381 34 330.5 12 Q280 -10 228 -10 Q186 -10 149 3 Q112 16 84.5 42 Q57 68 41 107.5 Q25 147 25 201 Z M146 197 Q146 82 233 82 Q270 82 298.5 105.5 Q327 129 346.5 166.5 Q366 204 376 250.5 Q386 297 386 342 Q386 392 364.5 419 Q343 446 298 446 Q261 446 232.5 422.5 Q204 399 185 363 Q166 327 156 283 Q146 239 146 197 Z " />
<glyph glyph-name="otilde" unicode="&#xf5;" horiz-adv-x="546" d="M25 201 Q25 284 49 347 Q73 410 112 452.5 Q151 495 201 516.5 Q251 538 304 538 Q347 538 384 525.5 Q421 513 448.5 487.5 Q476 462 491.5 423.5 Q507 385 507 333 Q507 249 483 184.5 Q459 120 420 77 Q381 34 330.5 12 Q280 -10 228 -10 Q186 -10 149 3 Q112 16 84.5 42 Q57 68 41 107.5 Q25 147 25 201 Z M146 197 Q146 82 233 82 Q270 82 298.5 105.5 Q327 129 346.5 166.5 Q366 204 376 250.5 Q386 297 386 342 Q386 392 364.5 419 Q343 446 298 446 Q261 446 232.5 422.5 Q204 399 185 363 Q166 327 156 283 Q146 239 146 197 Z M513 724 L504 683 Q494 638 472 616 Q450 594 408 594 Q390 594 372 601 Q354 608 337.5 616.5 Q321 625 306 632 Q291 639 279 639 Q262 639 254 633 Q246 627 244 620 L235 584 L171 584 L179 622 Q190 673 212 695.5 Q234 718 273 718 Q290 718 308 710.5 Q326 703 343 693.5 Q360 684 376.5 676.5 Q393 669 408 669 Q427 669 434.5 676.5 Q442 684 443 692 L450 724 L513 724 Z " />
<glyph glyph-name="odieresis" unicode="&#xf6;" horiz-adv-x="546" d="M216 660 Q216 685 234.5 704 Q253 723 284 723 Q305 723 317.5 709 Q330 695 330 677 Q330 651 311 633 Q292 615 262 615 Q240 615 228 628.5 Q216 642 216 660 Z M368 660 Q368 685 386.5 704 Q405 723 436 723 Q457 723 469.5 709 Q482 695 482 677 Q482 651 463 633 Q444 615 414 615 Q392 615 380 628.5 Q368 642 368 660 Z M25 201 Q25 284 49 347 Q73 410 112 452.5 Q151 495 201 516.5 Q251 538 304 538 Q347 538 384 525.5 Q421 513 448.5 487.5 Q476 462 491.5 423.5 Q507 385 507 333 Q507 249 483 184.5 Q459 120 420 77 Q381 34 330.5 12 Q280 -10 228 -10 Q186 -10 149 3 Q112 16 84.5 42 Q57 68 41 107.5 Q25 147 25 201 Z M146 197 Q146 82 233 82 Q270 82 298.5 105.5 Q327 129 346.5 166.5 Q366 204 376 250.5 Q386 297 386 342 Q386 392 364.5 419 Q343 446 298 446 Q261 446 232.5 422.5 Q204 399 185 363 Q166 327 156 283 Q146 239 146 197 Z " />
<glyph glyph-name="divide" unicode="&#xf7;" horiz-adv-x="520" d="M211 497 Q211 520 227.5 536.5 Q244 553 267 553 Q289 553 306 536.5 Q323 520 323 497 Q323 474 306 458 Q289 442 267 442 Q244 442 227.5 458 Q211 474 211 497 Z M211 172 Q211 195 227.5 211.5 Q244 228 267 228 Q289 228 306 211.5 Q323 195 323 172 Q323 149 306 133 Q289 117 267 117 Q244 117 227.5 133 Q211 149 211 172 Z M60 373 L474 373 L474 297 L60 297 L60 373 Z " />
<glyph glyph-name="oslash" unicode="&#xf8;" horiz-adv-x="546" d="M25 201 Q25 284 49 347 Q73 410 112 452.5 Q151 495 201 516.5 Q251 538 304 538 Q345 538 380.5 526.5 Q416 515 443 492 L486 538 L561 538 L478 450 Q492 427 499.5 397.5 Q507 368 507 333 Q507 249 483 184.5 Q459 120 420 77 Q381 34 330.5 12 Q280 -10 228 -10 Q188 -10 153 1.5 Q118 13 91 36 L48 -10 L-29 -10 L54 79 Q25 128 25 201 Z M146 197 Q146 192 146 187 Q146 182 147 177 L368 413 Q346 446 298 446 Q261 446 232.5 422.5 Q204 399 185 363 Q166 327 156 283 Q146 239 146 197 Z M233 82 Q270 82 298.5 105.5 Q327 129 346.5 166.5 Q366 204 376 250.5 Q386 297 386 342 L386 351 L164 114 Q186 82 233 82 Z " />
<glyph glyph-name="ugrave" unicode="&#xf9;" horiz-adv-x="546" d="M317 76 Q303 60 286 44.5 Q269 29 249 17 Q229 5 206 -2.5 Q183 -10 157 -10 Q94 -10 60 25.5 Q26 61 26 119 Q25 140 31 166 L108 528 L226 528 L152 183 Q149 166 149 152 Q149 124 162 108.5 Q175 93 203 93 Q223 93 243 103 Q263 113 281 127.5 Q299 142 314 158.5 Q329 175 339 188 L413 528 L530 528 L419 0 L344 0 Q319 0 314.5 11 Q310 22 313 35 L322 76 L317 76 Z M201 684 L270 751 L289 751 L380 615 L340 579 L326 579 L201 684 Z " />
<glyph glyph-name="uacute" unicode="&#xfa;" horiz-adv-x="546" d="M466 751 L507 684 L338 579 L319 579 L294 615 L443 751 L466 751 Z M317 76 Q303 60 286 44.5 Q269 29 249 17 Q229 5 206 -2.5 Q183 -10 157 -10 Q94 -10 60 25.5 Q26 61 26 119 Q25 140 31 166 L108 528 L226 528 L152 183 Q149 166 149 152 Q149 124 162 108.5 Q175 93 203 93 Q223 93 243 103 Q263 113 281 127.5 Q299 142 314 158.5 Q329 175 339 188 L413 528 L530 528 L419 0 L344 0 Q319 0 314.5 11 Q310 22 313 35 L322 76 L317 76 Z " />
<glyph glyph-name="ucircumflex" unicode="&#xfb;" horiz-adv-x="546" d="M351 657 L230 575 L209 575 L188 605 L346 749 L386 749 L483 605 L450 575 L436 575 L351 657 Z M317 76 Q303 60 286 44.5 Q269 29 249 17 Q229 5 206 -2.5 Q183 -10 157 -10 Q94 -10 60 25.5 Q26 61 26 119 Q25 140 31 166 L108 528 L226 528 L152 183 Q149 166 149 152 Q149 124 162 108.5 Q175 93 203 93 Q223 93 243 103 Q263 113 281 127.5 Q299 142 314 158.5 Q329 175 339 188 L413 528 L530 528 L419 0 L344 0 Q319 0 314.5 11 Q310 22 313 35 L322 76 L317 76 Z " />
<glyph glyph-name="udieresis" unicode="&#xfc;" horiz-adv-x="546" d="M220 660 Q220 685 238.5 704 Q257 723 288 723 Q309 723 321.5 709 Q334 695 334 677 Q334 651 315 633 Q296 615 266 615 Q244 615 232 628.5 Q220 642 220 660 Z M372 660 Q372 685 390.5 704 Q409 723 440 723 Q461 723 473.5 709 Q486 695 486 677 Q486 651 467 633 Q448 615 418 615 Q396 615 384 628.5 Q372 642 372 660 Z M317 76 Q303 60 286 44.5 Q269 29 249 17 Q229 5 206 -2.5 Q183 -10 157 -10 Q94 -10 60 25.5 Q26 61 26 119 Q25 140 31 166 L108 528 L226 528 L152 183 Q149 166 149 152 Q149 124 162 108.5 Q175 93 203 93 Q223 93 243 103 Q263 113 281 127.5 Q299 142 314 158.5 Q329 175 339 188 L413 528 L530 528 L419 0 L344 0 Q319 0 314.5 11 Q310 22 313 35 L322 76 L317 76 Z " />
<glyph glyph-name="yacute" unicode="&#xfd;" horiz-adv-x="518" d="M55 -170 L146 -3 L58 528 L184 528 L232 155 L434 528 L552 528 L159 -170 L55 -170 Z M460 751 L501 684 L332 579 L313 579 L288 615 L437 751 L460 751 Z " />
<glyph glyph-name="ygrave" unicode="&#x1ef3;" horiz-adv-x="518" d="M55 -170 L146 -3 L58 528 L184 528 L232 155 L434 528 L552 528 L159 -170 L55 -170 Z M195 684 L264 751 L283 751 L374 615 L334 579 L320 579 L195 684 Z " />
<glyph glyph-name="thorn" unicode="&#xfe;" horiz-adv-x="549" d="M233 91 Q268 91 297.5 110.5 Q327 130 348 163 Q369 196 380.5 240.5 Q392 285 392 336 Q392 380 373.5 407.5 Q355 435 317 435 Q284 435 251 410 Q218 385 193 350 L146 131 Q180 91 233 91 Z M243 -10 Q205 -10 175 3.5 Q145 17 127 40 L82 -170 L-36 -170 L156 730 L273 730 L215 459 Q240 494 278.5 516 Q317 538 362 538 Q435 538 473.5 487.5 Q512 437 512 352 Q512 278 492.5 212.5 Q473 147 438 97.5 Q403 48 353 19 Q303 -10 243 -10 Z " />
<glyph glyph-name="ydieresis" unicode="&#xff;" horiz-adv-x="518" d="M55 -170 L146 -3 L58 528 L184 528 L232 155 L434 528 L552 528 L159 -170 L55 -170 Z M208 660 Q208 685 226.5 704 Q245 723 276 723 Q297 723 309.5 709 Q322 695 322 677 Q322 651 303 633 Q284 615 254 615 Q232 615 220 628.5 Q208 642 208 660 Z M360 660 Q360 685 378.5 704 Q397 723 428 723 Q449 723 461.5 709 Q474 695 474 677 Q474 651 455 633 Q436 615 406 615 Q384 615 372 628.5 Q360 642 360 660 Z " />
<glyph glyph-name="Amacron" unicode="&#x100;" horiz-adv-x="620" d="M398 154 L163 154 L85 0 L-46 0 L325 702 L454 702 L549 0 L416 0 L398 154 Z M211 248 L388 248 L356 533 L211 248 Z M299 865 L552 865 L537 795 L284 795 L299 865 Z " />
<glyph glyph-name="amacron" unicode="&#x101;" horiz-adv-x="549" d="M216 93 Q249 93 282 119.5 Q315 146 341 179 L387 396 Q353 438 300 438 Q265 438 236 418 Q207 398 186 364 Q165 330 153.5 285 Q142 240 142 189 Q142 147 160.5 120 Q179 93 216 93 Z M318 73 Q292 39 255 14.5 Q218 -10 171 -10 Q99 -10 60 40 Q21 90 21 173 Q21 246 40.5 312 Q60 378 95.5 428.5 Q131 479 180.5 508.5 Q230 538 290 538 Q329 538 359.5 524 Q390 510 409 485 L413 485 L415 495 Q418 507 427 517.5 Q436 528 459 528 L533 528 L421 0 L345 0 Q321 0 317.5 11 Q314 22 316 36 L324 73 L318 73 Z M236 697 L489 697 L474 627 L221 627 L236 697 Z " />
<glyph glyph-name="Abreve" unicode="&#x102;" horiz-adv-x="620" d="M398 154 L163 154 L85 0 L-46 0 L325 702 L454 702 L549 0 L416 0 L398 154 Z M211 248 L388 248 L356 533 L211 248 Z M550 878 Q542 856 528.5 835.5 Q515 815 496.5 799.5 Q478 784 454 774.5 Q430 765 401 765 Q374 765 354 774.5 Q334 784 321.5 799.5 Q309 815 303 835.5 Q297 856 297 878 L357 894 Q358 869 370 850 Q382 831 411 831 Q443 831 463.5 849.5 Q484 868 495 891 L550 878 L550 878 Z " />
<glyph glyph-name="abreve" unicode="&#x103;" horiz-adv-x="549" d="M216 93 Q249 93 282 119.5 Q315 146 341 179 L387 396 Q353 438 300 438 Q265 438 236 418 Q207 398 186 364 Q165 330 153.5 285 Q142 240 142 189 Q142 147 160.5 120 Q179 93 216 93 Z M318 73 Q292 39 255 14.5 Q218 -10 171 -10 Q99 -10 60 40 Q21 90 21 173 Q21 246 40.5 312 Q60 378 95.5 428.5 Q131 479 180.5 508.5 Q230 538 290 538 Q329 538 359.5 524 Q390 510 409 485 L413 485 L415 495 Q418 507 427 517.5 Q436 528 459 528 L533 528 L421 0 L345 0 Q321 0 317.5 11 Q314 22 316 36 L324 73 L318 73 Z M486 710 Q478 687 464.5 666 Q451 645 432.5 628.5 Q414 612 390 602 Q366 592 337 592 Q310 592 290.5 601.5 Q271 611 258.5 627.5 Q246 644 240 665 Q234 686 234 709 L293 724 Q294 699 306 679 Q318 659 347 659 Q379 659 400 678 Q421 697 433 722 L486 710 L486 710 Z " />
<glyph glyph-name="Aogonek" unicode="&#x104;" horiz-adv-x="619" d="M523 -151 Q504 -163 474.5 -171.5 Q445 -180 414 -180 Q369 -180 342.5 -162.5 Q316 -145 316 -108 Q316 -69 344.5 -41 Q373 -13 415 4 L398 154 L163 154 L85 0 L-47 0 L325 702 L454 702 L549 0 L526 0 Q499 0 476 -7.5 Q453 -15 436.5 -27 Q420 -39 410.5 -54 Q401 -69 401 -85 Q401 -105 412.5 -112.5 Q424 -120 444 -120 Q461 -120 481 -113 Q501 -106 510 -100 L523 -151 Z M210 248 L387 248 L356 533 L210 248 Z " />
<glyph glyph-name="aogonek" unicode="&#x105;" horiz-adv-x="549" d="M318 73 Q292 39 255 14.5 Q218 -10 171 -10 Q99 -10 60 40 Q21 90 21 173 Q21 246 40.5 312 Q60 378 95.5 428.5 Q131 479 180.5 508.5 Q230 538 290 538 Q329 538 359.5 524 Q390 510 409 485 L413 485 L415 495 Q418 507 427 517.5 Q436 528 459 528 L533 528 L421 0 L419 0 Q396 0 374.5 -7.5 Q353 -15 336 -27.5 Q319 -40 309 -55 Q299 -70 299 -85 Q299 -105 310.5 -112.5 Q322 -120 342 -120 Q359 -120 379 -113 Q399 -106 408 -100 L421 -151 Q402 -163 372.5 -171.5 Q343 -180 312 -180 Q267 -180 240.5 -162.5 Q214 -145 214 -108 Q214 -67 245 -38.5 Q276 -10 321 7 Q315 12 314.5 20 Q314 28 316 36 L324 73 L318 73 Z M216 93 Q249 93 282 119.5 Q315 146 341 179 L387 396 Q353 438 300 438 Q265 438 236 418 Q207 398 186 364 Q165 330 153.5 285 Q142 240 142 189 Q142 147 160.5 120 Q179 93 216 93 Z " />
<glyph glyph-name="Cacute" unicode="&#x106;" horiz-adv-x="556" d="M468 16 Q438 5 397.5 -2.5 Q357 -10 305 -10 Q181 -10 113.5 56.5 Q46 123 46 247 Q46 353 74.5 439 Q103 525 155.5 585 Q208 645 282 677.5 Q356 710 448 710 Q498 710 536 701.5 Q574 693 596 685 L574 584 Q540 595 507.5 600.5 Q475 606 445 606 Q385 606 336 585 Q287 564 251.5 520.5 Q216 477 196.5 411.5 Q177 346 177 258 Q177 181 214.5 136.5 Q252 92 338 92 Q376 92 412 98.5 Q448 105 486 119 L468 16 Z M452 752 L427 788 L575 924 L599 924 L639 856 L470 752 L452 752 Z " />
<glyph glyph-name="cacute" unicode="&#x107;" horiz-adv-x="464" d="M475 751 L516 684 L347 579 L328 579 L303 615 L452 751 L475 751 Z M406 69 Q394 56 376 42 Q358 28 334.5 16.5 Q311 5 282 -2.5 Q253 -10 219 -10 Q180 -10 144.5 2 Q109 14 82 38.5 Q55 63 38.5 101.5 Q22 140 22 194 Q22 276 47.5 340 Q73 404 116 448 Q159 492 216 515 Q273 538 335 538 Q372 538 402 531.5 Q432 525 453 518 L432 424 Q406 431 384.5 435 Q363 439 330 439 Q288 439 253.5 422 Q219 405 194.5 375.5 Q170 346 156 305.5 Q142 265 142 217 Q142 152 169.5 121 Q197 90 243 90 Q278 90 306.5 102 Q335 114 361 135 L406 69 Z " />
<glyph glyph-name="Ccircumflex" unicode="&#x108;" horiz-adv-x="556" d="M468 16 Q438 5 397.5 -2.5 Q357 -10 305 -10 Q181 -10 113.5 56.5 Q46 123 46 247 Q46 353 74.5 439 Q103 525 155.5 585 Q208 645 282 677.5 Q356 710 448 710 Q498 710 536 701.5 Q574 693 596 685 L574 584 Q540 595 507.5 600.5 Q475 606 445 606 Q385 606 336 585 Q287 564 251.5 520.5 Q216 477 196.5 411.5 Q177 346 177 258 Q177 181 214.5 136.5 Q252 92 338 92 Q376 92 412 98.5 Q448 105 486 119 L468 16 Z M475 834 L354 752 L333 752 L312 782 L470 926 L510 926 L607 782 L575 752 L561 752 L475 834 Z " />
<glyph glyph-name="ccircumflex" unicode="&#x109;" horiz-adv-x="464" d="M355 657 L234 575 L213 575 L192 605 L350 749 L390 749 L487 605 L454 575 L440 575 L355 657 Z M406 69 Q394 56 376 42 Q358 28 334.5 16.5 Q311 5 282 -2.5 Q253 -10 219 -10 Q180 -10 144.5 2 Q109 14 82 38.5 Q55 63 38.5 101.5 Q22 140 22 194 Q22 276 47.5 340 Q73 404 116 448 Q159 492 216 515 Q273 538 335 538 Q372 538 402 531.5 Q432 525 453 518 L432 424 Q406 431 384.5 435 Q363 439 330 439 Q288 439 253.5 422 Q219 405 194.5 375.5 Q170 346 156 305.5 Q142 265 142 217 Q142 152 169.5 121 Q197 90 243 90 Q278 90 306.5 102 Q335 114 361 135 L406 69 Z " />
<glyph glyph-name="Cdotaccent" unicode="&#x10a;" horiz-adv-x="556" d="M404 817 Q404 848 426.5 871.5 Q449 895 487 895 Q514 895 530 878.5 Q546 862 546 839 Q546 807 522.5 784.5 Q499 762 461 762 Q434 762 419 778 Q404 794 404 817 Z M468 16 Q438 5 397.5 -2.5 Q357 -10 305 -10 Q181 -10 113.5 56.5 Q46 123 46 247 Q46 353 74.5 439 Q103 525 155.5 585 Q208 645 282 677.5 Q356 710 448 710 Q498 710 536 701.5 Q574 693 596 685 L574 584 Q540 595 507.5 600.5 Q475 606 445 606 Q385 606 336 585 Q287 564 251.5 520.5 Q216 477 196.5 411.5 Q177 346 177 258 Q177 181 214.5 136.5 Q252 92 338 92 Q376 92 412 98.5 Q448 105 486 119 L468 16 Z " />
<glyph glyph-name="cdotaccent" unicode="&#x10b;" horiz-adv-x="464" d="M406 69 Q394 56 376 42 Q358 28 334.5 16.5 Q311 5 282 -2.5 Q253 -10 219 -10 Q180 -10 144.5 2 Q109 14 82 38.5 Q55 63 38.5 101.5 Q22 140 22 194 Q22 276 47.5 340 Q73 404 116 448 Q159 492 216 515 Q273 538 335 538 Q372 538 402 531.5 Q432 525 453 518 L432 424 Q406 431 384.5 435 Q363 439 330 439 Q288 439 253.5 422 Q219 405 194.5 375.5 Q170 346 156 305.5 Q142 265 142 217 Q142 152 169.5 121 Q197 90 243 90 Q278 90 306.5 102 Q335 114 361 135 L406 69 Z M287 649 Q287 680 310 703.5 Q333 727 371 727 Q398 727 413.5 710.5 Q429 694 429 671 Q429 640 405.5 617 Q382 594 344 594 Q318 594 302.5 610 Q287 626 287 649 Z " />
<glyph glyph-name="Ccaron" unicode="&#x10c;" horiz-adv-x="556" d="M468 16 Q438 5 397.5 -2.5 Q357 -10 305 -10 Q181 -10 113.5 56.5 Q46 123 46 247 Q46 353 74.5 439 Q103 525 155.5 585 Q208 645 282 677.5 Q356 710 448 710 Q498 710 536 701.5 Q574 693 596 685 L574 584 Q540 595 507.5 600.5 Q475 606 445 606 Q385 606 336 585 Q287 564 251.5 520.5 Q216 477 196.5 411.5 Q177 346 177 258 Q177 181 214.5 136.5 Q252 92 338 92 Q376 92 412 98.5 Q448 105 486 119 L468 16 Z M441 752 L343 896 L376 926 L390 926 L476 844 L596 926 L618 926 L639 896 L481 752 L441 752 Z " />
<glyph glyph-name="ccaron" unicode="&#x10d;" horiz-adv-x="464" d="M324 579 L227 724 L260 753 L274 753 L359 672 L480 753 L501 753 L522 724 L364 579 L324 579 Z M406 69 Q394 56 376 42 Q358 28 334.5 16.5 Q311 5 282 -2.5 Q253 -10 219 -10 Q180 -10 144.5 2 Q109 14 82 38.5 Q55 63 38.5 101.5 Q22 140 22 194 Q22 276 47.5 340 Q73 404 116 448 Q159 492 216 515 Q273 538 335 538 Q372 538 402 531.5 Q432 525 453 518 L432 424 Q406 431 384.5 435 Q363 439 330 439 Q288 439 253.5 422 Q219 405 194.5 375.5 Q170 346 156 305.5 Q142 265 142 217 Q142 152 169.5 121 Q197 90 243 90 Q278 90 306.5 102 Q335 114 361 135 L406 69 Z " />
<glyph glyph-name="Dcaron" unicode="&#x10e;" horiz-adv-x="664" d="M162 700 L371 700 Q432 700 481 684 Q530 668 564.5 636.5 Q599 605 617.5 557 Q636 509 636 446 Q636 339 608.5 256 Q581 173 529.5 116 Q478 59 405 29.5 Q332 0 242 0 L14 0 L162 700 Z M159 98 L265 98 Q314 98 358 120.5 Q402 143 434.5 187 Q467 231 486 296 Q505 361 505 447 Q505 525 468.5 564 Q432 603 351 603 L266 603 L159 98 Z M371 752 L273 896 L306 926 L320 926 L406 844 L526 926 L548 926 L569 896 L411 752 L371 752 Z " />
<glyph glyph-name="dcaron" unicode="&#x10f;" horiz-adv-x="549" d="M616 582 L658 780 L744 780 L729 708 L687 582 L616 582 Z M217 93 Q249 93 282 117 Q315 141 339 174 L387 397 Q370 416 348.5 426 Q327 436 300 436 Q265 436 236 416.5 Q207 397 186 364 Q165 331 153.5 286.5 Q142 242 142 192 Q142 148 160.5 120.5 Q179 93 217 93 Z M318 66 Q293 34 254.5 12 Q216 -10 172 -10 Q99 -10 60 40.5 Q21 91 21 175 Q21 248 40.5 314 Q60 380 95.5 430 Q131 480 180.5 509 Q230 538 290 538 Q328 538 358 524.5 Q388 511 407 488 L459 730 L576 730 L421 0 L346 0 Q322 0 318.5 11 Q315 22 317 36 L323 66 L318 66 Z " />
<glyph glyph-name="Dcroat" unicode="&#x110;" horiz-adv-x="667" d="M35 390 L99 390 L165 700 L374 700 Q435 700 484 684 Q533 668 567.5 636.5 Q602 605 620.5 557 Q639 509 639 446 Q639 339 611 256 Q583 173 532 116 Q481 59 408 29.5 Q335 0 245 0 L17 0 L86 324 L22 324 L35 390 Z M223 390 L395 390 L381 324 L210 324 L162 98 L268 98 Q317 98 361 120.5 Q405 143 437.5 187 Q470 231 489 296 Q508 361 508 447 Q508 525 471.5 564 Q435 603 354 603 L269 603 L223 390 Z " />
<glyph glyph-name="dcroat" unicode="&#x111;" horiz-adv-x="549" d="M315 643 L440 643 L459 730 L576 730 L558 643 L625 643 L612 579 L543 579 L421 0 L346 0 Q322 0 318.5 11 Q315 22 317 36 L323 66 L318 66 Q293 34 254.5 12 Q216 -10 172 -10 Q99 -10 60 40.5 Q21 91 21 175 Q21 248 40.5 314 Q60 380 95.5 430 Q131 480 180.5 509 Q230 538 290 538 Q328 538 358 524.5 Q388 511 407 488 L426 579 L302 579 L315 643 Z M217 93 Q249 93 282 117 Q315 141 339 174 L387 397 Q370 416 348.5 426 Q327 436 300 436 Q265 436 236 416.5 Q207 397 186 364 Q165 331 153.5 286.5 Q142 242 142 192 Q142 148 160.5 120.5 Q179 93 217 93 Z " />
<glyph glyph-name="Emacron" unicode="&#x112;" horiz-adv-x="563" d="M267 602 L225 405 L488 405 L467 309 L204 309 L158 98 L484 98 L463 0 L13 0 L162 700 L603 700 L582 602 L267 602 Z M300 865 L553 865 L538 795 L285 795 L300 865 Z " />
<glyph glyph-name="emacron" unicode="&#x113;" horiz-adv-x="495" d="M225 -10 Q183 -10 146 1.5 Q109 13 82 37.5 Q55 62 39 100.5 Q23 139 23 193 Q23 274 46.5 338.5 Q70 403 110 447 Q150 491 201.5 514.5 Q253 538 309 538 Q381 538 427.5 504.5 Q474 471 474 407 Q474 367 458 336.5 Q442 306 416 283 Q390 260 356 243.5 Q322 227 285.5 216 Q249 205 212.5 198.5 Q176 192 145 189 Q147 139 175.5 114 Q204 89 255 89 Q289 89 318 102 Q347 115 376 136 L420 72 Q406 58 387.5 43.5 Q369 29 345 17 Q321 5 291 -2.5 Q261 -10 225 -10 Z M296 449 Q273 449 250 438.5 Q227 428 207 406.5 Q187 385 171.5 351 Q156 317 149 271 Q180 275 217.5 282 Q255 289 287.5 302.5 Q320 316 342 337 Q364 358 364 391 Q364 420 344.5 434.5 Q325 449 296 449 Z M218 697 L471 697 L456 627 L203 627 L218 697 Z " />
<glyph glyph-name="Ebreve" unicode="&#x114;" horiz-adv-x="563" d="M267 602 L225 405 L488 405 L467 309 L204 309 L158 98 L484 98 L463 0 L13 0 L162 700 L603 700 L582 602 L267 602 Z M550 878 Q542 856 528.5 835.5 Q515 815 496.5 799.5 Q478 784 454 774.5 Q430 765 401 765 Q374 765 354 774.5 Q334 784 321.5 799.5 Q309 815 303 835.5 Q297 856 297 878 L357 894 Q358 869 370 850 Q382 831 411 831 Q443 831 463.5 849.5 Q484 868 495 891 L550 878 L550 878 Z " />
<glyph glyph-name="ebreve" unicode="&#x115;" horiz-adv-x="495" d="M225 -10 Q183 -10 146 1.5 Q109 13 82 37.5 Q55 62 39 100.5 Q23 139 23 193 Q23 274 46.5 338.5 Q70 403 110 447 Q150 491 201.5 514.5 Q253 538 309 538 Q381 538 427.5 504.5 Q474 471 474 407 Q474 367 458 336.5 Q442 306 416 283 Q390 260 356 243.5 Q322 227 285.5 216 Q249 205 212.5 198.5 Q176 192 145 189 Q147 139 175.5 114 Q204 89 255 89 Q289 89 318 102 Q347 115 376 136 L420 72 Q406 58 387.5 43.5 Q369 29 345 17 Q321 5 291 -2.5 Q261 -10 225 -10 Z M296 449 Q273 449 250 438.5 Q227 428 207 406.5 Q187 385 171.5 351 Q156 317 149 271 Q180 275 217.5 282 Q255 289 287.5 302.5 Q320 316 342 337 Q364 358 364 391 Q364 420 344.5 434.5 Q325 449 296 449 Z M462 710 Q454 687 440.5 666 Q427 645 408.5 628.5 Q390 612 366 602 Q342 592 313 592 Q286 592 266.5 601.5 Q247 611 234.5 627.5 Q222 644 216 665 Q210 686 210 709 L269 724 Q270 699 282 679 Q294 659 323 659 Q355 659 376 678 Q397 697 409 722 L462 710 L462 710 Z " />
<glyph glyph-name="Edotaccent" unicode="&#x116;" horiz-adv-x="563" d="M348 817 Q348 848 370.5 871.5 Q393 895 431 895 Q458 895 474 878.5 Q490 862 490 839 Q490 807 466.5 784.5 Q443 762 405 762 Q378 762 363 778 Q348 794 348 817 Z M267 602 L225 405 L488 405 L467 309 L204 309 L158 98 L484 98 L463 0 L13 0 L162 700 L603 700 L582 602 L267 602 Z " />
<glyph glyph-name="edotaccent" unicode="&#x117;" horiz-adv-x="495" d="M225 -10 Q183 -10 146 1.5 Q109 13 82 37.5 Q55 62 39 100.5 Q23 139 23 193 Q23 274 46.5 338.5 Q70 403 110 447 Q150 491 201.5 514.5 Q253 538 309 538 Q381 538 427.5 504.5 Q474 471 474 407 Q474 367 458 336.5 Q442 306 416 283 Q390 260 356 243.5 Q322 227 285.5 216 Q249 205 212.5 198.5 Q176 192 145 189 Q147 139 175.5 114 Q204 89 255 89 Q289 89 318 102 Q347 115 376 136 L420 72 Q406 58 387.5 43.5 Q369 29 345 17 Q321 5 291 -2.5 Q261 -10 225 -10 Z M296 449 Q273 449 250 438.5 Q227 428 207 406.5 Q187 385 171.5 351 Q156 317 149 271 Q180 275 217.5 282 Q255 289 287.5 302.5 Q320 316 342 337 Q364 358 364 391 Q364 420 344.5 434.5 Q325 449 296 449 Z M266 649 Q266 680 289 703.5 Q312 727 350 727 Q377 727 392.5 710.5 Q408 694 408 671 Q408 640 384.5 617 Q361 594 323 594 Q297 594 281.5 610 Q266 626 266 649 Z " />
<glyph glyph-name="Eogonek" unicode="&#x118;" horiz-adv-x="562" d="M266 602 L224 405 L487 405 L466 309 L203 309 L157 98 L483 98 L462 0 L437 0 Q410 0 387 -7.5 Q364 -15 347 -27 Q330 -39 320.5 -54 Q311 -69 311 -85 Q311 -105 323 -112.5 Q335 -120 355 -120 Q372 -120 392 -113 Q412 -106 420 -100 L434 -151 Q415 -163 385 -171.5 Q355 -180 324 -180 Q279 -180 253 -162.5 Q227 -145 227 -108 Q227 -71 252 -44 Q277 -17 315 0 L12 0 L161 700 L602 700 L581 602 L266 602 Z " />
<glyph glyph-name="eogonek" unicode="&#x119;" horiz-adv-x="495" d="M234 -180 Q189 -180 163 -162.5 Q137 -145 137 -108 Q137 -79 153.5 -53.5 Q170 -28 197 -8 Q160 -5 128 8.5 Q96 22 73 46.5 Q50 71 36.5 107.5 Q23 144 23 193 Q23 274 46.5 338.5 Q70 403 110 447 Q150 491 201.5 514.5 Q253 538 309 538 Q381 538 427.5 504 Q474 470 474 407 Q474 367 458 336.5 Q442 306 416 283 Q390 260 356 244 Q322 228 285.5 217 Q249 206 212.5 199 Q176 192 145 189 Q147 139 175.5 114 Q204 89 255 89 Q289 89 318 102 Q347 115 376 136 L420 72 Q401 52 372.5 34 Q344 16 304 1 Q262 -15 241.5 -38.5 Q221 -62 221 -85 Q221 -105 233 -112.5 Q245 -120 265 -120 Q282 -120 302 -113 Q322 -106 330 -100 L344 -151 Q325 -163 295 -171.5 Q265 -180 234 -180 Z M296 450 Q273 450 250 439.5 Q227 429 207 407 Q187 385 171.5 351 Q156 317 149 271 Q180 275 217.5 282 Q255 289 287.5 302.5 Q320 316 342 337 Q364 358 364 391 Q364 421 344.5 435.5 Q325 450 296 450 Z " />
<glyph glyph-name="Ecaron" unicode="&#x11a;" horiz-adv-x="563" d="M267 602 L225 405 L488 405 L467 309 L204 309 L158 98 L484 98 L463 0 L13 0 L162 700 L603 700 L582 602 L267 602 Z M386 752 L288 896 L321 926 L335 926 L421 844 L541 926 L563 926 L584 896 L426 752 L386 752 Z " />
<glyph glyph-name="ecaron" unicode="&#x11b;" horiz-adv-x="495" d="M305 579 L208 724 L241 753 L255 753 L340 672 L461 753 L482 753 L503 724 L345 579 L305 579 Z M225 -10 Q183 -10 146 1.5 Q109 13 82 37.5 Q55 62 39 100.5 Q23 139 23 193 Q23 274 46.5 338.5 Q70 403 110 447 Q150 491 201.5 514.5 Q253 538 309 538 Q381 538 427.5 504.5 Q474 471 474 407 Q474 367 458 336.5 Q442 306 416 283 Q390 260 356 243.5 Q322 227 285.5 216 Q249 205 212.5 198.5 Q176 192 145 189 Q147 139 175.5 114 Q204 89 255 89 Q289 89 318 102 Q347 115 376 136 L420 72 Q406 58 387.5 43.5 Q369 29 345 17 Q321 5 291 -2.5 Q261 -10 225 -10 Z M296 449 Q273 449 250 438.5 Q227 428 207 406.5 Q187 385 171.5 351 Q156 317 149 271 Q180 275 217.5 282 Q255 289 287.5 302.5 Q320 316 342 337 Q364 358 364 391 Q364 420 344.5 434.5 Q325 449 296 449 Z " />
<glyph glyph-name="Gcircumflex" unicode="&#x11c;" horiz-adv-x="604" d="M476 834 L355 752 L334 752 L313 782 L471 926 L511 926 L608 782 L576 752 L562 752 L476 834 Z M493 24 Q462 11 418.5 0.5 Q375 -10 312 -10 Q247 -10 197.5 8.5 Q148 27 114 60.5 Q80 94 63 141 Q46 188 46 245 Q46 354 75 440 Q104 526 156.5 586 Q209 646 283 678 Q357 710 447 710 Q504 710 546.5 702 Q589 694 615 685 L592 584 Q514 611 445 611 Q384 611 334.5 589.5 Q285 568 250 523.5 Q215 479 196 412 Q177 345 177 255 Q177 179 217.5 133.5 Q258 88 338 88 Q357 88 371 90 Q385 92 398 97 L450 343 L560 343 L493 24 L493 24 Z " />
<glyph glyph-name="gcircumflex" unicode="&#x11d;" horiz-adv-x="535" d="M323 657 L202 575 L181 575 L160 605 L318 749 L358 749 L455 605 L422 575 L408 575 L323 657 Z M168 352 Q168 312 191 292 Q214 272 252 272 Q299 272 329 303 Q359 334 359 385 Q359 425 337 444.5 Q315 464 274 464 Q229 464 198.5 433.5 Q168 403 168 352 Z M465 6 Q465 -42 442.5 -77 Q420 -112 381 -135 Q342 -158 289 -169 Q236 -180 175 -180 Q129 -180 91 -174.5 Q53 -169 25.5 -156 Q-2 -143 -17 -122.5 Q-32 -102 -32 -72 Q-32 -47 -23.5 -28 Q-15 -9 -2.5 5 Q10 19 25.5 29 Q41 39 56 45 Q19 70 19 117 Q19 153 41 182.5 Q63 212 114 234 Q88 252 73 280.5 Q58 309 58 349 Q58 394 76 429.5 Q94 465 125 489 Q156 513 195.5 525.5 Q235 538 279 538 Q300 538 320 535.5 Q340 533 358 528 L546 528 L529 440 L468 440 L462 435 Q469 416 469 396 Q469 348 450.5 311 Q432 274 401 249.5 Q370 225 329.5 212 Q289 199 245 199 Q208 199 180 206 Q157 198 141.5 186 Q126 174 126 158 Q126 129 177 129 L311 129 Q380 129 422.5 98.5 Q465 68 465 6 Z M192 -101 Q225 -101 254.5 -95.5 Q284 -90 305.5 -79.5 Q327 -69 339.5 -53.5 Q352 -38 352 -17 Q352 6 333 15 Q314 24 269 24 L138 24 L122 24 Q106 15 89.5 -3 Q73 -21 73 -48 Q73 -72 99.5 -86.5 Q126 -101 192 -101 Z " />
<glyph glyph-name="Gbreve" unicode="&#x11e;" horiz-adv-x="604" d="M493 24 Q462 11 418.5 0.5 Q375 -10 312 -10 Q247 -10 197.5 8.5 Q148 27 114 60.5 Q80 94 63 141 Q46 188 46 245 Q46 354 75 440 Q104 526 156.5 586 Q209 646 283 678 Q357 710 447 710 Q504 710 546.5 702 Q589 694 615 685 L592 584 Q514 611 445 611 Q384 611 334.5 589.5 Q285 568 250 523.5 Q215 479 196 412 Q177 345 177 255 Q177 179 217.5 133.5 Q258 88 338 88 Q357 88 371 90 Q385 92 398 97 L450 343 L560 343 L493 24 L493 24 Z M609 878 Q601 856 587.5 835.5 Q574 815 555.5 799.5 Q537 784 513 774.5 Q489 765 460 765 Q433 765 413 774.5 Q393 784 380.5 799.5 Q368 815 362 835.5 Q356 856 356 878 L416 894 Q417 869 429 850 Q441 831 470 831 Q502 831 522.5 849.5 Q543 868 554 891 L609 878 L609 878 Z " />
<glyph glyph-name="gbreve" unicode="&#x11f;" horiz-adv-x="535" d="M168 352 Q168 312 191 292 Q214 272 252 272 Q299 272 329 303 Q359 334 359 385 Q359 425 337 444.5 Q315 464 274 464 Q229 464 198.5 433.5 Q168 403 168 352 Z M465 6 Q465 -42 442.5 -77 Q420 -112 381 -135 Q342 -158 289 -169 Q236 -180 175 -180 Q129 -180 91 -174.5 Q53 -169 25.5 -156 Q-2 -143 -17 -122.5 Q-32 -102 -32 -72 Q-32 -47 -23.5 -28 Q-15 -9 -2.5 5 Q10 19 25.5 29 Q41 39 56 45 Q19 70 19 117 Q19 153 41 182.5 Q63 212 114 234 Q88 252 73 280.5 Q58 309 58 349 Q58 394 76 429.5 Q94 465 125 489 Q156 513 195.5 525.5 Q235 538 279 538 Q300 538 320 535.5 Q340 533 358 528 L546 528 L529 440 L468 440 L462 435 Q469 416 469 396 Q469 348 450.5 311 Q432 274 401 249.5 Q370 225 329.5 212 Q289 199 245 199 Q208 199 180 206 Q157 198 141.5 186 Q126 174 126 158 Q126 129 177 129 L311 129 Q380 129 422.5 98.5 Q465 68 465 6 Z M192 -101 Q225 -101 254.5 -95.5 Q284 -90 305.5 -79.5 Q327 -69 339.5 -53.5 Q352 -38 352 -17 Q352 6 333 15 Q314 24 269 24 L138 24 L122 24 Q106 15 89.5 -3 Q73 -21 73 -48 Q73 -72 99.5 -86.5 Q126 -101 192 -101 Z M459 710 Q451 687 437.5 666 Q424 645 405.5 628.5 Q387 612 363 602 Q339 592 310 592 Q283 592 263.5 601.5 Q244 611 231.5 627.5 Q219 644 213 665 Q207 686 207 709 L266 724 Q267 699 279 679 Q291 659 320 659 Q352 659 373 678 Q394 697 406 722 L459 710 L459 710 Z " />
<glyph glyph-name="Gdotaccent" unicode="&#x120;" horiz-adv-x="604" d="M407 817 Q407 848 429.5 871.5 Q452 895 490 895 Q517 895 533 878.5 Q549 862 549 839 Q549 807 525.5 784.5 Q502 762 464 762 Q437 762 422 778 Q407 794 407 817 Z M493 24 Q462 11 418.5 0.5 Q375 -10 312 -10 Q247 -10 197.5 8.5 Q148 27 114 60.5 Q80 94 63 141 Q46 188 46 245 Q46 354 75 440 Q104 526 156.5 586 Q209 646 283 678 Q357 710 447 710 Q504 710 546.5 702 Q589 694 615 685 L592 584 Q514 611 445 611 Q384 611 334.5 589.5 Q285 568 250 523.5 Q215 479 196 412 Q177 345 177 255 Q177 179 217.5 133.5 Q258 88 338 88 Q357 88 371 90 Q385 92 398 97 L450 343 L560 343 L493 24 L493 24 Z " />
<glyph glyph-name="gdotaccent" unicode="&#x121;" horiz-adv-x="535" d="M168 352 Q168 312 191 292 Q214 272 252 272 Q299 272 329 303 Q359 334 359 385 Q359 425 337 444.5 Q315 464 274 464 Q229 464 198.5 433.5 Q168 403 168 352 Z M465 6 Q465 -42 442.5 -77 Q420 -112 381 -135 Q342 -158 289 -169 Q236 -180 175 -180 Q129 -180 91 -174.5 Q53 -169 25.5 -156 Q-2 -143 -17 -122.5 Q-32 -102 -32 -72 Q-32 -47 -23.5 -28 Q-15 -9 -2.5 5 Q10 19 25.5 29 Q41 39 56 45 Q19 70 19 117 Q19 153 41 182.5 Q63 212 114 234 Q88 252 73 280.5 Q58 309 58 349 Q58 394 76 429.5 Q94 465 125 489 Q156 513 195.5 525.5 Q235 538 279 538 Q300 538 320 535.5 Q340 533 358 528 L546 528 L529 440 L468 440 L462 435 Q469 416 469 396 Q469 348 450.5 311 Q432 274 401 249.5 Q370 225 329.5 212 Q289 199 245 199 Q208 199 180 206 Q157 198 141.5 186 Q126 174 126 158 Q126 129 177 129 L311 129 Q380 129 422.5 98.5 Q465 68 465 6 Z M192 -101 Q225 -101 254.5 -95.5 Q284 -90 305.5 -79.5 Q327 -69 339.5 -53.5 Q352 -38 352 -17 Q352 6 333 15 Q314 24 269 24 L138 24 L122 24 Q106 15 89.5 -3 Q73 -21 73 -48 Q73 -72 99.5 -86.5 Q126 -101 192 -101 Z M253 649 Q253 680 276 703.5 Q299 727 337 727 Q364 727 379.5 710.5 Q395 694 395 671 Q395 640 371.5 617 Q348 594 310 594 Q284 594 268.5 610 Q253 626 253 649 Z " />
<glyph glyph-name="uni0122" unicode="&#x122;" horiz-adv-x="604" d="M210 -253 L249 -199 L246 -181 Q226 -168 226 -141 Q226 -115 245 -94.5 Q264 -74 297 -74 Q321 -74 335.5 -87.5 Q350 -101 350 -123 Q350 -138 344 -151 Q338 -164 329 -176 L250 -279 L210 -253 Z M493 24 Q462 11 418.5 0.5 Q375 -10 312 -10 Q247 -10 197.5 8.5 Q148 27 114 60.5 Q80 94 63 141 Q46 188 46 245 Q46 354 75 440 Q104 526 156.5 586 Q209 646 283 678 Q357 710 447 710 Q504 710 546.5 702 Q589 694 615 685 L592 584 Q514 611 445 611 Q384 611 334.5 589.5 Q285 568 250 523.5 Q215 479 196 412 Q177 345 177 255 Q177 179 217.5 133.5 Q258 88 338 88 Q357 88 371 90 Q385 92 398 97 L450 343 L560 343 L493 24 L493 24 Z " />
<glyph glyph-name="uni0123" unicode="&#x123;" horiz-adv-x="535" d="M304 594 Q279 594 264.5 608 Q250 622 250 643 Q250 659 256 671.5 Q262 684 271 696 L350 799 L390 774 L351 719 L354 701 Q364 695 369 684.5 Q374 674 374 662 Q374 636 355 615 Q336 594 304 594 Z M168 352 Q168 312 191 292 Q214 272 252 272 Q299 272 329 303 Q359 334 359 385 Q359 425 337 444.5 Q315 464 274 464 Q229 464 198.5 433.5 Q168 403 168 352 Z M465 6 Q465 -42 442.5 -77 Q420 -112 381 -135 Q342 -158 289 -169 Q236 -180 175 -180 Q129 -180 91 -174.5 Q53 -169 25.5 -156 Q-2 -143 -17 -122.5 Q-32 -102 -32 -72 Q-32 -47 -23.5 -28 Q-15 -9 -2.5 5 Q10 19 25.5 29 Q41 39 56 45 Q19 70 19 117 Q19 153 41 182.5 Q63 212 114 234 Q88 252 73 280.5 Q58 309 58 349 Q58 394 76 429.5 Q94 465 125 489 Q156 513 195.5 525.5 Q235 538 279 538 Q300 538 320 535.5 Q340 533 358 528 L546 528 L529 440 L468 440 L462 435 Q469 416 469 396 Q469 348 450.5 311 Q432 274 401 249.5 Q370 225 329.5 212 Q289 199 245 199 Q208 199 180 206 Q157 198 141.5 186 Q126 174 126 158 Q126 129 177 129 L311 129 Q380 129 422.5 98.5 Q465 68 465 6 Z M192 -101 Q225 -101 254.5 -95.5 Q284 -90 305.5 -79.5 Q327 -69 339.5 -53.5 Q352 -38 352 -17 Q352 6 333 15 Q314 24 269 24 L138 24 L122 24 Q106 15 89.5 -3 Q73 -21 73 -48 Q73 -72 99.5 -86.5 Q126 -101 192 -101 Z " />
<glyph glyph-name="Hcircumflex" unicode="&#x124;" horiz-adv-x="658" d="M456 309 L203 309 L138 0 L14 0 L162 700 L286 700 L224 406 L477 406 L539 700 L664 700 L517 0 L393 0 L456 309 Z M442 834 L321 752 L300 752 L279 782 L437 926 L477 926 L574 782 L542 752 L528 752 L442 834 Z " />
<glyph glyph-name="hcircumflex" unicode="&#x125;" horiz-adv-x="553" d="M242 854 L121 772 L100 772 L79 802 L237 946 L277 946 L374 802 L341 772 L327 772 L242 854 Z M329 434 Q308 434 287.5 424 Q267 414 248.5 399.5 Q230 385 214.5 368.5 Q199 352 189 339 L117 0 L0 0 L155 730 L272 730 L213 452 Q227 468 244.5 483.5 Q262 499 282 511 Q302 523 325.5 530.5 Q349 538 376 538 Q440 538 475.5 502 Q511 466 511 407 Q511 396 510 385 Q509 374 506 361 L429 0 L311 0 L385 344 Q388 360 388 375 Q388 403 374 418.5 Q360 434 329 434 Z " />
<glyph glyph-name="Hbar" unicode="&#x126;" horiz-adv-x="670" d="M72 570 L140 570 L168 700 L292 700 L265 570 L518 570 L545 700 L670 700 L642 570 L714 570 L700 505 L628 505 L523 0 L399 0 L462 309 L209 309 L144 0 L20 0 L126 505 L59 505 L72 570 Z M483 406 L504 505 L251 505 L230 406 L483 406 Z " />
<glyph glyph-name="hbar" unicode="&#x127;" horiz-adv-x="554" d="M68 643 L137 643 L155 730 L273 730 L254 643 L378 643 L365 579 L240 579 L214 452 Q228 468 245.5 483.5 Q263 499 283 511 Q303 523 326.5 530.5 Q350 538 376 538 Q441 538 476.5 502 Q512 466 512 407 Q512 396 510.5 385 Q509 374 507 361 L429 0 L312 0 L385 344 Q389 359 389 375 Q389 403 375 418.5 Q361 434 330 434 Q309 434 288.5 424 Q268 414 249.5 399.5 Q231 385 215.5 368.5 Q200 352 190 339 L118 0 L0 0 L123 579 L55 579 L68 643 Z " />
<glyph glyph-name="Itilde" unicode="&#x128;" horiz-adv-x="279" d="M162 700 L286 700 L138 0 L14 0 L162 700 Z M419 897 L410 856 Q400 811 378 789 Q356 767 314 767 Q296 767 277.5 774 Q259 781 242.5 789.5 Q226 798 211 805 Q196 812 184 812 Q167 812 159 805 Q151 798 149 793 L141 757 L76 757 L84 796 Q95 847 117 869 Q139 891 179 891 Q196 891 214 883.5 Q232 876 249 866.5 Q266 857 282.5 849.5 Q299 842 313 842 Q333 842 340 851 Q347 860 349 865 L355 897 L419 897 Z " />
<glyph glyph-name="itilde" unicode="&#x129;" horiz-adv-x="246" d="M112 528 L230 528 L118 0 L0 0 L112 528 Z M365 724 L356 683 Q346 638 324 616 Q302 594 260 594 Q242 594 224 601 Q206 608 189.5 616.5 Q173 625 158 632 Q143 639 131 639 Q114 639 106 633 Q98 627 96 620 L87 584 L23 584 L31 622 Q42 673 64 695.5 Q86 718 125 718 Q142 718 160 710.5 Q178 703 195 693.5 Q212 684 228.5 676.5 Q245 669 260 669 Q279 669 286.5 676.5 Q294 684 295 692 L302 724 L365 724 Z " />
<glyph glyph-name="Imacron" unicode="&#x12a;" horiz-adv-x="279" d="M162 700 L286 700 L138 0 L14 0 L162 700 Z M131 865 L384 865 L369 795 L116 795 L131 865 Z " />
<glyph glyph-name="imacron" unicode="&#x12b;" horiz-adv-x="246" d="M112 528 L230 528 L118 0 L0 0 L112 528 Z M77 697 L330 697 L315 627 L62 627 L77 697 Z " />
<glyph glyph-name="Iogonek" unicode="&#x12e;" horiz-adv-x="279" d="M122 -151 Q103 -163 73.5 -171.5 Q44 -180 13 -180 Q-32 -180 -58.5 -162.5 Q-85 -145 -85 -108 Q-85 -69 -56 -41 Q-27 -13 15 4 L162 700 L286 700 L138 0 L125 0 Q98 0 75 -7.5 Q52 -15 35.5 -27 Q19 -39 9.5 -54 Q0 -69 0 -85 Q0 -105 11.5 -112.5 Q23 -120 43 -120 Q60 -120 80 -113 Q100 -106 109 -100 L122 -151 L122 -151 Z " />
<glyph glyph-name="iogonek" unicode="&#x12f;" horiz-adv-x="246" d="M108 -151 Q90 -163 60 -171.5 Q30 -180 -1 -180 Q-46 -180 -72.5 -162.5 Q-99 -145 -99 -108 Q-99 -69 -70 -40.5 Q-41 -12 1 5 L112 528 L230 528 L118 0 L110 0 Q84 0 61.5 -7.5 Q39 -15 22 -27 Q5 -39 -4.5 -54 Q-14 -69 -14 -85 Q-14 -105 -2 -112.5 Q10 -120 30 -120 Q47 -120 67 -113 Q87 -106 95 -100 L108 -151 Z M125 657 Q125 693 145 715 Q165 737 207 737 Q236 737 251 722.5 Q266 708 266 685 Q266 650 246 627.5 Q226 605 184 605 Q155 605 140 620 Q125 635 125 657 Z " />
<glyph glyph-name="Idotaccent" unicode="&#x130;" horiz-adv-x="279" d="M162 700 L286 700 L138 0 L14 0 L162 700 Z M180 817 Q180 848 202.5 871.5 Q225 895 263 895 Q290 895 306 878.5 Q322 862 322 839 Q322 807 298.5 784.5 Q275 762 237 762 Q210 762 195 778 Q180 794 180 817 Z " />
<glyph glyph-name="dotlessi" unicode="&#x131;" horiz-adv-x="246" d="M112 528 L230 528 L118 0 L0 0 L112 528 Z " />
<glyph glyph-name="IJ" unicode="&#x132;" horiz-adv-x="585" d="M473 700 L597 700 L495 217 Q471 102 398 46 Q325 -10 204 -10 Q141 -10 96 4 Q51 18 22 35 L42 128 Q64 117 87.5 110 Q111 103 132 98.5 Q153 94 170.5 92 Q188 90 200 90 Q268 90 312.5 121.5 Q357 153 372 225 L473 700 Z M158 700 L282 700 L181 220 L56 220 L158 700 Z " />
<glyph glyph-name="ij" unicode="&#x133;" horiz-adv-x="531" d="M110 528 L228 528 L116 0 L-2 0 L110 528 Z M123 657 Q123 693 143 715 Q163 737 205 737 Q234 737 249 722.5 Q264 708 264 685 Q264 650 244 627.5 Q224 605 182 605 Q153 605 138 620 Q123 635 123 657 Z M409 658 Q409 694 428.5 716 Q448 738 490 738 Q519 738 534 723 Q549 708 549 685 Q549 650 529.5 628 Q510 606 468 606 Q439 606 424 621 Q409 636 409 658 Z M398 528 L516 528 L404 5 Q395 -37 379.5 -71 Q364 -105 339 -129.5 Q314 -154 277.5 -167 Q241 -180 190 -180 Q157 -180 138.5 -175.5 Q120 -171 118 -171 L135 -88 Q138 -88 148 -88 Q158 -88 169 -88.5 Q180 -89 189.5 -89 Q199 -89 203 -89 Q235 -89 255.5 -65 Q276 -41 284 -2 L398 528 Z " />
<glyph glyph-name="Jcircumflex" unicode="&#x134;" horiz-adv-x="444" d="M332 700 L457 700 L349 193 Q329 97 268 43.5 Q207 -10 104 -10 Q51 -10 17 -0.5 Q-17 9 -40 21 L-20 114 Q-4 106 13 101.5 Q30 97 46 94.5 Q62 92 74.5 91 Q87 90 95 90 Q152 90 183.5 118.5 Q215 147 226 201 L332 700 Z M424 834 L303 752 L282 752 L261 782 L419 926 L459 926 L556 782 L524 752 L510 752 L424 834 Z " />
<glyph glyph-name="jcircumflex" unicode="&#x135;" horiz-adv-x="246" d="M200 657 L79 575 L58 575 L37 605 L195 749 L235 749 L332 605 L299 575 L285 575 L200 657 Z M113 528 L231 528 L119 5 Q110 -37 94.5 -71 Q79 -105 54 -129.5 Q29 -154 -7.5 -167 Q-44 -180 -95 -180 Q-128 -180 -146.5 -175.5 Q-165 -171 -167 -171 L-150 -88 Q-148 -88 -137.5 -88.5 Q-127 -89 -114.5 -89 Q-102 -89 -92 -89 Q-82 -89 -82 -89 Q-50 -89 -29.5 -65 Q-9 -41 -1 -2 L113 528 Z " />
<glyph glyph-name="uni0136" unicode="&#x136;" horiz-adv-x="623" d="M159 -253 L198 -199 L195 -181 Q175 -168 175 -141 Q175 -115 194 -94.5 Q213 -74 246 -74 Q270 -74 284.5 -87.5 Q299 -101 299 -123 Q299 -138 293 -151 Q287 -164 278 -176 L199 -279 L159 -253 Z M162 700 L286 700 L225 406 L302 406 L554 700 L690 700 L402 367 L556 0 L414 0 L291 309 L204 309 L138 0 L14 0 L162 700 Z " />
<glyph glyph-name="uni0137" unicode="&#x137;" horiz-adv-x="546" d="M128 -253 L167 -199 L164 -181 Q144 -168 144 -141 Q144 -115 163 -94.5 Q182 -74 215 -74 Q239 -74 253.5 -87.5 Q268 -101 268 -123 Q268 -138 262 -151 Q256 -164 247 -176 L168 -279 L128 -253 Z M117 0 L0 0 L155 730 L272 730 L187 329 L244 329 L448 528 L587 528 L345 299 L473 0 L346 0 L246 240 L168 240 L117 0 Z " />
<glyph glyph-name="kgreenlandic" unicode="&#x138;" horiz-adv-x="547" d="M169 240 L118 0 L1 0 L112 528 L230 528 L188 329 L246 329 L450 528 L587 528 L346 299 L474 0 L338 0 L238 240 L169 240 Z " />
<glyph glyph-name="Lacute" unicode="&#x139;" horiz-adv-x="531" d="M238 752 L213 788 L361 924 L385 924 L425 856 L256 752 L238 752 Z M159 97 L477 97 L457 0 L14 0 L162 700 L287 700 L159 97 Z " />
<glyph glyph-name="lacute" unicode="&#x13a;" horiz-adv-x="247" d="M367 953 L408 886 L239 781 L220 781 L195 817 L344 953 L367 953 Z M156 730 L274 730 L119 0 L2 0 L156 730 Z " />
<glyph glyph-name="uni013B" unicode="&#x13b;" horiz-adv-x="531" d="M135 -253 L174 -199 L171 -181 Q151 -168 151 -141 Q151 -115 170 -94.5 Q189 -74 222 -74 Q246 -74 260.5 -87.5 Q275 -101 275 -123 Q275 -138 269 -151 Q263 -164 254 -176 L175 -279 L135 -253 Z M159 97 L477 97 L457 0 L14 0 L162 700 L287 700 L159 97 Z " />
<glyph glyph-name="uni013C" unicode="&#x13c;" horiz-adv-x="247" d="M-44 -253 L-5 -199 L-8 -181 Q-28 -168 -28 -141 Q-28 -115 -9 -94.5 Q10 -74 43 -74 Q67 -74 81.5 -87.5 Q96 -101 96 -123 Q96 -138 90 -151 Q84 -164 75 -176 L-4 -279 L-44 -253 Z M156 730 L274 730 L119 0 L2 0 L156 730 Z " />
<glyph glyph-name="Lcaron" unicode="&#x13d;" horiz-adv-x="532" d="M438 582 L480 780 L566 780 L551 708 L509 582 L438 582 Z M157 97 L475 97 L455 0 L12 0 L160 700 L285 700 L157 97 Z " />
<glyph glyph-name="lcaron" unicode="&#x13e;" horiz-adv-x="276" d="M315 582 L357 780 L443 780 L428 708 L386 582 L315 582 Z M156 730 L274 730 L119 0 L2 0 L156 730 Z " />
<glyph glyph-name="Ldot" unicode="&#x13f;" horiz-adv-x="552" d="M367 364 Q367 394 389.5 418 Q412 442 450 442 Q477 442 493 425 Q509 408 509 385 Q509 354 485.5 331 Q462 308 424 308 Q397 308 382 324.5 Q367 341 367 364 Z M159 97 L477 97 L457 0 L14 0 L162 700 L287 700 L159 97 Z " />
<glyph glyph-name="ldot" unicode="&#x140;" horiz-adv-x="408" d="M268 356 Q268 386 290.5 410 Q313 434 351 434 Q378 434 394 417 Q410 400 410 377 Q410 346 386.5 323 Q363 300 325 300 Q298 300 283 316.5 Q268 333 268 356 Z M156 730 L274 730 L119 0 L2 0 L156 730 Z " />
<glyph glyph-name="Lslash" unicode="&#x141;" horiz-adv-x="540" d="M234 412 L383 483 L367 404 L218 332 L168 97 L486 97 L466 0 L23 0 L79 269 L1 231 L17 310 L96 348 L171 700 L296 700 L234 412 Z " />
<glyph glyph-name="lslash" unicode="&#x142;" horiz-adv-x="317" d="M19 309 L111 359 L190 730 L308 730 L243 426 L340 478 L323 401 L227 350 L153 0 L36 0 L96 283 L2 233 L19 309 Z " />
<glyph glyph-name="Nacute" unicode="&#x143;" horiz-adv-x="661" d="M417 752 L392 788 L540 924 L564 924 L604 856 L435 752 L417 752 Z M431 -3 L224 491 L121 0 L11 0 L160 700 L269 700 L461 237 L559 700 L669 700 L520 -3 L431 -3 Z " />
<glyph glyph-name="nacute" unicode="&#x144;" horiz-adv-x="555" d="M490 751 L531 684 L362 579 L343 579 L318 615 L467 751 L490 751 Z M331 434 Q310 434 289.5 424 Q269 414 250.5 399.5 Q232 385 216.5 368.5 Q201 352 191 339 L117 0 L1 0 L112 528 L187 528 Q212 528 216.5 517 Q221 506 218 492 L209 451 L214 451 Q228 467 245.5 482.5 Q263 498 283 510.5 Q303 523 326.5 530.5 Q350 538 377 538 Q442 538 477 502 Q512 466 513 408 Q513 397 511.5 385.5 Q510 374 508 361 L430 0 L313 0 L386 344 Q390 359 390 376 Q390 403 376 418.5 Q362 434 331 434 Z " />
<glyph glyph-name="uni0145" unicode="&#x145;" horiz-adv-x="661" d="M172 -253 L211 -199 L208 -181 Q188 -168 188 -141 Q188 -115 207 -94.5 Q226 -74 259 -74 Q283 -74 297.5 -87.5 Q312 -101 312 -123 Q312 -138 306 -151 Q300 -164 291 -176 L212 -279 L172 -253 Z M431 -3 L224 491 L121 0 L11 0 L160 700 L269 700 L461 237 L559 700 L669 700 L520 -3 L431 -3 Z " />
<glyph glyph-name="uni0146" unicode="&#x146;" horiz-adv-x="555" d="M120 -253 L159 -199 L156 -181 Q136 -168 136 -141 Q136 -115 155 -94.5 Q174 -74 207 -74 Q231 -74 245.5 -87.5 Q260 -101 260 -123 Q260 -138 254 -151 Q248 -164 239 -176 L160 -279 L120 -253 Z M331 434 Q310 434 289.5 424 Q269 414 250.5 399.5 Q232 385 216.5 368.5 Q201 352 191 339 L117 0 L1 0 L112 528 L187 528 Q212 528 216.5 517 Q221 506 218 492 L209 451 L214 451 Q228 467 245.5 482.5 Q263 498 283 510.5 Q303 523 326.5 530.5 Q350 538 377 538 Q442 538 477 502 Q512 466 513 408 Q513 397 511.5 385.5 Q510 374 508 361 L430 0 L313 0 L386 344 Q390 359 390 376 Q390 403 376 418.5 Q362 434 331 434 Z " />
<glyph glyph-name="Ncaron" unicode="&#x147;" horiz-adv-x="661" d="M431 -3 L224 491 L121 0 L11 0 L160 700 L269 700 L461 237 L559 700 L669 700 L520 -3 L431 -3 Z M405 752 L307 896 L340 926 L354 926 L440 844 L560 926 L582 926 L603 896 L445 752 L405 752 Z " />
<glyph glyph-name="ncaron" unicode="&#x148;" horiz-adv-x="555" d="M330 579 L233 724 L266 753 L280 753 L365 672 L486 753 L507 753 L528 724 L370 579 L330 579 Z M331 434 Q310 434 289.5 424 Q269 414 250.5 399.5 Q232 385 216.5 368.5 Q201 352 191 339 L117 0 L1 0 L112 528 L187 528 Q212 528 216.5 517 Q221 506 218 492 L209 451 L214 451 Q228 467 245.5 482.5 Q263 498 283 510.5 Q303 523 326.5 530.5 Q350 538 377 538 Q442 538 477 502 Q512 466 513 408 Q513 397 511.5 385.5 Q510 374 508 361 L430 0 L313 0 L386 344 Q390 359 390 376 Q390 403 376 418.5 Q362 434 331 434 Z " />
<glyph glyph-name="napostrophe" unicode="&#x149;" horiz-adv-x="555" d="M89 604 L128 658 L125 676 Q105 689 105 716 Q105 742 124 762.5 Q143 783 176 783 Q200 783 214.5 769.5 Q229 756 229 734 Q229 719 223 706 Q217 693 208 681 L129 578 L89 604 Z M331 434 Q310 434 289.5 424 Q269 414 250.5 399.5 Q232 385 216.5 368.5 Q201 352 191 339 L117 0 L1 0 L112 528 L187 528 Q212 528 216.5 517 Q221 506 218 492 L209 451 L214 451 Q228 467 245.5 482.5 Q263 498 283 510.5 Q303 523 326.5 530.5 Q350 538 377 538 Q442 538 477 502 Q512 466 513 408 Q513 397 511.5 385.5 Q510 374 508 361 L430 0 L313 0 L386 344 Q390 359 390 376 Q390 403 376 418.5 Q362 434 331 434 Z " />
<glyph glyph-name="Omacron" unicode="&#x14c;" horiz-adv-x="677" d="M405 710 Q468 710 515 690.5 Q562 671 592.5 636.5 Q623 602 638 555.5 Q653 509 653 454 Q653 377 631.5 295 Q610 213 566 145 Q522 77 454.5 33.5 Q387 -10 294 -10 Q231 -10 184 9.5 Q137 29 106 63 Q75 97 59.5 143.5 Q44 190 44 244 Q44 295 53.5 349.5 Q63 404 82 456 Q101 508 130.5 554 Q160 600 200 634.5 Q240 669 291.5 689.5 Q343 710 405 710 Z M398 610 Q358 610 326 591 Q294 572 269.5 540 Q245 508 227.5 467.5 Q210 427 198.5 384 Q187 341 181.5 299 Q176 257 176 222 Q176 158 205 124 Q234 90 300 90 Q339 90 371 109 Q403 128 427.5 159 Q452 190 470 230 Q488 270 499.5 313 Q511 356 516.5 398 Q522 440 522 475 Q522 541 493.5 575.5 Q465 610 398 610 Z M335 865 L588 865 L573 795 L320 795 L335 865 Z " />
<glyph glyph-name="omacron" unicode="&#x14d;" horiz-adv-x="546" d="M227 697 L480 697 L465 627 L212 627 L227 697 Z M25 201 Q25 284 49 347 Q73 410 112 452.5 Q151 495 201 516.5 Q251 538 304 538 Q347 538 384 525.5 Q421 513 448.5 487.5 Q476 462 491.5 423.5 Q507 385 507 333 Q507 249 483 184.5 Q459 120 420 77 Q381 34 330.5 12 Q280 -10 228 -10 Q186 -10 149 3 Q112 16 84.5 42 Q57 68 41 107.5 Q25 147 25 201 Z M146 197 Q146 82 233 82 Q270 82 298.5 105.5 Q327 129 346.5 166.5 Q366 204 376 250.5 Q386 297 386 342 Q386 392 364.5 419 Q343 446 298 446 Q261 446 232.5 422.5 Q204 399 185 363 Q166 327 156 283 Q146 239 146 197 Z " />
<glyph glyph-name="Obreve" unicode="&#x14e;" horiz-adv-x="677" d="M405 710 Q468 710 515 690.5 Q562 671 592.5 636.5 Q623 602 638 555.5 Q653 509 653 454 Q653 377 631.5 295 Q610 213 566 145 Q522 77 454.5 33.5 Q387 -10 294 -10 Q231 -10 184 9.5 Q137 29 106 63 Q75 97 59.5 143.5 Q44 190 44 244 Q44 295 53.5 349.5 Q63 404 82 456 Q101 508 130.5 554 Q160 600 200 634.5 Q240 669 291.5 689.5 Q343 710 405 710 Z M398 610 Q358 610 326 591 Q294 572 269.5 540 Q245 508 227.5 467.5 Q210 427 198.5 384 Q187 341 181.5 299 Q176 257 176 222 Q176 158 205 124 Q234 90 300 90 Q339 90 371 109 Q403 128 427.5 159 Q452 190 470 230 Q488 270 499.5 313 Q511 356 516.5 398 Q522 440 522 475 Q522 541 493.5 575.5 Q465 610 398 610 Z M584 878 Q576 856 562.5 835.5 Q549 815 530.5 799.5 Q512 784 488 774.5 Q464 765 435 765 Q408 765 388 774.5 Q368 784 355.5 799.5 Q343 815 337 835.5 Q331 856 331 878 L391 894 Q392 869 404 850 Q416 831 445 831 Q477 831 497.5 849.5 Q518 868 529 891 L584 878 L584 878 Z " />
<glyph glyph-name="obreve" unicode="&#x14f;" horiz-adv-x="546" d="M25 201 Q25 284 49 347 Q73 410 112 452.5 Q151 495 201 516.5 Q251 538 304 538 Q347 538 384 525.5 Q421 513 448.5 487.5 Q476 462 491.5 423.5 Q507 385 507 333 Q507 249 483 184.5 Q459 120 420 77 Q381 34 330.5 12 Q280 -10 228 -10 Q186 -10 149 3 Q112 16 84.5 42 Q57 68 41 107.5 Q25 147 25 201 Z M146 197 Q146 82 233 82 Q270 82 298.5 105.5 Q327 129 346.5 166.5 Q366 204 376 250.5 Q386 297 386 342 Q386 392 364.5 419 Q343 446 298 446 Q261 446 232.5 422.5 Q204 399 185 363 Q166 327 156 283 Q146 239 146 197 Z M483 710 Q475 687 461.5 666 Q448 645 429.5 628.5 Q411 612 387 602 Q363 592 334 592 Q307 592 287.5 601.5 Q268 611 255.5 627.5 Q243 644 237 665 Q231 686 231 709 L290 724 Q291 699 303 679 Q315 659 344 659 Q376 659 397 678 Q418 697 430 722 L483 710 L483 710 Z " />
<glyph glyph-name="Ohungarumlaut" unicode="&#x150;" horiz-adv-x="677" d="M356 752 L333 783 L473 924 L496 924 L533 878 L373 752 L356 752 Z M483 752 L464 781 L608 905 L631 905 L671 852 L500 752 L483 752 Z M405 710 Q468 710 515 690.5 Q562 671 592.5 636.5 Q623 602 638 555.5 Q653 509 653 454 Q653 377 631.5 295 Q610 213 566 145 Q522 77 454.5 33.5 Q387 -10 294 -10 Q231 -10 184 9.5 Q137 29 106 63 Q75 97 59.5 143.5 Q44 190 44 244 Q44 295 53.5 349.5 Q63 404 82 456 Q101 508 130.5 554 Q160 600 200 634.5 Q240 669 291.5 689.5 Q343 710 405 710 Z M398 610 Q358 610 326 591 Q294 572 269.5 540 Q245 508 227.5 467.5 Q210 427 198.5 384 Q187 341 181.5 299 Q176 257 176 222 Q176 158 205 124 Q234 90 300 90 Q339 90 371 109 Q403 128 427.5 159 Q452 190 470 230 Q488 270 499.5 313 Q511 356 516.5 398 Q522 440 522 475 Q522 541 493.5 575.5 Q465 610 398 610 Z " />
<glyph glyph-name="ohungarumlaut" unicode="&#x151;" horiz-adv-x="546" d="M252 579 L228 611 L367 751 L390 751 L428 705 L269 579 L252 579 Z M378 579 L359 609 L503 732 L526 732 L565 680 L395 579 L378 579 Z M25 201 Q25 284 49 347 Q73 410 112 452.5 Q151 495 201 516.5 Q251 538 304 538 Q347 538 384 525.5 Q421 513 448.5 487.5 Q476 462 491.5 423.5 Q507 385 507 333 Q507 249 483 184.5 Q459 120 420 77 Q381 34 330.5 12 Q280 -10 228 -10 Q186 -10 149 3 Q112 16 84.5 42 Q57 68 41 107.5 Q25 147 25 201 Z M146 197 Q146 82 233 82 Q270 82 298.5 105.5 Q327 129 346.5 166.5 Q366 204 376 250.5 Q386 297 386 342 Q386 392 364.5 419 Q343 446 298 446 Q261 446 232.5 422.5 Q204 399 185 363 Q166 327 156 283 Q146 239 146 197 Z " />
<glyph glyph-name="OE" unicode="&#x152;" horiz-adv-x="948" d="M312 90 Q343 90 370 93 Q397 96 420 104 L524 595 Q486 611 418 611 Q357 611 311.5 577.5 Q266 544 236 490.5 Q206 437 191 369.5 Q176 302 176 234 Q176 90 312 90 Z M412 0 Q385 -5 355.5 -7.5 Q326 -10 294 -10 Q232 -10 185.5 8.5 Q139 27 107.5 60 Q76 93 60 139.5 Q44 186 44 243 Q44 328 67.5 411.5 Q91 495 138.5 561.5 Q186 628 257 669 Q328 710 423 710 Q461 710 495 707.5 Q529 705 558 700 L987 700 L966 602 L651 602 L610 405 L872 405 L852 309 L588 309 L543 98 L868 98 L847 0 L412 0 Z " />
<glyph glyph-name="oe" unicode="&#x153;" horiz-adv-x="853" d="M583 -10 Q525 -10 478 12.5 Q431 35 406 85 Q370 37 323.5 13.5 Q277 -10 228 -10 Q185 -10 148 2.5 Q111 15 83.5 41.5 Q56 68 40.5 107.5 Q25 147 25 201 Q25 284 49 347 Q73 410 112 452.5 Q151 495 201 516.5 Q251 538 304 538 Q358 538 399.5 513 Q441 488 461 437 Q501 486 554.5 512 Q608 538 667 538 Q739 538 785.5 504 Q832 470 832 407 Q832 367 816 336.5 Q800 306 774 283 Q748 260 714 244 Q680 228 643.5 217 Q607 206 570.5 199 Q534 192 503 189 L503 187 Q505 137 534 113 Q563 89 613 89 Q647 89 676 102 Q705 115 735 136 L778 72 Q764 58 745.5 43.5 Q727 29 703 17 Q679 5 649 -2.5 Q619 -10 583 -10 Z M654 450 Q631 450 608 439.5 Q585 429 565 407 Q545 385 529.5 351 Q514 317 507 271 Q538 275 575.5 282 Q613 289 645.5 302 Q678 315 700 336.5 Q722 358 722 391 Q722 421 702.5 435.5 Q683 450 654 450 Z M146 197 Q146 136 166.5 107.5 Q187 79 233 79 Q270 79 298.5 103 Q327 127 346.5 164.5 Q366 202 376 249 Q386 296 386 342 Q386 395 365.5 421.5 Q345 448 298 448 Q261 448 232.5 424.5 Q204 401 185 364.5 Q166 328 156 283.5 Q146 239 146 197 Z " />
<glyph glyph-name="Racute" unicode="&#x154;" horiz-adv-x="618" d="M269 607 L219 376 L316 376 Q391 376 433.5 412.5 Q476 449 476 520 Q476 562 450.5 584.5 Q425 607 366 607 L269 607 Z M14 0 L162 700 L388 700 Q491 700 548.5 659.5 Q606 619 606 536 Q606 486 589 449 Q572 412 545 386.5 Q518 361 484 347 Q450 333 416 330 L416 326 Q454 319 469.5 294 Q485 269 493 220 L525 0 L387 0 L362 217 Q360 239 356 252 Q352 265 346 272 Q340 279 331 281 Q322 283 310 283 L201 283 L138 0 L14 0 Z M384 752 L359 788 L507 924 L531 924 L571 856 L402 752 L384 752 Z " />
<glyph glyph-name="racute" unicode="&#x155;" horiz-adv-x="383" d="M416 751 L457 684 L288 579 L269 579 L244 615 L393 751 L416 751 Z M337 424 Q299 424 259.5 397 Q220 370 189 328 L117 0 L0 0 L112 528 L187 528 Q211 528 215.5 517 Q220 506 217 492 L207 442 L212 442 Q225 459 241.5 476.5 Q258 494 279.5 507.5 Q301 521 327 529.5 Q353 538 385 538 Q397 538 406 537 Q415 536 420 535 L395 417 L388 417 Q378 420 364.5 422 Q351 424 337 424 Z " />
<glyph glyph-name="uni0156" unicode="&#x156;" horiz-adv-x="618" d="M160 -253 L199 -199 L196 -181 Q176 -168 176 -141 Q176 -115 195 -94.5 Q214 -74 247 -74 Q271 -74 285.5 -87.5 Q300 -101 300 -123 Q300 -138 294 -151 Q288 -164 279 -176 L200 -279 L160 -253 Z M269 607 L219 376 L316 376 Q391 376 433.5 412.5 Q476 449 476 520 Q476 562 450.5 584.5 Q425 607 366 607 L269 607 Z M14 0 L162 700 L388 700 Q491 700 548.5 659.5 Q606 619 606 536 Q606 486 589 449 Q572 412 545 386.5 Q518 361 484 347 Q450 333 416 330 L416 326 Q454 319 469.5 294 Q485 269 493 220 L525 0 L387 0 L362 217 Q360 239 356 252 Q352 265 346 272 Q340 279 331 281 Q322 283 310 283 L201 283 L138 0 L14 0 Z " />
<glyph glyph-name="uni0157" unicode="&#x157;" horiz-adv-x="383" d="M-44 -253 L-5 -199 L-8 -181 Q-28 -168 -28 -141 Q-28 -115 -9 -94.5 Q10 -74 43 -74 Q67 -74 81.5 -87.5 Q96 -101 96 -123 Q96 -138 90 -151 Q84 -164 75 -176 L-4 -279 L-44 -253 Z M337 424 Q299 424 259.5 397 Q220 370 189 328 L117 0 L0 0 L112 528 L187 528 Q211 528 215.5 517 Q220 506 217 492 L207 442 L212 442 Q225 459 241.5 476.5 Q258 494 279.5 507.5 Q301 521 327 529.5 Q353 538 385 538 Q397 538 406 537 Q415 536 420 535 L395 417 L388 417 Q378 420 364.5 422 Q351 424 337 424 Z " />
<glyph glyph-name="Rcaron" unicode="&#x158;" horiz-adv-x="618" d="M269 607 L219 376 L316 376 Q391 376 433.5 412.5 Q476 449 476 520 Q476 562 450.5 584.5 Q425 607 366 607 L269 607 Z M14 0 L162 700 L388 700 Q491 700 548.5 659.5 Q606 619 606 536 Q606 486 589 449 Q572 412 545 386.5 Q518 361 484 347 Q450 333 416 330 L416 326 Q454 319 469.5 294 Q485 269 493 220 L525 0 L387 0 L362 217 Q360 239 356 252 Q352 265 346 272 Q340 279 331 281 Q322 283 310 283 L201 283 L138 0 L14 0 Z M373 752 L275 896 L308 926 L322 926 L408 844 L528 926 L550 926 L571 896 L413 752 L373 752 Z " />
<glyph glyph-name="rcaron" unicode="&#x159;" horiz-adv-x="383" d="M256 579 L159 724 L192 753 L206 753 L291 672 L412 753 L433 753 L454 724 L296 579 L256 579 Z M337 424 Q299 424 259.5 397 Q220 370 189 328 L117 0 L0 0 L112 528 L187 528 Q211 528 215.5 517 Q220 506 217 492 L207 442 L212 442 Q225 459 241.5 476.5 Q258 494 279.5 507.5 Q301 521 327 529.5 Q353 538 385 538 Q397 538 406 537 Q415 536 420 535 L395 417 L388 417 Q378 420 364.5 422 Q351 424 337 424 Z " />
<glyph glyph-name="Sacute" unicode="&#x15a;" horiz-adv-x="540" d="M488 219 Q488 165 467.5 122.5 Q447 80 409.5 50.5 Q372 21 318.5 5.5 Q265 -10 199 -10 Q160 -10 127 -5.5 Q94 -1 68.5 6 Q43 13 26 19.5 Q9 26 2 31 L23 130 Q78 107 121.5 98 Q165 89 202 89 Q286 89 323 119 Q360 149 360 193 Q360 228 334.5 249.5 Q309 271 249 298 Q213 314 183 332.5 Q153 351 131.5 374.5 Q110 398 97.5 427 Q85 456 85 494 Q85 547 105.5 587.5 Q126 628 163 655 Q200 682 250 696 Q300 710 360 710 Q430 710 475.5 698.5 Q521 687 537 680 L516 579 Q471 594 431.5 603 Q392 612 352 612 Q283 612 244.5 588 Q206 564 206 519 Q206 501 211 487 Q216 473 229 460 Q242 447 264.5 434 Q287 421 322 405 Q362 387 393 368 Q424 349 445 327 Q466 305 477 278.5 Q488 252 488 219 Z M361 752 L336 788 L484 924 L508 924 L548 856 L379 752 L361 752 Z " />
<glyph glyph-name="sacute" unicode="&#x15b;" horiz-adv-x="445" d="M427 751 L468 684 L299 579 L280 579 L255 615 L404 751 L427 751 Z M385 169 Q385 126 367.5 93 Q350 60 318.5 37 Q287 14 244.5 2 Q202 -10 153 -10 Q119 -10 90.5 -5 Q62 0 40 6.5 Q18 13 4.5 19.5 Q-9 26 -13 28 L6 122 Q54 100 91.5 92.5 Q129 85 153 85 Q210 85 237 105 Q264 125 264 153 Q264 179 244.5 194.5 Q225 210 176 227 Q108 250 80.5 286 Q53 322 53 370 Q53 406 68 436.5 Q83 467 112.5 489.5 Q142 512 184.5 525 Q227 538 282 538 Q314 538 341.5 533.5 Q369 529 389 524 Q413 518 432 510 L411 420 Q374 434 336.5 440.5 Q299 447 279 447 Q231 447 200.5 431 Q170 415 170 385 Q170 362 186.5 348.5 Q203 335 247 319 Q312 296 348.5 261.5 Q385 227 385 169 Z " />
<glyph glyph-name="Scircumflex" unicode="&#x15c;" horiz-adv-x="540" d="M488 219 Q488 165 467.5 122.5 Q447 80 409.5 50.5 Q372 21 318.5 5.5 Q265 -10 199 -10 Q160 -10 127 -5.5 Q94 -1 68.5 6 Q43 13 26 19.5 Q9 26 2 31 L23 130 Q78 107 121.5 98 Q165 89 202 89 Q286 89 323 119 Q360 149 360 193 Q360 228 334.5 249.5 Q309 271 249 298 Q213 314 183 332.5 Q153 351 131.5 374.5 Q110 398 97.5 427 Q85 456 85 494 Q85 547 105.5 587.5 Q126 628 163 655 Q200 682 250 696 Q300 710 360 710 Q430 710 475.5 698.5 Q521 687 537 680 L516 579 Q471 594 431.5 603 Q392 612 352 612 Q283 612 244.5 588 Q206 564 206 519 Q206 501 211 487 Q216 473 229 460 Q242 447 264.5 434 Q287 421 322 405 Q362 387 393 368 Q424 349 445 327 Q466 305 477 278.5 Q488 252 488 219 Z M388 834 L267 752 L246 752 L225 782 L383 926 L423 926 L520 782 L488 752 L474 752 L388 834 Z " />
<glyph glyph-name="scircumflex" unicode="&#x15d;" horiz-adv-x="445" d="M306 657 L185 575 L164 575 L143 605 L301 749 L341 749 L438 605 L405 575 L391 575 L306 657 Z M385 169 Q385 126 367.5 93 Q350 60 318.5 37 Q287 14 244.5 2 Q202 -10 153 -10 Q119 -10 90.5 -5 Q62 0 40 6.5 Q18 13 4.5 19.5 Q-9 26 -13 28 L6 122 Q54 100 91.5 92.5 Q129 85 153 85 Q210 85 237 105 Q264 125 264 153 Q264 179 244.5 194.5 Q225 210 176 227 Q108 250 80.5 286 Q53 322 53 370 Q53 406 68 436.5 Q83 467 112.5 489.5 Q142 512 184.5 525 Q227 538 282 538 Q314 538 341.5 533.5 Q369 529 389 524 Q413 518 432 510 L411 420 Q374 434 336.5 440.5 Q299 447 279 447 Q231 447 200.5 431 Q170 415 170 385 Q170 362 186.5 348.5 Q203 335 247 319 Q312 296 348.5 261.5 Q385 227 385 169 Z " />
<glyph glyph-name="Scedilla" unicode="&#x15e;" horiz-adv-x="540" d="M150 -180 Q119 -180 93.5 -172 Q68 -164 54 -153 L78 -115 Q86 -120 106.5 -127.5 Q127 -135 149 -135 Q168 -135 182.5 -128.5 Q197 -122 197 -104 Q197 -89 175.5 -80.5 Q154 -72 118 -68 L122 -48 L162 -8 Q98 -4 56.5 9.5 Q15 23 2 31 L23 130 Q78 107 121.5 98 Q165 89 202 89 Q286 89 323 119 Q360 149 360 193 Q360 228 334.5 249.5 Q309 271 249 298 Q213 314 183 332.5 Q153 351 131.5 374.5 Q110 398 97.5 427 Q85 456 85 494 Q85 547 105.5 587.5 Q126 628 163 655 Q200 682 250 696 Q300 710 360 710 Q430 710 475.5 698.5 Q521 687 537 680 L516 579 Q471 594 431.5 603 Q392 612 352 612 Q283 612 244.5 588 Q206 564 206 519 Q206 501 211 487 Q216 473 229 460 Q242 447 264.5 434 Q287 421 322 405 Q362 387 393 368 Q424 349 445 327 Q466 305 477 278.5 Q488 252 488 219 Q488 116 417.5 56.5 Q347 -3 225 -9 L198 -38 Q279 -44 279 -97 Q279 -120 267.5 -136 Q256 -152 237.5 -162 Q219 -172 196 -176 Q173 -180 150 -180 Z " />
<glyph glyph-name="scedilla" unicode="&#x15f;" horiz-adv-x="445" d="M103 -180 Q72 -180 46.5 -172 Q21 -164 7 -153 L31 -115 Q39 -120 59.5 -127.5 Q80 -135 102 -135 Q121 -135 135.5 -128.5 Q150 -122 150 -104 Q150 -89 128.5 -80.5 Q107 -72 71 -68 L75 -48 L115 -8 Q62 -3 28 10.5 Q-6 24 -13 28 L6 122 Q54 100 91.5 92.5 Q129 85 153 85 Q210 85 237 105 Q264 125 264 153 Q264 179 244.5 194.5 Q225 210 176 227 Q108 250 80.5 286 Q53 322 53 370 Q53 406 68 436.5 Q83 467 112.5 489.5 Q142 512 184.5 525 Q227 538 282 538 Q314 538 341.5 533.5 Q369 529 389 524 Q413 518 432 510 L411 420 Q374 434 336.5 440.5 Q299 447 279 447 Q231 447 200.5 431 Q170 415 170 385 Q170 362 186.5 348.5 Q203 335 247 319 Q312 296 348.5 261.5 Q385 227 385 169 Q385 129 369.5 97 Q354 65 326 42.5 Q298 20 260.5 7 Q223 -6 178 -9 L151 -38 Q232 -44 232 -97 Q232 -120 220.5 -136 Q209 -152 190.5 -162 Q172 -172 149 -176 Q126 -180 103 -180 Z " />
<glyph glyph-name="Scaron" unicode="&#x160;" horiz-adv-x="540" d="M488 219 Q488 165 467.5 122.5 Q447 80 409.5 50.5 Q372 21 318.5 5.5 Q265 -10 199 -10 Q160 -10 127 -5.5 Q94 -1 68.5 6 Q43 13 26 19.5 Q9 26 2 31 L23 130 Q78 107 121.5 98 Q165 89 202 89 Q286 89 323 119 Q360 149 360 193 Q360 228 334.5 249.5 Q309 271 249 298 Q213 314 183 332.5 Q153 351 131.5 374.5 Q110 398 97.5 427 Q85 456 85 494 Q85 547 105.5 587.5 Q126 628 163 655 Q200 682 250 696 Q300 710 360 710 Q430 710 475.5 698.5 Q521 687 537 680 L516 579 Q471 594 431.5 603 Q392 612 352 612 Q283 612 244.5 588 Q206 564 206 519 Q206 501 211 487 Q216 473 229 460 Q242 447 264.5 434 Q287 421 322 405 Q362 387 393 368 Q424 349 445 327 Q466 305 477 278.5 Q488 252 488 219 Z M353 752 L255 896 L288 926 L302 926 L388 844 L508 926 L530 926 L551 896 L393 752 L353 752 Z " />
<glyph glyph-name="scaron" unicode="&#x161;" horiz-adv-x="445" d="M273 579 L176 724 L209 753 L223 753 L308 672 L429 753 L450 753 L471 724 L313 579 L273 579 Z M385 169 Q385 126 367.5 93 Q350 60 318.5 37 Q287 14 244.5 2 Q202 -10 153 -10 Q119 -10 90.5 -5 Q62 0 40 6.5 Q18 13 4.5 19.5 Q-9 26 -13 28 L6 122 Q54 100 91.5 92.5 Q129 85 153 85 Q210 85 237 105 Q264 125 264 153 Q264 179 244.5 194.5 Q225 210 176 227 Q108 250 80.5 286 Q53 322 53 370 Q53 406 68 436.5 Q83 467 112.5 489.5 Q142 512 184.5 525 Q227 538 282 538 Q314 538 341.5 533.5 Q369 529 389 524 Q413 518 432 510 L411 420 Q374 434 336.5 440.5 Q299 447 279 447 Q231 447 200.5 431 Q170 415 170 385 Q170 362 186.5 348.5 Q203 335 247 319 Q312 296 348.5 261.5 Q385 227 385 169 Z " />
<glyph glyph-name="uni0162" unicode="&#x162;" horiz-adv-x="559" d="M163 -180 Q132 -180 106.5 -172 Q81 -164 67 -153 L91 -115 Q99 -120 119.5 -127.5 Q140 -135 162 -135 Q181 -135 195.5 -128.5 Q210 -122 210 -104 Q210 -89 188.5 -80.5 Q167 -72 131 -68 L135 -48 L184 0 L155 0 L282 602 L81 602 L102 700 L627 700 L606 602 L406 602 L279 0 L247 0 L211 -38 Q292 -44 292 -97 Q292 -120 280.5 -136 Q269 -152 250.5 -162 Q232 -172 209 -176 Q186 -180 163 -180 Z " />
<glyph glyph-name="uni0163" unicode="&#x163;" horiz-adv-x="350" d="M109 -180 Q78 -180 52.5 -172 Q27 -164 13 -153 L37 -115 Q45 -120 65.5 -127.5 Q86 -135 108 -135 Q127 -135 141.5 -128.5 Q156 -122 156 -104 Q156 -89 134.5 -80.5 Q113 -72 77 -68 L81 -48 L119 -10 Q70 -8 51 17 Q32 42 44 99 L117 440 L48 440 L66 526 L129 526 L206 670 L282 670 L252 526 L371 526 L352 440 L233 440 L159 82 L290 82 L271 0 Q269 0 243.5 -3 Q218 -6 186 -8 L157 -38 Q238 -44 238 -97 Q238 -120 226.5 -136 Q215 -152 196.5 -162 Q178 -172 155 -176 Q132 -180 109 -180 Z " />
<glyph glyph-name="Tcaron" unicode="&#x164;" horiz-adv-x="559" d="M627 700 L606 602 L406 602 L279 0 L155 0 L282 602 L81 602 L102 700 L627 700 Z M356 752 L258 896 L291 926 L305 926 L391 844 L511 926 L533 926 L554 896 L396 752 L356 752 Z " />
<glyph glyph-name="tcaron" unicode="&#x165;" horiz-adv-x="350" d="M340 582 L382 780 L468 780 L453 708 L411 582 L340 582 Z M129 -10 Q75 -10 54 15 Q33 40 45 99 L118 440 L49 440 L67 526 L130 526 L207 670 L283 670 L253 526 L372 526 L353 440 L234 440 L160 82 L291 82 L272 0 Q271 0 256 -2 Q241 -4 219.5 -5.5 Q198 -7 173.5 -8.5 Q149 -10 129 -10 Z " />
<glyph glyph-name="Tbar" unicode="&#x166;" horiz-adv-x="567" d="M630 700 L609 602 L409 602 L363 385 L473 385 L459 321 L350 321 L282 0 L158 0 L225 321 L116 321 L129 385 L239 385 L285 602 L84 602 L105 700 L630 700 Z " />
<glyph glyph-name="tbar" unicode="&#x167;" horiz-adv-x="351" d="M34 327 L94 327 L118 440 L49 440 L67 526 L130 526 L208 670 L284 670 L253 526 L372 526 L354 440 L235 440 L211 327 L327 327 L313 265 L198 265 L160 82 L291 82 L273 0 Q271 0 256 -2 Q241 -4 219.5 -5.5 Q198 -7 173.5 -8.5 Q149 -10 129 -10 Q75 -10 54 15 Q33 40 46 99 L81 265 L20 265 L34 327 Z " />
<glyph glyph-name="Utilde" unicode="&#x168;" horiz-adv-x="647" d="M542 700 L660 700 L561 232 Q547 167 521 121 Q495 75 458.5 46 Q422 17 375.5 3.5 Q329 -10 275 -10 Q169 -10 110 32.5 Q51 75 51 163 Q51 180 53.5 203.5 Q56 227 60 246 L156 700 L285 700 L189 248 Q185 230 183 214.5 Q181 199 181 185 Q181 143 208 117 Q235 91 292 91 Q358 91 394 130 Q430 169 446 248 L542 700 Z M613 897 L604 856 Q594 811 572 789 Q550 767 508 767 Q490 767 471.5 774 Q453 781 436.5 789.5 Q420 798 405 805 Q390 812 378 812 Q361 812 353 805 Q345 798 343 793 L335 757 L270 757 L278 796 Q289 847 311 869 Q333 891 373 891 Q390 891 408 883.5 Q426 876 443 866.5 Q460 857 476.5 849.5 Q493 842 507 842 Q527 842 534 851 Q541 860 543 865 L549 897 L613 897 Z " />
<glyph glyph-name="utilde" unicode="&#x169;" horiz-adv-x="546" d="M317 76 Q303 60 286 44.5 Q269 29 249 17 Q229 5 206 -2.5 Q183 -10 157 -10 Q94 -10 60 25.5 Q26 61 26 119 Q25 140 31 166 L108 528 L226 528 L152 183 Q149 166 149 152 Q149 124 162 108.5 Q175 93 203 93 Q223 93 243 103 Q263 113 281 127.5 Q299 142 314 158.5 Q329 175 339 188 L413 528 L530 528 L419 0 L344 0 Q319 0 314.5 11 Q310 22 313 35 L322 76 L317 76 Z M514 724 L505 683 Q495 638 473 616 Q451 594 409 594 Q391 594 373 601 Q355 608 338.5 616.5 Q322 625 307 632 Q292 639 280 639 Q263 639 255 633 Q247 627 245 620 L236 584 L172 584 L180 622 Q191 673 213 695.5 Q235 718 274 718 Q291 718 309 710.5 Q327 703 344 693.5 Q361 684 377.5 676.5 Q394 669 409 669 Q428 669 435.5 676.5 Q443 684 444 692 L451 724 L514 724 Z " />
<glyph glyph-name="Umacron" unicode="&#x16a;" horiz-adv-x="647" d="M542 700 L660 700 L561 232 Q547 167 521 121 Q495 75 458.5 46 Q422 17 375.5 3.5 Q329 -10 275 -10 Q169 -10 110 32.5 Q51 75 51 163 Q51 180 53.5 203.5 Q56 227 60 246 L156 700 L285 700 L189 248 Q185 230 183 214.5 Q181 199 181 185 Q181 143 208 117 Q235 91 292 91 Q358 91 394 130 Q430 169 446 248 L542 700 Z M326 865 L579 865 L564 795 L311 795 L326 865 Z " />
<glyph glyph-name="umacron" unicode="&#x16b;" horiz-adv-x="546" d="M317 76 Q303 60 286 44.5 Q269 29 249 17 Q229 5 206 -2.5 Q183 -10 157 -10 Q94 -10 60 25.5 Q26 61 26 119 Q25 140 31 166 L108 528 L226 528 L152 183 Q149 166 149 152 Q149 124 162 108.5 Q175 93 203 93 Q223 93 243 103 Q263 113 281 127.5 Q299 142 314 158.5 Q329 175 339 188 L413 528 L530 528 L419 0 L344 0 Q319 0 314.5 11 Q310 22 313 35 L322 76 L317 76 Z M227 697 L480 697 L465 627 L212 627 L227 697 Z " />
<glyph glyph-name="Ubreve" unicode="&#x16c;" horiz-adv-x="647" d="M542 700 L660 700 L561 232 Q547 167 521 121 Q495 75 458.5 46 Q422 17 375.5 3.5 Q329 -10 275 -10 Q169 -10 110 32.5 Q51 75 51 163 Q51 180 53.5 203.5 Q56 227 60 246 L156 700 L285 700 L189 248 Q185 230 183 214.5 Q181 199 181 185 Q181 143 208 117 Q235 91 292 91 Q358 91 394 130 Q430 169 446 248 L542 700 Z M580 878 Q572 856 558.5 835.5 Q545 815 526.5 799.5 Q508 784 484 774.5 Q460 765 431 765 Q404 765 384 774.5 Q364 784 351.5 799.5 Q339 815 333 835.5 Q327 856 327 878 L387 894 Q388 869 400 850 Q412 831 441 831 Q473 831 493.5 849.5 Q514 868 525 891 L580 878 L580 878 Z " />
<glyph glyph-name="ubreve" unicode="&#x16d;" horiz-adv-x="546" d="M317 76 Q303 60 286 44.5 Q269 29 249 17 Q229 5 206 -2.5 Q183 -10 157 -10 Q94 -10 60 25.5 Q26 61 26 119 Q25 140 31 166 L108 528 L226 528 L152 183 Q149 166 149 152 Q149 124 162 108.5 Q175 93 203 93 Q223 93 243 103 Q263 113 281 127.5 Q299 142 314 158.5 Q329 175 339 188 L413 528 L530 528 L419 0 L344 0 Q319 0 314.5 11 Q310 22 313 35 L322 76 L317 76 Z M483 710 Q475 687 461.5 666 Q448 645 429.5 628.5 Q411 612 387 602 Q363 592 334 592 Q307 592 287.5 601.5 Q268 611 255.5 627.5 Q243 644 237 665 Q231 686 231 709 L290 724 Q291 699 303 679 Q315 659 344 659 Q376 659 397 678 Q418 697 430 722 L483 710 L483 710 Z " />
<glyph glyph-name="Uring" unicode="&#x16e;" horiz-adv-x="647" d="M391 819 Q391 787 435 787 Q466 787 482.5 800.5 Q499 814 499 838 Q499 870 453 870 Q424 870 407.5 856.5 Q391 843 391 819 Z M459 914 Q506 914 534.5 894.5 Q563 875 563 838 Q563 813 552 795 Q541 777 523 765.5 Q505 754 481 748.5 Q457 743 430 743 Q385 743 356 761 Q327 779 327 814 Q327 840 337.5 859 Q348 878 366 890 Q384 902 408 908 Q432 914 459 914 Z M542 700 L660 700 L561 232 Q547 167 521 121 Q495 75 458.5 46 Q422 17 375.5 3.5 Q329 -10 275 -10 Q169 -10 110 32.5 Q51 75 51 163 Q51 180 53.5 203.5 Q56 227 60 246 L156 700 L285 700 L189 248 Q185 230 183 214.5 Q181 199 181 185 Q181 143 208 117 Q235 91 292 91 Q358 91 394 130 Q430 169 446 248 L542 700 Z " />
<glyph glyph-name="uring" unicode="&#x16f;" horiz-adv-x="546" d="M291 647 Q291 614 335 614 Q366 614 382.5 628 Q399 642 399 666 Q399 698 353 698 Q324 698 307.5 684 Q291 670 291 647 Z M359 742 Q406 742 434 722.5 Q462 703 462 666 Q462 641 451 623 Q440 605 422 593 Q404 581 380 575.5 Q356 570 330 570 Q285 570 256 588.5 Q227 607 227 642 Q227 668 237.5 687 Q248 706 266 718 Q284 730 308 736 Q332 742 359 742 Z M317 76 Q303 60 286 44.5 Q269 29 249 17 Q229 5 206 -2.5 Q183 -10 157 -10 Q94 -10 60 25.5 Q26 61 26 119 Q25 140 31 166 L108 528 L226 528 L152 183 Q149 166 149 152 Q149 124 162 108.5 Q175 93 203 93 Q223 93 243 103 Q263 113 281 127.5 Q299 142 314 158.5 Q329 175 339 188 L413 528 L530 528 L419 0 L344 0 Q319 0 314.5 11 Q310 22 313 35 L322 76 L317 76 Z " />
<glyph glyph-name="Uhungarumlaut" unicode="&#x170;" horiz-adv-x="647" d="M354 752 L331 783 L471 924 L494 924 L531 878 L371 752 L354 752 Z M481 752 L462 781 L606 905 L629 905 L669 852 L498 752 L481 752 Z M542 700 L660 700 L561 232 Q547 167 521 121 Q495 75 458.5 46 Q422 17 375.5 3.5 Q329 -10 275 -10 Q169 -10 110 32.5 Q51 75 51 163 Q51 180 53.5 203.5 Q56 227 60 246 L156 700 L285 700 L189 248 Q185 230 183 214.5 Q181 199 181 185 Q181 143 208 117 Q235 91 292 91 Q358 91 394 130 Q430 169 446 248 L542 700 Z " />
<glyph glyph-name="uhungarumlaut" unicode="&#x171;" horiz-adv-x="546" d="M317 76 Q303 60 286 44.5 Q269 29 249 17 Q229 5 206 -2.5 Q183 -10 157 -10 Q94 -10 60 25.5 Q26 61 26 119 Q25 140 31 166 L108 528 L226 528 L152 183 Q149 166 149 152 Q149 124 162 108.5 Q175 93 203 93 Q223 93 243 103 Q263 113 281 127.5 Q299 142 314 158.5 Q329 175 339 188 L413 528 L530 528 L419 0 L344 0 Q319 0 314.5 11 Q310 22 313 35 L322 76 L317 76 Z M252 579 L228 611 L367 751 L390 751 L428 705 L269 579 L252 579 Z M378 579 L359 609 L503 732 L526 732 L565 680 L395 579 L378 579 Z " />
<glyph glyph-name="Uogonek" unicode="&#x172;" horiz-adv-x="647" d="M542 700 L660 700 L561 232 Q538 124 483 68.5 Q428 13 343 -4 Q300 -12 273 -34 Q246 -56 246 -85 Q246 -105 257.5 -112.5 Q269 -120 289 -120 Q306 -120 326 -113 Q346 -106 355 -100 L368 -151 Q349 -163 319.5 -171.5 Q290 -180 259 -180 Q214 -180 187.5 -162.5 Q161 -145 161 -108 Q161 -76 180 -51 Q199 -26 230 -8 Q145 0 98 42.5 Q51 85 51 163 Q51 180 53.5 203.5 Q56 227 60 246 L156 700 L285 700 L189 248 Q185 230 183 214.5 Q181 199 181 185 Q181 143 208 117 Q235 91 292 91 Q358 91 394 130 Q430 169 446 248 L542 700 Z " />
<glyph glyph-name="uogonek" unicode="&#x173;" horiz-adv-x="546" d="M317 76 Q303 60 286 44.5 Q269 29 249 17 Q229 5 206 -2.5 Q183 -10 157 -10 Q94 -10 60 25.5 Q26 61 26 119 Q25 140 31 166 L108 528 L226 528 L152 183 Q149 166 149 152 Q149 124 162 108.5 Q175 93 203 93 Q223 93 243 103 Q263 113 281 127.5 Q299 142 314 158.5 Q329 175 339 188 L413 528 L530 528 L419 0 L417 0 Q395 0 373.5 -7 Q352 -14 334.5 -25.5 Q317 -37 306.5 -52.5 Q296 -68 296 -85 Q296 -105 308 -112.5 Q320 -120 340 -120 Q357 -120 377 -113 Q397 -106 405 -100 L419 -151 Q400 -163 370 -171.5 Q340 -180 309 -180 Q264 -180 238 -162.5 Q212 -145 212 -108 Q212 -67 242.5 -38 Q273 -9 318 8 Q312 13 311.5 20 Q311 27 313 35 L322 76 L317 76 Z " />
<glyph glyph-name="Wcircumflex" unicode="&#x174;" horiz-adv-x="932" d="M580 834 L459 752 L438 752 L417 782 L575 926 L615 926 L712 782 L680 752 L666 752 L580 834 Z M504 484 L272 -2 L145 -2 L101 700 L232 700 L252 178 L490 700 L618 700 L637 178 L875 700 L997 700 L658 -2 L531 -2 L504 484 Z " />
<glyph glyph-name="wcircumflex" unicode="&#x175;" horiz-adv-x="775" d="M464 657 L343 575 L322 575 L301 605 L459 749 L499 749 L596 605 L563 575 L549 575 L464 657 Z M394 335 L232 -2 L120 -2 L63 528 L185 528 L209 158 L390 528 L484 528 L507 155 L689 528 L805 528 L529 -2 L415 -2 L394 335 Z " />
<glyph glyph-name="Ycircumflex" unicode="&#x176;" horiz-adv-x="608" d="M183 0 L241 271 L90 700 L219 700 L325 394 L541 700 L671 700 L368 283 L308 0 L183 0 Z M422 834 L301 752 L280 752 L259 782 L417 926 L457 926 L554 782 L522 752 L508 752 L422 834 Z " />
<glyph glyph-name="ycircumflex" unicode="&#x177;" horiz-adv-x="518" d="M55 -170 L146 -3 L58 528 L184 528 L232 155 L434 528 L552 528 L159 -170 L55 -170 Z M341 657 L220 575 L199 575 L178 605 L336 749 L376 749 L473 605 L440 575 L426 575 L341 657 Z " />
<glyph glyph-name="Ydieresis" unicode="&#x178;" horiz-adv-x="608" d="M183 0 L241 271 L90 700 L219 700 L325 394 L541 700 L671 700 L368 283 L308 0 L183 0 Z M288 828 Q288 852 306.5 871 Q325 890 356 890 Q377 890 390 876.5 Q403 863 403 845 Q403 819 383.5 801 Q364 783 334 783 Q312 783 300 796 Q288 809 288 828 Z M440 828 Q440 852 458.5 871 Q477 890 508 890 Q529 890 542 876.5 Q555 863 555 845 Q555 819 535.5 801 Q516 783 486 783 Q464 783 452 796 Q440 809 440 828 Z " />
<glyph glyph-name="Zacute" unicode="&#x179;" horiz-adv-x="570" d="M-32 0 L-17 68 L428 603 L108 603 L129 700 L608 700 L594 631 L152 98 L498 98 L477 0 L-32 0 Z M368 752 L343 788 L491 924 L515 924 L555 856 L386 752 L368 752 Z " />
<glyph glyph-name="zacute" unicode="&#x17a;" horiz-adv-x="491" d="M442 751 L483 684 L314 579 L295 579 L270 615 L419 751 L442 751 Z M-32 0 L-21 53 L316 434 L64 434 L84 528 L498 528 L487 474 L151 94 L417 94 L398 0 L-32 0 Z " />
<glyph glyph-name="Zdotaccent" unicode="&#x17b;" horiz-adv-x="570" d="M322 817 Q322 848 344.5 871.5 Q367 895 405 895 Q432 895 448 878.5 Q464 862 464 839 Q464 807 440.5 784.5 Q417 762 379 762 Q352 762 337 778 Q322 794 322 817 Z M-32 0 L-17 68 L428 603 L108 603 L129 700 L608 700 L594 631 L152 98 L498 98 L477 0 L-32 0 Z " />
<glyph glyph-name="zdotaccent" unicode="&#x17c;" horiz-adv-x="491" d="M-32 0 L-21 53 L316 434 L64 434 L84 528 L498 528 L487 474 L151 94 L417 94 L398 0 L-32 0 Z M247 649 Q247 680 270 703.5 Q293 727 331 727 Q358 727 373.5 710.5 Q389 694 389 671 Q389 640 365.5 617 Q342 594 304 594 Q278 594 262.5 610 Q247 626 247 649 Z " />
<glyph glyph-name="Zcaron" unicode="&#x17d;" horiz-adv-x="570" d="M-32 0 L-17 68 L428 603 L108 603 L129 700 L608 700 L594 631 L152 98 L498 98 L477 0 L-32 0 Z M358 752 L260 896 L293 926 L307 926 L393 844 L513 926 L535 926 L556 896 L398 752 L358 752 Z " />
<glyph glyph-name="zcaron" unicode="&#x17e;" horiz-adv-x="491" d="M285 579 L188 724 L221 753 L235 753 L320 672 L441 753 L462 753 L483 724 L325 579 L285 579 Z M-32 0 L-21 53 L316 434 L64 434 L84 528 L498 528 L487 474 L151 94 L417 94 L398 0 L-32 0 Z " />
<glyph glyph-name="longs" unicode="&#x17f;" horiz-adv-x="304" d="M147 0 Q129 -84 79 -132 Q29 -180 -65 -180 Q-95 -180 -114 -177 Q-133 -174 -139 -172 L-123 -91 Q-119 -92 -110 -92.5 Q-101 -93 -91.5 -93.5 Q-82 -94 -73.5 -94.5 Q-65 -95 -62 -95 Q-22 -95 -2.5 -74.5 Q17 -54 28 -7 L123 440 L51 440 L69 526 L141 526 L147 560 Q162 645 213.5 692.5 Q265 740 363 740 Q391 740 412.5 737.5 Q434 735 445 733 L428 648 Q425 649 414.5 649.5 Q404 650 392.5 650.5 Q381 651 371 651 Q361 651 359 651 Q316 651 296 631 Q276 611 266 564 L147 0 L147 0 Z " />
<glyph glyph-name="florin" unicode="&#x192;" horiz-adv-x="374" d="M136 -1 Q123 -42 105 -75.5 Q87 -109 61.5 -132.5 Q36 -156 1 -168.5 Q-34 -181 -82 -181 Q-108 -181 -128 -179 Q-148 -177 -157 -175 L-142 -93 Q-139 -94 -129 -94.5 Q-119 -95 -108.5 -95 Q-98 -95 -89.5 -95 Q-81 -95 -79 -95 Q-38 -95 -18 -75.5 Q2 -56 17 -9 L135 369 L37 369 L55 452 L162 452 L197 561 Q210 603 227.5 636.5 Q245 670 270.5 693.5 Q296 717 331 729.5 Q366 742 414 742 Q440 742 460.5 739.5 Q481 737 489 735 L474 654 Q471 655 461.5 655.5 Q452 656 441.5 656 Q431 656 422 656 Q413 656 412 656 Q371 656 350.5 636 Q330 616 316 569 L280 452 L392 452 L374 369 L252 369 L136 -1 L136 -1 Z " />
<glyph glyph-name="uni0218" unicode="&#x218;" horiz-adv-x="540" d="M94 -253 L133 -199 L130 -181 Q110 -168 110 -141 Q110 -115 129 -94.5 Q148 -74 181 -74 Q205 -74 219.5 -87.5 Q234 -101 234 -123 Q234 -138 228 -151 Q222 -164 213 -176 L134 -279 L94 -253 Z M488 219 Q488 165 467.5 122.5 Q447 80 409.5 50.5 Q372 21 318.5 5.5 Q265 -10 199 -10 Q160 -10 127 -5.5 Q94 -1 68.5 6 Q43 13 26 19.5 Q9 26 2 31 L23 130 Q78 107 121.5 98 Q165 89 202 89 Q286 89 323 119 Q360 149 360 193 Q360 228 334.5 249.5 Q309 271 249 298 Q213 314 183 332.5 Q153 351 131.5 374.5 Q110 398 97.5 427 Q85 456 85 494 Q85 547 105.5 587.5 Q126 628 163 655 Q200 682 250 696 Q300 710 360 710 Q430 710 475.5 698.5 Q521 687 537 680 L516 579 Q471 594 431.5 603 Q392 612 352 612 Q283 612 244.5 588 Q206 564 206 519 Q206 501 211 487 Q216 473 229 460 Q242 447 264.5 434 Q287 421 322 405 Q362 387 393 368 Q424 349 445 327 Q466 305 477 278.5 Q488 252 488 219 Z " />
<glyph glyph-name="uni0219" unicode="&#x219;" horiz-adv-x="445" d="M46 -253 L85 -199 L82 -181 Q62 -168 62 -141 Q62 -115 81 -94.5 Q100 -74 133 -74 Q157 -74 171.5 -87.5 Q186 -101 186 -123 Q186 -138 180 -151 Q174 -164 165 -176 L86 -279 L46 -253 Z M385 169 Q385 126 367.5 93 Q350 60 318.5 37 Q287 14 244.5 2 Q202 -10 153 -10 Q119 -10 90.5 -5 Q62 0 40 6.5 Q18 13 4.5 19.5 Q-9 26 -13 28 L6 122 Q54 100 91.5 92.5 Q129 85 153 85 Q210 85 237 105 Q264 125 264 153 Q264 179 244.5 194.5 Q225 210 176 227 Q108 250 80.5 286 Q53 322 53 370 Q53 406 68 436.5 Q83 467 112.5 489.5 Q142 512 184.5 525 Q227 538 282 538 Q314 538 341.5 533.5 Q369 529 389 524 Q413 518 432 510 L411 420 Q374 434 336.5 440.5 Q299 447 279 447 Q231 447 200.5 431 Q170 415 170 385 Q170 362 186.5 348.5 Q203 335 247 319 Q312 296 348.5 261.5 Q385 227 385 169 Z " />
<glyph glyph-name="uni021A" unicode="&#x21a;" horiz-adv-x="559" d="M107 -253 L146 -199 L143 -181 Q123 -168 123 -141 Q123 -115 142 -94.5 Q161 -74 194 -74 Q218 -74 232.5 -87.5 Q247 -101 247 -123 Q247 -138 241 -151 Q235 -164 226 -176 L147 -279 L107 -253 Z M627 700 L606 602 L406 602 L279 0 L155 0 L282 602 L81 602 L102 700 L627 700 Z " />
<glyph glyph-name="uni021B" unicode="&#x21b;" horiz-adv-x="350" d="M53 -253 L92 -199 L89 -181 Q69 -168 69 -141 Q69 -115 88 -94.5 Q107 -74 140 -74 Q164 -74 178.5 -87.5 Q193 -101 193 -123 Q193 -138 187 -151 Q181 -164 172 -176 L93 -279 L53 -253 Z M129 -10 Q75 -10 54 15 Q33 40 45 99 L118 440 L49 440 L67 526 L130 526 L207 670 L283 670 L253 526 L372 526 L353 440 L234 440 L160 82 L291 82 L272 0 Q271 0 256 -2 Q241 -4 219.5 -5.5 Q198 -7 173.5 -8.5 Q149 -10 129 -10 Z " />
<glyph glyph-name="uni0237" unicode="&#x237;" horiz-adv-x="246" d="M113 528 L231 528 L119 5 Q110 -37 94.5 -71 Q79 -105 54 -129.5 Q29 -154 -7.5 -167 Q-44 -180 -95 -180 Q-128 -180 -146.5 -175.5 Q-165 -171 -167 -171 L-150 -88 Q-148 -88 -137.5 -88.5 Q-127 -89 -114.5 -89 Q-102 -89 -92 -89 Q-82 -89 -82 -89 Q-50 -89 -29.5 -65 Q-9 -41 -1 -2 L113 528 Z " />
<glyph glyph-name="circumflex" unicode="&#x2c6;" horiz-adv-x="392" d="M293 657 L172 575 L151 575 L130 605 L288 749 L328 749 L425 605 L392 575 L378 575 L293 657 Z " />
<glyph glyph-name="caron" unicode="&#x2c7;" horiz-adv-x="392" d="M226 579 L129 724 L162 753 L176 753 L261 672 L382 753 L403 753 L424 724 L266 579 L226 579 Z " />
<glyph glyph-name="uni02C9" unicode="&#x2c9;" horiz-adv-x="388" d="M150 697 L403 697 L388 627 L135 627 L150 697 Z " />
<glyph glyph-name="breve" unicode="&#x2d8;" horiz-adv-x="392" d="M407 710 Q399 687 385.5 666 Q372 645 353.5 628.5 Q335 612 311 602 Q287 592 258 592 Q231 592 211.5 601.5 Q192 611 179.5 627.5 Q167 644 161 665 Q155 686 155 709 L214 724 Q215 699 227 679 Q239 659 268 659 Q300 659 321 678 Q342 697 354 722 L407 710 L407 710 Z " />
<glyph glyph-name="dotaccent" unicode="&#x2d9;" horiz-adv-x="214" d="M160 649 Q160 680 183 703.5 Q206 727 244 727 Q271 727 286.5 710.5 Q302 694 302 671 Q302 640 278.5 617 Q255 594 217 594 Q191 594 175.5 610 Q160 626 160 649 Z " />
<glyph glyph-name="ring" unicode="&#x2da;" horiz-adv-x="392" d="M209 647 Q209 614 253 614 Q284 614 300.5 628 Q317 642 317 666 Q317 698 271 698 Q242 698 225.5 684 Q209 670 209 647 Z M277 742 Q324 742 352 722.5 Q380 703 380 666 Q380 641 369 623 Q358 605 340 593 Q322 581 298 575.5 Q274 570 248 570 Q203 570 174 588.5 Q145 607 145 642 Q145 668 155.5 687 Q166 706 184 718 Q202 730 226 736 Q250 742 277 742 Z " />
<glyph glyph-name="ogonek" unicode="&#x2db;" horiz-adv-x="392" d="M195 -151 Q177 -163 147 -171.5 Q117 -180 86 -180 Q41 -180 14.5 -162.5 Q-12 -145 -12 -108 Q-12 -75 9.5 -49.5 Q31 -24 64 -6.5 Q97 11 137 21 Q177 31 214 34 L209 2 Q180 -3 155.5 -11 Q131 -19 112.5 -30 Q94 -41 83.5 -55 Q73 -69 73 -85 Q73 -105 85 -112.5 Q97 -120 117 -120 Q134 -120 154 -113 Q174 -106 182 -100 L195 -151 L195 -151 Z " />
<glyph glyph-name="tilde" unicode="&#x2dc;" horiz-adv-x="392" d="M440 724 L431 683 Q421 638 399 616 Q377 594 335 594 Q317 594 299 601 Q281 608 264.5 616.5 Q248 625 233 632 Q218 639 206 639 Q189 639 181 633 Q173 627 171 620 L162 584 L98 584 L106 622 Q117 673 139 695.5 Q161 718 200 718 Q217 718 235 710.5 Q253 703 270 693.5 Q287 684 303.5 676.5 Q320 669 335 669 Q354 669 361.5 676.5 Q369 684 370 692 L377 724 L440 724 Z " />
<glyph glyph-name="hungarumlaut" unicode="&#x2dd;" horiz-adv-x="392" d="M132 579 L108 611 L247 751 L270 751 L308 705 L149 579 L132 579 Z M258 579 L239 609 L383 732 L406 732 L445 680 L275 579 L258 579 Z " />
<glyph glyph-name="uni0394" unicode="&#x394;" horiz-adv-x="642" d="M-49 0 L-36 59 L353 702 L469 702 L569 58 L557 0 L-49 0 Z M377 538 L121 105 L434 105 L377 538 Z " />
<glyph glyph-name="uni03A9" unicode="&#x3a9;" horiz-adv-x="743" d="M344 0 L379 168 Q433 194 470 224 Q507 254 529.5 289.5 Q552 325 562 367.5 Q572 410 572 461 Q572 533 536.5 572.5 Q501 612 425 612 Q369 612 326.5 591.5 Q284 571 255.5 535.5 Q227 500 212 451.5 Q197 403 197 346 Q197 318 202 295 Q207 272 219 251 Q231 230 251 209.5 Q271 189 300 168 L264 0 L2 0 L21 92 L206 92 L211 120 Q173 145 147 171 Q121 197 104 225.5 Q87 254 79.5 286 Q72 318 72 356 Q72 437 100 503 Q128 569 176.5 615.5 Q225 662 291.5 687 Q358 712 435 712 Q493 712 542 697 Q591 682 625.5 652 Q660 622 679.5 576 Q699 530 699 468 Q699 344 637 258 Q575 172 447 113 L443 92 L626 92 L607 0 L344 0 Z " />
<glyph glyph-name="uni03BC" unicode="&#x3bc;" horiz-adv-x="589" d="M510 6 Q490 -1 467.5 -4.5 Q445 -8 426 -8 Q389 -8 371 12 Q353 32 350 65 Q326 27 293.5 8 Q261 -11 227 -11 Q191 -11 166 3.5 Q141 18 134 55 L112 -89 L96 -163 L-24 -177 L125 523 L246 534 L176 200 Q171 177 171 163 Q171 127 189 110.5 Q207 94 239 94 Q277 94 304.5 115 Q332 136 352 170 L427 523 L546 534 Q527 442 511 366 Q495 290 483.5 234 Q472 178 465.5 145 Q459 112 459 108 Q459 95 464.5 89 Q470 83 485 83 Q494 83 504 84 Q514 85 528 88 L510 6 Z " />
<glyph glyph-name="Wgrave" unicode="&#x1e80;" horiz-adv-x="932" d="M551 752 L426 856 L495 924 L514 924 L605 788 L565 752 L551 752 Z M504 484 L272 -2 L145 -2 L101 700 L232 700 L252 178 L490 700 L618 700 L637 178 L875 700 L997 700 L658 -2 L531 -2 L504 484 Z " />
<glyph glyph-name="wgrave" unicode="&#x1e81;" horiz-adv-x="775" d="M394 335 L232 -2 L120 -2 L63 528 L185 528 L209 158 L390 528 L484 528 L507 155 L689 528 L805 528 L529 -2 L415 -2 L394 335 Z M315 684 L384 751 L403 751 L494 615 L454 579 L440 579 L315 684 Z " />
<glyph glyph-name="Wacute" unicode="&#x1e82;" horiz-adv-x="932" d="M555 752 L530 788 L678 924 L702 924 L742 856 L573 752 L555 752 Z M504 484 L272 -2 L145 -2 L101 700 L232 700 L252 178 L490 700 L618 700 L637 178 L875 700 L997 700 L658 -2 L531 -2 L504 484 Z " />
<glyph glyph-name="wacute" unicode="&#x1e83;" horiz-adv-x="775" d="M583 751 L624 684 L455 579 L436 579 L411 615 L560 751 L583 751 Z M394 335 L232 -2 L120 -2 L63 528 L185 528 L209 158 L390 528 L484 528 L507 155 L689 528 L805 528 L529 -2 L415 -2 L394 335 Z " />
<glyph glyph-name="Wdieresis" unicode="&#x1e84;" horiz-adv-x="932" d="M504 484 L272 -2 L145 -2 L101 700 L232 700 L252 178 L490 700 L618 700 L637 178 L875 700 L997 700 L658 -2 L531 -2 L504 484 Z M446 828 Q446 852 464.5 871 Q483 890 514 890 Q535 890 548 876.5 Q561 863 561 845 Q561 819 541.5 801 Q522 783 492 783 Q470 783 458 796 Q446 809 446 828 Z M598 828 Q598 852 616.5 871 Q635 890 666 890 Q687 890 700 876.5 Q713 863 713 845 Q713 819 693.5 801 Q674 783 644 783 Q622 783 610 796 Q598 809 598 828 Z " />
<glyph glyph-name="wdieresis" unicode="&#x1e85;" horiz-adv-x="775" d="M332 660 Q332 685 350.5 704 Q369 723 400 723 Q421 723 433.5 709 Q446 695 446 677 Q446 651 427 633 Q408 615 378 615 Q356 615 344 628.5 Q332 642 332 660 Z M484 660 Q484 685 502.5 704 Q521 723 552 723 Q573 723 585.5 709 Q598 695 598 677 Q598 651 579 633 Q560 615 530 615 Q508 615 496 628.5 Q484 642 484 660 Z M394 335 L232 -2 L120 -2 L63 528 L185 528 L209 158 L390 528 L484 528 L507 155 L689 528 L805 528 L529 -2 L415 -2 L394 335 Z " />
<glyph glyph-name="endash" unicode="&#x2013;" horiz-adv-x="548" d="M72 364 L501 364 L483 281 L53 281 L72 364 Z " />
<glyph glyph-name="emdash" unicode="&#x2014;" horiz-adv-x="831" d="M72 364 L784 364 L766 281 L53 281 L72 364 Z " />
<glyph glyph-name="quoteleft" unicode="&#x2018;" horiz-adv-x="225" d="M208.001 709.992 Q209.001 709.992 216 705.493 Q223 700.993 231.999 695.993 Q242.999 689.994 254.998 680.994 L201.001 605.999 L206.001 583 Q225 565.001 225 540.003 Q225 525.004 219.5 511.005 Q214 497.005 204.001 486.006 Q194.002 475.007 179.502 468.507 Q165.003 462.008 146.005 462.008 Q117.006 462.008 100.007 478.507 Q83.0084 495.006 83.0084 519.004 Q83.0084 537.003 91.0079 551.002 Q99.0074 565.001 108.007 577.001 L208.001 709.992 L208.001 709.992 Z " />
<glyph glyph-name="quoteright" unicode="&#x2019;" horiz-adv-x="221" d="M136 463 Q135 463 128 467.5 Q121 472 112 477 Q101 483 89 492 L143 567 L138 590 Q119 608 119 633 Q119 648 124.5 662 Q130 676 140 687 Q150 698 164.5 704.5 Q179 711 198 711 Q227 711 244 694.5 Q261 678 261 654 Q261 636 253 622 Q245 608 236 596 L136 463 L136 463 Z " />
<glyph glyph-name="quotesinglbase" unicode="&#x201a;" horiz-adv-x="228" d="M12 -124 Q11 -124 4 -119.5 Q-3 -115 -12 -110 Q-23 -104 -35 -95 L19 -20 L14 3 Q-5 21 -5 46 Q-5 61 0.5 75 Q6 89 16 100 Q26 111 40.5 117.5 Q55 124 74 124 Q103 124 120 107.5 Q137 91 137 67 Q137 49 129 35 Q121 21 112 9 L12 -124 L12 -124 Z " />
<glyph glyph-name="quotedblleft" unicode="&#x201c;" horiz-adv-x="397" d="M208.001 709.992 Q209.001 709.992 216 705.493 Q223 700.993 231.999 695.993 Q242.999 689.994 254.998 680.994 L201.001 605.999 L206.001 583 Q225 565.001 225 540.003 Q225 525.004 219.5 511.005 Q214 497.005 204.001 486.006 Q194.002 475.007 179.502 468.507 Q165.003 462.008 146.005 462.008 Q117.006 462.008 100.007 478.507 Q83.0084 495.006 83.0084 519.004 Q83.0084 537.003 91.0079 551.002 Q99.0074 565.001 108.007 577.001 L208.001 709.992 L208.001 709.992 Z M380.001 709.992 Q381.001 709.992 388 705.493 Q395 700.993 403.999 695.993 Q414.999 689.994 426.998 680.994 L373.001 605.999 L378.001 583 Q397 565.001 397 540.003 Q397 525.004 391.5 511.005 Q386 497.005 376.001 486.006 Q366.002 475.007 351.502 468.507 Q337.003 462.008 318.005 462.008 Q289.006 462.008 272.007 478.507 Q255.008 495.006 255.008 519.004 Q255.008 537.003 263.008 551.002 Q271.007 565.001 280.007 577.001 L380.001 709.992 L380.001 709.992 Z " />
<glyph glyph-name="quotedblright" unicode="&#x201d;" horiz-adv-x="393" d="M136 463 Q135 463 128 467.5 Q121 472 112 477 Q101 483 89 492 L143 567 L138 590 Q119 608 119 633 Q119 648 124.5 662 Q130 676 140 687 Q150 698 164.5 704.5 Q179 711 198 711 Q227 711 244 694.5 Q261 678 261 654 Q261 636 253 622 Q245 608 236 596 L136 463 L136 463 Z M308 463 Q307 463 300 467.5 Q293 472 284 477 Q273 483 261 492 L315 567 L310 590 Q291 608 291 633 Q291 648 296.5 662 Q302 676 312 687 Q322 698 336.5 704.5 Q351 711 370 711 Q399 711 416 694.5 Q433 678 433 654 Q433 636 425 622 Q417 608 408 596 L308 463 L308 463 Z " />
<glyph glyph-name="quotedblbase" unicode="&#x201e;" horiz-adv-x="400" d="M12 -124 Q11 -124 4 -119.5 Q-3 -115 -12 -110 Q-23 -104 -35 -95 L19 -20 L14 3 Q-5 21 -5 46 Q-5 61 0.5 75 Q6 89 16 100 Q26 111 40.5 117.5 Q55 124 74 124 Q103 124 120 107.5 Q137 91 137 67 Q137 49 129 35 Q121 21 112 9 L12 -124 L12 -124 Z M184 -124 Q183 -124 176 -119.5 Q169 -115 160 -110 Q149 -104 137 -95 L191 -20 L186 3 Q167 21 167 46 Q167 61 172.5 75 Q178 89 188 100 Q198 111 212.5 117.5 Q227 124 246 124 Q275 124 292 107.5 Q309 91 309 67 Q309 49 301 35 Q293 21 284 9 L184 -124 L184 -124 Z " />
<glyph glyph-name="dagger" unicode="&#x2020;" horiz-adv-x="469" d="M298 0 L225 0 L204 340 L218 447 L187 447 L50 429 L50 525 L187 508 L220 508 L204 700 L319 700 L301 508 L332 508 L468 525 L468 429 L332 447 L304 447 L319 340 L298 0 Z " />
<glyph glyph-name="daggerdbl" unicode="&#x2021;" horiz-adv-x="510" d="M309 192 L327 0 L212 0 L228 192 L194 192 L59 174 L59 273 L194 254 L225 254 L212 350 L225 447 L194 447 L59 428 L59 526 L194 508 L228 508 L212 700 L327 700 L309 508 L342 508 L477 526 L477 428 L342 447 L313 447 L327 350 L313 254 L342 254 L477 273 L477 174 L342 192 L309 192 Z " />
<glyph glyph-name="bullet" unicode="&#x2022;" horiz-adv-x="355" d="M85 356 Q85 401 118.75 437 Q152.5 473 209.5 473 Q250 473 274 447.5 Q298 422 298 387.5 Q298 341 262.75 306.5 Q227.5 272 170.5 272 Q130 272 107.5 296.75 Q85 321.5 85 356 Z " />
<glyph glyph-name="ellipsis" unicode="&#x2026;" horiz-adv-x="658" d="M425 46 Q425 76 447.5 100 Q470 124 508 124 Q535 124 551 107 Q567 90 567 67 Q567 36 543.5 13 Q520 -10 482 -10 Q455 -10 440 6.5 Q425 23 425 46 Z M-6 46 Q-6 76 16.5 100 Q39 124 77 124 Q104 124 120 107 Q136 90 136 67 Q136 36 112.5 13 Q89 -10 51 -10 Q24 -10 9 6.5 Q-6 23 -6 46 Z M210 46 Q210 76 232.5 100 Q255 124 293 124 Q320 124 336 107 Q352 90 352 67 Q352 36 328.5 13 Q305 -10 267 -10 Q240 -10 225 6.5 Q210 23 210 46 Z " />
<glyph glyph-name="perthousand" unicode="&#x2030;" horiz-adv-x="1024" d="M156 494 Q156 467 165 453 Q174 439 196 439 Q217 439 233 454.5 Q249 470 259 492.5 Q269 515 274 539.5 Q279 564 279 583 Q279 609 270 623 Q261 637 238 637 Q217 637 201.5 622 Q186 607 176 585.5 Q166 564 161 539 Q156 514 156 494 Z M357 586 Q357 545 346 506.5 Q335 468 313.5 438 Q292 408 261 389.5 Q230 371 191 371 Q135 371 106.5 402 Q78 433 78 490 Q78 530 89 568.5 Q100 607 121 638 Q142 669 173 688 Q204 707 245 707 Q299 707 328 675.5 Q357 644 357 586 Z M453 118 Q453 91 462 77 Q471 63 493 63 Q514 63 530 78.5 Q546 94 556 116.5 Q566 139 571 163.5 Q576 188 576 207 Q576 233 567 247 Q558 261 535 261 Q514 261 498.5 246 Q483 231 473 209.5 Q463 188 458 163 Q453 138 453 118 Z M654 210 Q654 169 643 130.5 Q632 92 610.5 62 Q589 32 558 13.5 Q527 -5 488 -5 Q432 -5 403.5 26 Q375 57 375 114 Q375 154 386 192.5 Q397 231 418 262 Q439 293 470 312 Q501 331 542 331 Q596 331 625 299.5 Q654 268 654 210 Z M770 118 Q770 91 779 77 Q788 63 810 63 Q831 63 847 78.5 Q863 94 873 116.5 Q883 139 888 163.5 Q893 188 893 207 Q893 233 884 247 Q875 261 852 261 Q831 261 815.5 246 Q800 231 790 209.5 Q780 188 775 163 Q770 138 770 118 Z M971 210 Q971 169 960 130.5 Q949 92 927.5 62 Q906 32 875 13.5 Q844 -5 805 -5 Q749 -5 720.5 26 Q692 57 692 114 Q692 154 703 192.5 Q714 231 735 262 Q756 293 787 312 Q818 331 859 331 Q913 331 942 299.5 Q971 268 971 210 Z M591 700 L663 700 L144 0 L72 0 L591 700 Z " />
<glyph glyph-name="guilsinglleft" unicode="&#x2039;" horiz-adv-x="303" d="M297.999 463.003 L115.01 249.016 L208.005 46.0283 L119.01 46.0283 L20.0161 235.017 L28.0156 273.014 L204.005 463.003 L297.999 463.003 Z " />
<glyph glyph-name="guilsinglright" unicode="&#x203a;" horiz-adv-x="303" d="M-15 46 L168 260 L75 463 L164 463 L263 274 L255 236 L79 46 L-15 46 Z " />
<glyph glyph-name="fraction" unicode="&#x2044;" horiz-adv-x="90" d="M279 700 L351 700 L-168 0 L-240 0 L279 700 Z " />
<glyph glyph-name="franc" unicode="&#x20a3;" horiz-adv-x="600" d="M229 231 L180 0 L55 0 L104 231 L31 231 L46 302 L119 302 L130 355 L57 355 L72 425 L145 425 L203 700 L657 700 L636 602 L308 602 L270 425 L438 425 L424 355 L255 355 L244 302 L413 302 L398 231 L229 231 Z " />
<glyph glyph-name="lira" unicode="&#x20a4;" horiz-adv-x="592" d="M484 0 L-11 0 L10 98 L80 98 L112 245 L40 245 L55 316 L127 316 L138 368 L67 368 L81 439 L153 439 L163 486 Q172 530 194.5 570.5 Q217 611 253.5 642 Q290 673 341 691.5 Q392 710 458 710 Q493 710 521.5 706.5 Q550 703 571 698.5 Q592 694 604.5 690 Q617 686 621 685 L600 588 Q564 602 526 609 Q488 616 452 616 Q382 616 343.5 587 Q305 558 290 486 L279 439 L430 439 L416 368 L265 368 L254 316 L405 316 L390 245 L239 245 L207 98 L504 98 L484 0 Z " />
<glyph glyph-name="peseta" unicode="&#x20a7;" horiz-adv-x="1406" d="M152 700 L372 700 Q480 700 541 655.5 Q602 611 602 518 Q602 450 580 400 Q558 350 517 317 Q476 284 418 267.5 Q360 251 288 251 L182 251 L128 0 L4 0 L152 700 Z M257 607 L201 344 L306 344 Q384 344 429 385 Q474 426 474 512 Q474 559 445.5 583 Q417 607 354 607 L257 607 Z M1338 169 Q1338 126 1320.5 93 Q1303 60 1271.5 37 Q1240 14 1197.5 2 Q1155 -10 1106 -10 Q1072 -10 1043.5 -5 Q1015 0 993 6.5 Q971 13 957.5 19.5 Q944 26 940 28 L959 122 Q1007 100 1044.5 92.5 Q1082 85 1106 85 Q1163 85 1190 105 Q1217 125 1217 153 Q1217 179 1197.5 194.5 Q1178 210 1129 227 Q1061 250 1033.5 286 Q1006 322 1006 370 Q1006 406 1021 436.5 Q1036 467 1065.5 489.5 Q1095 512 1137.5 525 Q1180 538 1235 538 Q1267 538 1294.5 533.5 Q1322 529 1342 524 Q1366 518 1385 510 L1364 420 Q1327 434 1289.5 440.5 Q1252 447 1232 447 Q1184 447 1153.5 431 Q1123 415 1123 385 Q1123 362 1139.5 348.5 Q1156 335 1200 319 Q1265 296 1301.5 261.5 Q1338 227 1338 169 Z M730 -10 Q676 -10 655 15 Q634 40 646 99 L719 440 L650 440 L668 526 L731 526 L808 670 L884 670 L854 526 L973 526 L954 440 L835 440 L761 82 L892 82 L873 0 Q872 0 857 -2 Q842 -4 820.5 -5.5 Q799 -7 774.5 -8.5 Q750 -10 730 -10 Z " />
<glyph glyph-name="Euro" unicode="&#x20ac;" horiz-adv-x="640" d="M66 446 L470 446 L455 376 L51 376 L66 446 Z M40 323 L444 323 L429 253 L25 253 L40 323 Z M537 16 Q508 5 468.5 -2.5 Q429 -10 378 -10 Q247 -10 180.5 63 Q114 136 119 266 Q120 279 120 291.5 Q120 304 122 317 Q124 336 126.5 353.5 Q129 371 133 389 Q136 401 139 413 Q142 425 146 437 Q188 567 285 638.5 Q382 710 520 710 Q570 710 608 702.5 Q646 695 666 687 L644 588 Q611 598 579 603.5 Q547 609 517 609 Q432 609 369.5 565.5 Q307 522 276 433 Q272 423 269 412.5 Q266 402 263 391 Q258 372 255.5 351.5 Q253 331 251 308 Q250 299 250 290 Q250 281 250 271 Q248 233 255.5 200.5 Q263 168 281.5 144 Q300 120 331.5 106 Q363 92 410 92 Q447 92 483.5 98.5 Q520 105 558 118 L537 16 Z " />
<glyph glyph-name="uni2113" unicode="&#x2113;" horiz-adv-x="415" d="M334 28 Q322 21 304.5 14.5 Q287 8 267.5 2.5 Q248 -3 228.5 -6.5 Q209 -10 193 -10 Q134 -10 98.5 9 Q63 28 61 75 Q61 84 61.5 95 Q62 106 65 117 Q50 105 34.5 92.5 Q19 80 3 66 L-34 123 Q1 153 31.5 180.5 Q62 208 90 233 L155 541 Q165 589 184 623.5 Q203 658 227.5 680 Q252 702 281 712.5 Q310 723 340 723 Q394 723 426 695 Q458 667 458 615 Q458 581 442.5 541 Q427 501 394 453 Q361 405 310 348.5 Q259 292 187 226 L167 132 Q165 126 165 120 Q165 114 165 107 Q165 86 178 78.5 Q191 71 218 71 Q242 71 272.5 79 Q303 87 323 96 L334 28 Z M216 360 Q293 446 325 507.5 Q357 569 357 607 Q357 630 349 640 Q341 650 327 650 Q277 650 251 522 L216 360 Z " />
<glyph glyph-name="trademark" unicode="&#x2122;" horiz-adv-x="812" d="M131 700 L398 700 L398 638 L302 638 L302 387 L228 387 L228 638 L131 638 L131 700 Z M524 387 L461 387 L461 700 L545 700 L619 552 L688 700 L777 700 L777 387 L704 387 L704 603 L645 480 L582 480 L524 598 L524 387 Z " />
<glyph glyph-name="estimated" unicode="&#x212e;" horiz-adv-x="799" d="M605 363 L615 376 L615 584 Q582 624 530.5 647 Q479 670 419 670 Q353 670 303.5 647.5 Q254 625 219 585 L219 376 L228 363 L605 363 Z M219 313 L219 135 Q254 84 307.5 55.5 Q361 27 428 27 Q500 27 558 56 Q616 85 656 136 L719 136 Q665 66 594 28 Q523 -10 428 -10 Q351 -10 284.5 18 Q218 46 168 95 Q118 144 89.5 209 Q61 274 61 349 Q61 424 89.5 489.5 Q118 555 167 603.5 Q216 652 281 679.5 Q346 707 419 707 Q491 707 554 680 Q617 653 665 606.5 Q713 560 743 497.5 Q773 435 778 365 L778 363 L746 326 L228 326 L219 313 Z " />
<glyph glyph-name="partialdiff" unicode="&#x2202;" horiz-adv-x="540" d="M136 197 Q136 135 157 107 Q178 79 224 79 Q261 79 289.5 103 Q318 127 337.5 164.5 Q357 202 367 249 Q377 296 377 342 Q377 396 356.5 422.5 Q336 449 288 449 Q251 449 222.5 425.5 Q194 402 175 365.5 Q156 329 146 284 Q136 239 136 197 Z M497 333 Q497 249 473.5 184.5 Q450 120 411 77 Q372 34 322.5 12 Q273 -10 221 -10 Q178 -10 140.5 2.5 Q103 15 75 41.5 Q47 68 31 107.5 Q15 147 15 201 Q15 284 38.5 347 Q62 410 101 452.5 Q140 495 190 516.5 Q240 538 293 538 Q316 538 335.5 532 Q355 526 367 513 Q350 573 318.5 617.5 Q287 662 244 698 L292 741 Q350 709 389.5 663.5 Q429 618 453 564.5 Q477 511 487 451.5 Q497 392 497 333 Z " />
<glyph glyph-name="product" unicode="&#x220f;" horiz-adv-x="710" d="M544 616 L300 616 L169 -1 L44 -1 L175 616 L103 616 L120 700 L759 700 L741 616 L669 616 L538 -1 L414 -1 L544 616 Z " />
<glyph glyph-name="summation" unicode="&#x2211;" horiz-adv-x="581" d="M-24 0 L-4 85 L306 356 L112 637 L125 700 L616 700 L597 614 L265 614 L431 380 L423 343 L137 87 L494 87 L476 0 L-24 0 Z " />
<glyph glyph-name="minus" unicode="&#x2212;" horiz-adv-x="560" d="M79 373 L493 373 L493 297 L79 297 L79 373 Z " />
<glyph glyph-name="uni2215" unicode="&#x2215;" horiz-adv-x="423" d="M446 700 L518 700 L-1 0 L-73 0 L446 700 Z " />
<glyph glyph-name="uni2219" unicode="&#x2219;" horiz-adv-x="243" d="M64 364 Q64 394 86.5 418 Q109 442 147 442 Q174 442 190 425 Q206 408 206 385 Q206 354 182.5 331 Q159 308 121 308 Q94 308 79 324.5 Q64 341 64 364 Z " />
<glyph glyph-name="radical" unicode="&#x221a;" horiz-adv-x="570" d="M126 422 L40 388 L27 448 L228 533 L320 201 L630 957 L694 945 L280 -55 L126 422 Z " />
<glyph glyph-name="infinity" unicode="&#x221e;" horiz-adv-x="851" d="M625 429 Q603 429 583 420.5 Q563 412 544.5 398 Q526 384 509 366.5 Q492 349 477 331 Q492 314 509 297 Q526 280 544.5 266.5 Q563 253 583 244.5 Q603 236 625 236 Q673 236 699 262 Q725 288 725 332 Q725 377 699 403 Q673 429 625 429 Z M51 332 Q51 367 63.5 398.5 Q76 430 100 453.5 Q124 477 158 490.5 Q192 504 235 504 Q267 504 294.5 494 Q322 484 346 468 Q370 452 391 432 Q412 412 431 392 Q449 412 469.5 432 Q490 452 514 468 Q538 484 566 494 Q594 504 627 504 Q670 504 703.5 490.5 Q737 477 760.5 453.5 Q784 430 796.5 398.5 Q809 367 809 332 Q809 297 798 266 Q787 235 764.5 211.5 Q742 188 707.5 174.5 Q673 161 627 161 Q596 161 568.5 171 Q541 181 516.5 196.5 Q492 212 471 231.5 Q450 251 432 270 Q413 250 392.5 230.5 Q372 211 348 195.5 Q324 180 296 170.5 Q268 161 235 161 Q188 161 153.5 174.5 Q119 188 96.5 211 Q74 234 62.5 265.5 Q51 297 51 332 Z M236 429 Q188 429 162 403 Q136 377 136 332 Q136 288 162 262 Q188 236 236 236 Q258 236 278.5 244.5 Q299 253 318 266.5 Q337 280 354 297 Q371 314 386 331 Q371 349 354 366.5 Q337 384 318 398 Q299 412 278.5 420.5 Q258 429 236 429 Z " />
<glyph glyph-name="integral" unicode="&#x222b;" horiz-adv-x="589" d="M12 -136 Q-16 -136 -42.5 -132 Q-69 -128 -89 -123 L-58 -45 Q-39 -49 -17.5 -52 Q4 -55 20 -55 Q63 -55 94.5 -36.5 Q126 -18 144 36 L344 642 Q375 738 435.5 779.5 Q496 821 596 821 Q625 821 651 817 Q677 813 697 808 L665 730 Q647 734 626 737 Q605 740 588 740 Q547 740 514.5 721 Q482 702 464 649 L263 44 Q231 -52 172.5 -94 Q114 -136 12 -136 Z " />
<glyph glyph-name="approxequal" unicode="&#x2248;" horiz-adv-x="597" d="M216 500 Q246 500 275 487.5 Q304 475 330 460 Q356 445 379 432.5 Q402 420 421 420 Q436 420 447 429 L505 487 L547 447 Q519 403 481 375.5 Q443 348 395 348 Q365 348 336 360.5 Q307 373 280.5 388 Q254 403 231 415.5 Q208 428 189 428 Q174 428 165 420 L105 357 L62 396 Q90 444 129 472 Q168 500 216 500 Z M216 327 Q246 327 275 314.5 Q304 302 330 287 Q356 272 379 259.5 Q402 247 421 247 Q436 247 447 256 L505 314 L547 274 Q519 229 481 202 Q443 175 395 175 Q365 175 336 187.5 Q307 200 280.5 215 Q254 230 231 242.5 Q208 255 189 255 Q174 255 165 247 L105 184 L62 223 Q90 271 129 299 Q168 327 216 327 Z " />
<glyph glyph-name="notequal" unicode="&#x2260;" horiz-adv-x="542" d="M69 454 L319 454 L367 530 L429 530 L381 454 L484 454 L484 379 L332 379 L278 293 L480 293 L480 218 L231 218 L180 137 L117 137 L168 218 L66 218 L66 293 L216 293 L270 379 L69 379 L69 454 Z " />
<glyph glyph-name="lessequal" unicode="&#x2264;" horiz-adv-x="562" d="M62 161 L483 161 L483 86 L62 86 L62 161 Z M62 359 L62 424 L483 575 L483 490 L189 393 L483 291 L483 207 L62 359 Z " />
<glyph glyph-name="greaterequal" unicode="&#x2265;" horiz-adv-x="588" d="M83 86 L83 161 L504 161 L504 86 L83 86 Z M85 292 L379 390 L85 491 L85 576 L506 424 L506 359 L85 208 L85 292 Z " />
<glyph glyph-name="lozenge" unicode="&#x25ca;" horiz-adv-x="571" d="M149 -80 L35 343 L332 782 L444 782 L558 360 L260 -80 L149 -80 Z M458 350 L368 689 L136 352 L225 13 L458 350 Z " />
<glyph glyph-name="f_f" unicode="&#xfb00;" horiz-adv-x="694" d="M147 0 Q129 -84 79 -132 Q29 -180 -65 -180 Q-95 -180 -114 -177 Q-133 -174 -139 -172 L-123 -91 Q-119 -92 -110 -92.5 Q-101 -93 -91.5 -93.5 Q-82 -94 -73.5 -94.5 Q-65 -95 -62 -95 Q-22 -95 -2 -74.5 Q18 -54 28 -7 L123 440 L51 440 L69 526 L141 526 L147 560 Q162 645 213.5 692.5 Q265 740 363 740 Q391 740 412.5 737.5 Q434 735 445 733 L428 648 Q425 649 414.5 649.5 Q404 650 392.5 650.5 Q381 651 371 651 Q361 651 359 651 Q316 651 296 631 Q276 611 266 564 L258 526 L377 526 L360 440 L240 440 L147 0 L147 0 Z M499 0 Q481 -84 431 -132 Q381 -180 287 -180 Q257 -180 238 -177 Q219 -174 213 -172 L229 -91 Q233 -92 242 -92.5 Q251 -93 260.5 -93.5 Q270 -94 278.5 -94.5 Q287 -95 290 -95 Q330 -95 350 -74.5 Q370 -54 380 -7 L475 440 L403 440 L421 526 L493 526 L499 560 Q514 645 565.5 692.5 Q617 740 715 740 Q743 740 764.5 737.5 Q786 735 797 733 L780 648 Q777 649 766.5 649.5 Q756 650 744.5 650.5 Q733 651 723 651 Q713 651 711 651 Q668 651 648 631 Q628 611 618 564 L610 526 L729 526 L712 440 L592 440 L499 0 L499 0 Z " />
<glyph glyph-name="fi" unicode="&#xfb01;" horiz-adv-x="600" d="M469 528 L587 528 L475 0 L357 0 L469 528 Z M482 657 Q482 693 502 715 Q522 737 564 737 Q593 737 608 722.5 Q623 708 623 685 Q623 650 603 627.5 Q583 605 541 605 Q512 605 497 620 Q482 635 482 657 Z M147 0 Q129 -84 79 -132 Q29 -180 -65 -180 Q-95 -180 -114 -177 Q-133 -174 -139 -172 L-123 -91 Q-119 -92 -110 -92.5 Q-101 -93 -91.5 -93.5 Q-82 -94 -73.5 -94.5 Q-65 -95 -62 -95 Q-22 -95 -2 -74.5 Q18 -54 28 -7 L123 440 L51 440 L69 526 L141 526 L147 560 Q162 645 213.5 692.5 Q265 740 363 740 Q391 740 412.5 737.5 Q434 735 445 733 L428 648 Q425 649 414.5 649.5 Q404 650 392.5 650.5 Q381 651 371 651 Q361 651 359 651 Q316 651 296 631 Q276 611 266 564 L258 526 L377 526 L360 440 L240 440 L147 0 L147 0 Z " />
<glyph glyph-name="fl" unicode="&#xfb02;" horiz-adv-x="603" d="M513 730 L631 730 L476 0 L359 0 L513 730 Z M147 0 Q129 -84 79 -132 Q29 -180 -65 -180 Q-95 -180 -114 -177 Q-133 -174 -139 -172 L-123 -91 Q-119 -92 -110 -92.5 Q-101 -93 -91.5 -93.5 Q-82 -94 -73.5 -94.5 Q-65 -95 -62 -95 Q-22 -95 -2 -74.5 Q18 -54 28 -7 L123 440 L51 440 L69 526 L141 526 L147 560 Q162 645 213.5 692.5 Q265 740 363 740 Q391 740 412.5 737.5 Q434 735 445 733 L428 648 Q425 649 414.5 649.5 Q404 650 392.5 650.5 Q381 651 371 651 Q361 651 359 651 Q316 651 296 631 Q276 611 266 564 L258 526 L377 526 L360 440 L240 440 L147 0 L147 0 Z " />
<glyph glyph-name="f_f_i" unicode="&#xfb03;" horiz-adv-x="952" d="M821 528 L939 528 L827 0 L709 0 L821 528 Z M834 657 Q834 693 854 715 Q874 737 916 737 Q945 737 960 722.5 Q975 708 975 685 Q975 650 955 627.5 Q935 605 893 605 Q864 605 849 620 Q834 635 834 657 Z M147 0 Q129 -84 79 -132 Q29 -180 -65 -180 Q-95 -180 -114 -177 Q-133 -174 -139 -172 L-123 -91 Q-119 -92 -110 -92.5 Q-101 -93 -91.5 -93.5 Q-82 -94 -73.5 -94.5 Q-65 -95 -62 -95 Q-22 -95 -2 -74.5 Q18 -54 28 -7 L123 440 L51 440 L69 526 L141 526 L147 560 Q162 645 213.5 692.5 Q265 740 363 740 Q391 740 412.5 737.5 Q434 735 445 733 L428 648 Q425 649 414.5 649.5 Q404 650 392.5 650.5 Q381 651 371 651 Q361 651 359 651 Q316 651 296 631 Q276 611 266 564 L258 526 L377 526 L360 440 L240 440 L147 0 L147 0 Z M499 0 Q481 -84 431 -132 Q381 -180 287 -180 Q257 -180 238 -177 Q219 -174 213 -172 L229 -91 Q233 -92 242 -92.5 Q251 -93 260.5 -93.5 Q270 -94 278.5 -94.5 Q287 -95 290 -95 Q330 -95 350 -74.5 Q370 -54 380 -7 L475 440 L403 440 L421 526 L493 526 L499 560 Q514 645 565.5 692.5 Q617 740 715 740 Q743 740 764.5 737.5 Q786 735 797 733 L780 648 Q777 649 766.5 649.5 Q756 650 744.5 650.5 Q733 651 723 651 Q713 651 711 651 Q668 651 648 631 Q628 611 618 564 L610 526 L729 526 L712 440 L592 440 L499 0 L499 0 Z " />
<glyph glyph-name="f_f_l" unicode="&#xfb04;" horiz-adv-x="956" d="M867 730 L985 730 L830 0 L713 0 L867 730 Z M147 0 Q129 -84 79 -132 Q29 -180 -65 -180 Q-95 -180 -114 -177 Q-133 -174 -139 -172 L-123 -91 Q-119 -92 -110 -92.5 Q-101 -93 -91.5 -93.5 Q-82 -94 -73.5 -94.5 Q-65 -95 -62 -95 Q-22 -95 -2 -74.5 Q18 -54 28 -7 L123 440 L51 440 L69 526 L141 526 L147 560 Q162 645 213.5 692.5 Q265 740 363 740 Q391 740 412.5 737.5 Q434 735 445 733 L428 648 Q425 649 414.5 649.5 Q404 650 392.5 650.5 Q381 651 371 651 Q361 651 359 651 Q316 651 296 631 Q276 611 266 564 L258 526 L377 526 L360 440 L240 440 L147 0 L147 0 Z M499 0 Q481 -84 431 -132 Q381 -180 287 -180 Q257 -180 238 -177 Q219 -174 213 -172 L229 -91 Q233 -92 242 -92.5 Q251 -93 260.5 -93.5 Q270 -94 278.5 -94.5 Q287 -95 290 -95 Q330 -95 350 -74.5 Q370 -54 380 -7 L475 440 L403 440 L421 526 L493 526 L499 560 Q514 645 565.5 692.5 Q617 740 715 740 Q743 740 764.5 737.5 Q786 735 797 733 L780 648 Q777 649 766.5 649.5 Q756 650 744.5 650.5 Q733 651 723 651 Q713 651 711 651 Q668 651 648 631 Q628 611 618 564 L610 526 L729 526 L712 440 L592 440 L499 0 L499 0 Z " />
<glyph glyph-name="longs_t" unicode="&#xfb05;" horiz-adv-x="654" d="M147 0 Q129 -84 79 -132 Q29 -180 -65 -180 Q-95 -180 -114 -177 Q-133 -174 -139 -172 L-123 -91 Q-119 -92 -110 -92.5 Q-101 -93 -91.5 -93.5 Q-82 -94 -73.5 -94.5 Q-65 -95 -62 -95 Q-22 -95 -2.5 -74.5 Q17 -54 28 -7 L123 440 L51 440 L69 526 L141 526 L147 560 Q162 645 213.5 692.5 Q265 740 363 740 Q391 740 412.5 737.5 Q434 735 445 733 L428 648 Q425 649 414.5 649.5 Q404 650 392.5 650.5 Q381 651 371 651 Q361 651 359 651 Q316 651 296 631 Q276 611 266 564 L147 0 L147 0 Z M433 -10 Q379 -10 358 15 Q337 40 349 99 L422 440 L353 440 L371 526 L434 526 L511 670 L587 670 L557 526 L676 526 L657 440 L538 440 L464 82 L595 82 L576 0 Q575 0 560 -2 Q545 -4 523.5 -5.5 Q502 -7 477.5 -8.5 Q453 -10 433 -10 Z " />
<glyph glyph-name="commaaccent" unicode="&#xf6c3;" horiz-adv-x="239" d="M28 -253 L67 -199 L64 -181 Q44 -168 44 -141 Q44 -115 63 -94.5 Q82 -74 115 -74 Q139 -74 153.5 -87.5 Q168 -101 168 -123 Q168 -138 162 -151 Q156 -164 147 -176 L68 -279 L28 -253 Z " />
<glyph glyph-name="uniF8FF" unicode="&#xf8ff;" horiz-adv-x="1420" d="M370 488 Q381 488 381 477 L381 471 Q390 478 403.5 485 Q417 492 439 492 Q457 492 469.5 484.5 Q482 477 490 466 Q498 473 513 482.5 Q528 492 554 492 Q580 492 595.5 476.5 Q611 461 611 438 L611 306 Q611 295 599 295 L561 295 Q548 295 548 306 L548 422 Q548 431 545.5 434.5 Q543 438 534 438 Q523 438 512.5 433 Q502 428 496 423 L496 306 Q496 295 485 295 L447 295 Q435 295 435 306 L435 422 Q435 431 432.5 434.5 Q430 438 420 438 Q409 438 398.5 433 Q388 428 383 423 L383 306 Q383 295 373 295 L332 295 Q321 295 321 306 L321 477 Q321 488 332 488 L370 488 Z M1035 488 Q1047 488 1047 477 L1048 470 Q1056 477 1070 484.5 Q1084 492 1108 492 Q1137 492 1151 476 Q1165 460 1165 432 L1165 352 Q1165 323 1151 306.5 Q1137 290 1108 290 Q1085 290 1071.5 297.5 Q1058 305 1050 311 L1050 228 Q1050 217 1039 217 L999 217 Q988 217 988 228 L988 477 Q988 488 999 488 L1035 488 Z M288 388 Q288 377 276 377 L183 377 L183 354 Q183 336 206 336 Q231 336 231 354 L231 355 Q231 366 242 366 L274 366 Q286 366 286 355 L286 352 Q286 324 268.5 307 Q251 290 206 290 Q161 290 141 307 Q121 324 121 352 L121 431 Q121 460 141 476 Q161 492 206 492 Q251 492 269.5 476 Q288 460 288 431 L288 388 Z M1362 388 Q1362 377 1351 377 L1257 377 L1257 354 Q1257 336 1280 336 Q1304 336 1304 354 L1304 355 Q1304 366 1316 366 L1348 366 Q1359 366 1359 355 L1359 352 Q1359 324 1342 307 Q1325 290 1280 290 Q1235 290 1215.5 307 Q1196 324 1196 352 L1196 431 Q1196 460 1215.5 476 Q1235 492 1280 492 Q1325 492 1343.5 476 Q1362 460 1362 431 L1362 388 Z M864 407 Q868 393 869.5 382 Q871 371 871 370 Q872 371 875.5 383.5 Q879 396 881 405 L905 477 Q907 482 909 485 Q911 488 917 488 L954 488 Q965 488 965 480 L965 477 L881 228 Q877 217 867 217 L839 217 Q828 217 828 225 L828 228 L844 287 L779 477 Q778 479 778 481 Q778 488 790 488 L830 488 Q836 488 838 485 Q840 482 842 477 L864 407 Z M754 487 Q765 487 765 477 L765 450 Q765 439 754 439 L723 439 L723 362 Q723 344 747 344 L757 344 Q769 344 769 333 L769 306 Q769 295 757 295 L738 295 Q693 295 676.5 309.5 Q660 324 660 355 L660 439 L643 439 Q632 439 632 450 L632 475 Q632 483 643 486 L659 487 L660 487 L660 523 Q660 535 672 535 L711 535 Q723 535 723 523 L723 487 L754 487 Z M464 98 Q464 94 460 94 L346 94 L346 46 Q346 32 356.5 22.5 Q367 13 396 13 Q425 13 434.5 22.5 Q444 32 444 46 L444 54 Q444 58 450 58 L459 58 Q464 58 464 54 L464 45 Q464 24 449.5 10.5 Q435 -3 395 -3 Q356 -3 341 10.5 Q326 24 326 45 L326 147 Q326 168 341 181.5 Q356 195 396 195 Q435 195 449.5 181.5 Q464 168 464 147 L464 98 Z M146 171 Q154 177 171.5 186 Q189 195 213 195 Q241 195 254 182 Q267 169 267 149 L267 5 Q267 0 263 0 L252 0 Q248 0 248 5 L248 145 Q248 159 238.5 167.5 Q229 176 209 176 Q186 176 169.5 167.5 Q153 159 147 153 L147 5 Q147 0 143 0 L132 0 Q127 0 127 5 L127 188 Q127 192 132 192 L141 192 Q146 192 146 188 L146 171 Z M595 191 Q599 191 599 187 L599 179 Q599 174 595 174 L548 174 L548 50 Q548 36 559 26.5 Q570 17 598 17 L604 17 Q609 17 609 12 L609 5 Q609 0 604 0 L595 0 Q556 0 542.5 12.5 Q529 25 529 48 L529 174 L504 174 Q500 174 500 179 L500 186 Q500 190 504 191 L529 191 L529 232 Q529 237 533 237 L544 237 Q548 237 548 232 L548 191 L595 191 Z M346 110 L444 110 L444 146 Q444 160 434 169 Q424 178 396 178 Q367 178 356.5 169 Q346 160 346 146 L346 110 Z M1104 423 Q1104 428 1101.5 433 Q1099 438 1087 438 Q1076 438 1066 432.5 Q1056 427 1050 423 L1050 360 Q1056 356 1066 350 Q1076 344 1087 344 Q1099 344 1101.5 350 Q1104 356 1104 361 L1104 423 Z M183 417 L231 417 L231 428 Q231 446 206 446 Q183 446 183 428 L183 417 Z M1257 417 L1304 417 L1304 428 Q1304 446 1280 446 Q1257 446 1257 428 L1257 417 Z M62 5 Q62 0 57 0 L46 0 Q42 0 42 5 L42 35 Q42 40 46 40 L57 40 Q62 40 62 35 L62 5 Z " />
<glyph glyph-name="zero.tab" unicode="&#xff10;" horiz-adv-x="600" d="M257 -10 Q199 -10 156.5 9 Q114 28 85.5 61.5 Q57 95 43 140.5 Q29 186 29 240 Q29 291 37.5 346 Q46 401 64 453.5 Q82 506 109.5 552.5 Q137 599 174 634 Q211 669 258.5 689.5 Q306 710 365 710 Q422 710 464.5 691 Q507 672 535 638.5 Q563 605 577 559 Q591 513 591 459 Q591 408 582 353.5 Q573 299 555.5 247 Q538 195 510.5 148.5 Q483 102 446 66.5 Q409 31 361.5 10.5 Q314 -10 257 -10 Z M262 88 Q298 88 327.5 107.5 Q357 127 379.5 160 Q402 193 418 234.5 Q434 276 444.5 320 Q455 364 460 406.5 Q465 449 465 484 Q465 544 439.5 578 Q414 612 358 612 Q321 612 291.5 592.5 Q262 573 239.5 540.5 Q217 508 201 466 Q185 424 174.5 380 Q164 336 159 293.5 Q154 251 154 217 Q154 155 179 121.5 Q204 88 262 88 Z " />
<glyph glyph-name="one.tab" unicode="&#xff11;" horiz-adv-x="600" d="M62 0 L79 84 L207 84 L312 579 L184 579 L202 664 L296 664 Q338 664 364 676.5 Q390 689 401 710 L464 710 L331 84 L459 84 L442 0 L62 0 Z " />
<glyph glyph-name="two.tab" unicode="&#xff12;" horiz-adv-x="600" d="M152 663 Q159 666 178 674 Q197 682 225 690 Q253 698 289 704 Q325 710 367 710 Q424 710 464 695.5 Q504 681 528.5 657.5 Q553 634 564.5 604 Q576 574 576 544 Q576 501 561.5 466.5 Q547 432 516 401 Q485 370 437 339.5 Q389 309 322 273 Q275 248 245 230 Q215 212 197 196 Q179 180 170.5 163.5 Q162 147 157 126 L152 104 L495 104 L474 0 L6 0 L31 120 Q38 155 52 184 Q66 213 92 240 Q118 267 159 294 Q200 321 262 354 Q308 379 342.5 399.5 Q377 420 400 440.5 Q423 461 434 482.5 Q445 504 445 531 Q445 566 420 587.5 Q395 609 336 609 Q293 609 239 596.5 Q185 584 134 561 L152 663 Z " />
<glyph glyph-name="three.tab" unicode="&#xff13;" horiz-adv-x="600" d="M164 675 Q185 686 235.5 698 Q286 710 351 710 Q407 710 446 696.5 Q485 683 510 661.5 Q535 640 546 612 Q557 584 557 555 Q557 470 511.5 421.5 Q466 373 392 359 L391 356 Q439 340 469.5 309.5 Q500 279 500 222 Q500 179 484.5 137.5 Q469 96 435 63 Q401 30 348 10 Q295 -10 220 -10 Q182 -10 148.5 -5.5 Q115 -1 89 5 Q63 11 44.5 17 Q26 23 17 27 L36 117 Q89 98 132 92 Q175 86 208 86 Q251 86 282 97.5 Q313 109 333.5 128.5 Q354 148 363.5 173 Q373 198 373 226 Q373 274 346 294 Q319 314 265 314 L200 314 L217 405 L286 405 Q316 405 342 412.5 Q368 420 387.5 435 Q407 450 418.5 473 Q430 496 430 528 Q430 545 424.5 560.5 Q419 576 406.5 587.5 Q394 599 372.5 606 Q351 613 319 613 Q281 613 240.5 606.5 Q200 600 147 581 L164 675 Z " />
<glyph glyph-name="four.tab" unicode="&#xff14;" horiz-adv-x="600" d="M410 556 L135 271 L349 271 L410 556 Z M452 174 L415 0 L292 0 L328 174 L2 174 L21 271 L443 710 L565 710 L473 271 L561 271 L542 174 L452 174 Z " />
<glyph glyph-name="five.tab" unicode="&#xff15;" horiz-adv-x="600" d="M224 -10 Q179 -10 141 -3.5 Q103 3 76 11 Q44 21 19 33 L40 130 Q87 109 130.5 99 Q174 89 224 89 Q268 89 300 101 Q332 113 352.5 132.5 Q373 152 383 177.5 Q393 203 393 230 Q393 288 357 309.5 Q321 331 262 331 L104 331 L182 700 L581 700 L559 595 L266 595 L230 429 L296 429 Q342 429 383 419 Q424 409 455 387 Q486 365 503.5 329 Q521 293 521 241 Q521 196 504 151 Q487 106 450.5 70 Q414 34 358 12 Q302 -10 224 -10 Z " />
<glyph glyph-name="six.tab" unicode="&#xff16;" horiz-adv-x="600" d="M543 255 Q543 189 520 139.5 Q497 90 458.5 57 Q420 24 370.5 7 Q321 -10 268 -10 Q166 -10 108.5 47 Q51 104 51 222 Q51 270 59.5 325 Q68 380 87 434 Q106 488 136.5 538 Q167 588 210.5 626 Q254 664 311.5 687 Q369 710 442 710 Q494 710 532 701.5 Q570 693 590 685 L568 590 Q532 603 498.5 608.5 Q465 614 436 614 Q388 614 348 596 Q308 578 276.5 545 Q245 512 222.5 465.5 Q200 419 187 361 Q217 386 261 405.5 Q305 425 361 425 Q396 425 429 415 Q462 405 487.5 384 Q513 363 528 331 Q543 299 543 255 Z M279 81 Q307 81 333 90.5 Q359 100 379 120 Q399 140 411.5 169.5 Q424 199 424 240 Q424 287 396.5 310 Q369 333 326 333 Q282 333 242.5 313 Q203 293 171 264 Q170 248 169.5 232.5 Q169 217 169 200 Q169 146 194.5 113.5 Q220 81 279 81 Z " />
<glyph glyph-name="seven.tab" unicode="&#xff17;" horiz-adv-x="600" d="M100 0 L460 595 L133 595 L155 700 L612 700 L598 635 L237 0 L100 0 Z " />
<glyph glyph-name="eight.tab" unicode="&#xff18;" horiz-adv-x="600" d="M246 -10 Q182 -10 139.5 3.5 Q97 17 72 39.5 Q47 62 36.5 90.5 Q26 119 26 149 Q26 199 44 235 Q62 271 88 295.5 Q114 320 143 334.5 Q172 349 195 357 Q162 380 140 414 Q118 448 118 497 Q118 544 137 583 Q156 622 190 650.5 Q224 679 271 694.5 Q318 710 374 710 Q431 710 469.5 697 Q508 684 531.5 663 Q555 642 565 616 Q575 590 575 565 Q575 528 564 498 Q553 468 534 444 Q515 420 489 402 Q463 384 434 372 Q477 346 501.5 311 Q526 276 526 222 Q526 167 504.5 124 Q483 81 445.5 51 Q408 21 357 5.5 Q306 -10 246 -10 Z M230 524 Q230 489 260 463 Q290 437 356 409 Q377 419 397.5 432 Q418 445 434.5 461.5 Q451 478 461 498.5 Q471 519 471 544 Q471 577 443 599.5 Q415 622 360 622 Q301 622 265.5 595 Q230 568 230 524 Z M257 78 Q292 78 319.5 88 Q347 98 365.5 114.5 Q384 131 394 152.5 Q404 174 404 198 Q404 221 394.5 238 Q385 255 368 268.5 Q351 282 326.5 293.5 Q302 305 271 317 Q258 311 234.5 300.5 Q211 290 188.5 272 Q166 254 149.5 228.5 Q133 203 133 167 Q133 150 139.5 134 Q146 118 161 105.5 Q176 93 199.5 85.5 Q223 78 257 78 Z " />
<glyph glyph-name="nine.tab" unicode="&#xff19;" horiz-adv-x="600" d="M296 367 Q339 367 379 387 Q419 407 450 436 Q452 452 452 467.5 Q452 483 452 500 Q452 554 426.5 586.5 Q401 619 342 619 Q315 619 288.5 609.5 Q262 600 242 580 Q222 560 209.5 530 Q197 500 197 460 Q197 413 224.5 390 Q252 367 296 367 Z M179 -10 Q128 -10 90 -1.5 Q52 7 32 15 L54 110 Q89 97 122.5 91.5 Q156 86 185 86 Q233 86 273 104 Q313 122 344.5 155 Q376 188 398.5 234.5 Q421 281 435 338 Q405 314 361.5 294.5 Q318 275 261 275 Q225 275 192.5 285 Q160 295 134.5 316 Q109 337 94 369 Q79 401 79 445 Q79 511 102 560.5 Q125 610 163.5 643 Q202 676 251.5 693 Q301 710 354 710 Q456 710 513.5 653 Q571 596 571 478 Q571 430 562.5 375 Q554 320 534.5 266 Q515 212 484.5 162 Q454 112 410.5 74 Q367 36 309.5 13 Q252 -10 179 -10 Z " />
<glyph glyph-name="uni215F" unicode="&#x215f;" horiz-adv-x="368" d="M82 376 L94 431 L150 431 L191 621 L135 621 L147 677 L195 677 Q211 677 223.5 685.5 Q236 694 241 703 L288 703 L229 431 L289 431 L277 376 L82 376 Z M561 700 L633 700 L114 0 L42 0 L561 700 Z " />
<glyph glyph-name="uni2153" unicode="&#x2153;" horiz-adv-x="649" d="M60 376 L72 431 L128 431 L169 621 L113 621 L125 677 L173 677 Q189 677 201.5 685.5 Q214 694 219 703 L266 703 L207 431 L267 431 L255 376 L60 376 Z M544 700 L616 700 L97 0 L25 0 L544 700 Z M342 74 Q367 65 391.5 61.5 Q416 58 436 58 Q464 58 477.5 70 Q491 82 491 102 Q491 120 481 127 Q471 134 454 134 L414 134 L426 194 L466 194 Q487 194 501.5 204.5 Q516 215 516 235 Q516 247 507.5 255.5 Q499 264 477 264 Q460 264 437 261.5 Q414 259 385 252 L398 313 Q413 317 430 321 Q444 324 462.5 326.5 Q481 329 501 329 Q528 329 546 323 Q564 317 575 306.5 Q586 296 591 282.5 Q596 269 596 255 Q596 221 577.5 198 Q559 175 525 166 L525 164 Q571 148 571 104 Q571 84 563.5 64.5 Q556 45 540 29.5 Q524 14 498 4.5 Q472 -5 436 -5 Q413 -5 394 -2.5 Q375 0 361 4 Q344 8 330 14 L342 74 Z " />
<glyph glyph-name="uni2154" unicode="&#x2154;" horiz-adv-x="689" d="M55 376 L68 435 Q72 454 79 468 Q86 482 98.5 494 Q111 506 129.5 518 Q148 530 176 545 Q216 568 233.5 582.5 Q251 597 251 614 Q251 623 243 630 Q235 637 213 637 Q190 637 162.5 631.5 Q135 626 110 615 L124 683 Q139 689 157 694 Q172 698 191.5 701.5 Q211 705 234 705 Q288 705 309.5 682 Q331 659 331 631 Q331 610 325.5 593.5 Q320 577 307 562 Q294 547 272 531.5 Q250 516 218 498 Q184 479 170.5 470.5 Q157 462 153 451 L151 443 L302 443 L287 376 L55 376 Z M583 700 L655 700 L136 0 L64 0 L583 700 Z M382 74 Q407 65 431.5 61.5 Q456 58 476 58 Q504 58 517.5 70 Q531 82 531 102 Q531 120 521 127 Q511 134 494 134 L454 134 L466 194 L506 194 Q527 194 541.5 204.5 Q556 215 556 235 Q556 247 547.5 255.5 Q539 264 517 264 Q500 264 477 261.5 Q454 259 425 252 L438 313 Q453 317 470 321 Q484 324 502.5 326.5 Q521 329 541 329 Q568 329 586 323 Q604 317 615 306.5 Q626 296 631 282.5 Q636 269 636 255 Q636 221 617.5 198 Q599 175 565 166 L565 164 Q611 148 611 104 Q611 84 603.5 64.5 Q596 45 580 29.5 Q564 14 538 4.5 Q512 -5 476 -5 Q453 -5 434 -2.5 Q415 0 401 4 Q384 8 370 14 L382 74 Z " />
</font>
</svg>
