<?xml version="1.0" encoding="UTF-8"?>
<svg xmlns="http://www.w3.org/2000/svg" xmlns:xlink="http://www.w3.org/1999/xlink" version="1.2" >
<font id="Catalana Sans Bold">
<font-face  font-family="Catalana Sans" units-per-em="1000" ascent="1000" descent="-300" font-style="normal" font-weight="700" font-stretch="normal" slope="-12" cap-height="700" x-height="530" underline-position="-75" underline-thickness="50" />
<missing-glyph  horiz-adv-x="787" d="M275 518 Q292 526 322.5 537.5 Q353 549 393 549 Q434 549 462 540 Q490 531 507.5 516 Q525 501 532.5 482 Q540 463 540 443 Q540 406 521.5 381 Q503 356 461 337 Q432 325 422 318 Q412 311 411 298 L406 259 L334 259 L328 298 Q325 317 329.5 329.5 Q334 342 344 351.5 Q354 361 368 368 Q382 375 398 383 Q414 390 422.5 397 Q431 404 435 410 Q439 416 439.5 421.5 Q440 427 440 432 Q440 448 427 459.5 Q414 471 382 471 Q356 471 333 466 Q310 461 275 445 L275 518 Z M315 168 Q315 191 330 206.5 Q345 222 371 222 Q397 222 411.5 206.5 Q426 191 426 168 Q426 148 411.5 132.5 Q397 117 371 117 Q345 117 330 132.5 Q315 148 315 168 Z M32 349 Q32 424 60.5 490 Q89 556 138 604.5 Q187 653 253 681.5 Q319 710 394 710 Q469 710 535 681.5 Q601 653 649.5 604.5 Q698 556 726.5 490 Q755 424 755 349 Q755 274 726.5 209 Q698 144 648.5 95 Q599 46 533.5 18 Q468 -10 393 -10 Q318 -10 252 18 Q186 46 137.5 95 Q89 144 60.5 209 Q32 274 32 349 Z M107 349 Q107 289 129 237 Q151 185 190 146 Q229 107 281 84.5 Q333 62 393 62 Q453 62 505 84.5 Q557 107 595.5 146 Q634 185 656.5 237 Q679 289 679 349 Q679 409 657 461.5 Q635 514 596.5 553 Q558 592 506 614.5 Q454 637 394 637 Q334 637 281.5 614.5 Q229 592 190.5 553 Q152 514 129.5 461.5 Q107 409 107 349 Z " />
<glyph glyph-name="NULL" d="" />
<glyph glyph-name="nonmarkingreturn" unicode="&#xd;" d="" />
<glyph glyph-name="space" unicode="&#x20;" horiz-adv-x="204" d="" />
<glyph glyph-name="exclam" unicode="&#x21;" horiz-adv-x="279" d="M79 225 L51 529 L51 700 L227 700 L227 529 L200 225 L79 225 Z M50 75 Q50 91 57 106.5 Q64 122 76 133.5 Q88 145 104.5 152 Q121 159 139 159 Q158 159 174.5 152 Q191 145 203 133.5 Q215 122 222 106.5 Q229 91 229 75 Q229 40 203 15 Q177 -10 139 -10 Q102 -10 76 15 Q50 40 50 75 Z " />
<glyph glyph-name="quotedbl" unicode="&#x22;" horiz-adv-x="400" d="M242 442 L220 628 L220 700 L357 700 L357 628 L335 442 L242 442 Z M65 442 L43 628 L43 700 L180 700 L180 628 L158 442 L65 442 Z " />
<glyph glyph-name="numbersign" unicode="&#x23;" horiz-adv-x="560" d="M489 146 L379 146 L331 0 L239 0 L287 146 L195 146 L147 0 L55 0 L103 146 L31 146 L31 222 L128 222 L157 309 L71 309 L71 385 L182 385 L230 530 L322 530 L274 385 L366 385 L414 530 L506 530 L458 385 L529 385 L529 309 L433 309 L404 222 L489 222 L489 146 Z M220 222 L312 222 L341 309 L249 309 L220 222 Z " />
<glyph glyph-name="dollar" unicode="&#x24;" horiz-adv-x="571" d="M543 217 Q543 169 527 130.5 Q511 92 482 64 Q453 36 412 18.5 Q371 1 321 -6 L321 -102 L256 -102 L256 -10 Q202 -9 148.5 -4 Q95 1 43 17 L43 144 Q85 133 136.5 124 Q188 115 256 114 L256 282 Q204 298 164 317 Q124 336 97 362 Q70 388 56.5 422.5 Q43 457 43 505 Q43 547 58.5 581 Q74 615 102 641 Q130 667 169 683.5 Q208 700 256 706 L256 787 L321 787 L321 710 Q361 709 395.5 705 Q430 701 455 696 Q484 691 508 684 L508 557 Q463 569 417.5 577 Q372 585 321 586 L321 424 Q372 407 413 388 Q454 369 483 344 Q512 319 527.5 288 Q543 257 543 217 Z M388 192 Q388 217 372 232 Q356 247 321 261 L321 120 Q357 129 372.5 147.5 Q388 166 388 192 Z M189 517 Q189 497 202 481 Q215 465 256 448 L256 579 Q189 563 189 517 Z " />
<glyph glyph-name="percent" unicode="&#x25;" horiz-adv-x="674" d="M208 540 Q208 581 200.5 603.5 Q193 626 167 626 Q141 626 133.5 603.5 Q126 581 126 540 Q126 499 133.5 476.5 Q141 454 167 454 Q193 454 200.5 476.5 Q208 499 208 540 Z M304 540 Q304 453 267 413 Q230 373 168 373 Q106 373 68 413.5 Q30 454 30 541 Q30 627 68 667 Q106 707 168 707 Q229 707 266.5 667 Q304 627 304 540 Z M546 162 Q546 203 538.5 225.5 Q531 248 505 248 Q479 248 471.5 225.5 Q464 203 464 162 Q464 121 471.5 98.5 Q479 76 505 76 Q531 76 538.5 98.5 Q546 121 546 162 Z M642 162 Q642 75 605 35 Q568 -5 506 -5 Q444 -5 406 35.5 Q368 76 368 163 Q368 249 406 289 Q444 329 506 329 Q567 329 604.5 289 Q642 249 642 162 Z M52 0 L539 700 L621 700 L135 0 L52 0 Z " />
<glyph glyph-name="ampersand" unicode="&#x26;" horiz-adv-x="704" d="M272 560 Q272 540 289.5 514 Q307 488 345 442 Q369 460 390.5 489 Q412 518 412 556 Q412 593 392 608 Q372 623 348 623 Q313 623 292.5 606 Q272 589 272 560 Z M292 103 Q347 103 399 138 L259 307 Q248 302 235.5 294 Q223 286 212 273 Q201 260 193.5 242 Q186 224 186 199 Q186 181 192.5 163.5 Q199 146 212 132.5 Q225 119 245 111 Q265 103 292 103 Z M469 54 Q425 24 371 7 Q317 -10 248 -10 Q192 -10 150 5 Q108 20 80.5 45 Q53 70 39.5 102 Q26 134 26 168 Q26 219 46 255 Q66 291 94.5 314.5 Q123 338 154 351 Q185 364 207 370 Q181 402 166.5 427.5 Q152 453 145.5 474 Q139 495 137.5 511.5 Q136 528 136 542 Q136 572 149.5 602 Q163 632 189 656 Q215 680 252.5 695 Q290 710 339 710 Q390 710 427 698.5 Q464 687 487 667 Q510 647 521 620 Q532 593 532 563 Q532 531 521.5 504 Q511 477 493 453.5 Q475 430 451 410.5 Q427 391 400 376 L502 253 Q533 302 556 369 L668 369 Q651 316 628.5 264 Q606 212 575 165 L613 119 Q620 111 627 108 Q634 105 645 105 L682 105 L682 0 L587 0 Q540 0 515 14 Q490 28 472 50 L469 54 Z " />
<glyph glyph-name="quotesingle" unicode="&#x27;" horiz-adv-x="223" d="M65 442 L43 628 L43 700 L180 700 L180 628 L158 442 L65 442 Z " />
<glyph glyph-name="parenleft" unicode="&#x28;" horiz-adv-x="341" d="M38 416 Q38 479 56 534.5 Q74 590 106 637.5 Q138 685 182.5 724.5 Q227 764 280 796 L333 730 Q297 697 269 663.5 Q241 630 222.5 592.5 Q204 555 194 511.5 Q184 468 184 416 L184 265 Q184 213 194 169.5 Q204 126 222.5 88.5 Q241 51 269 17.5 Q297 -16 333 -49 L280 -115 Q227 -84 182.5 -44 Q138 -4 106 43.5 Q74 91 56 146.5 Q38 202 38 265 L38 416 Z " />
<glyph glyph-name="parenright" unicode="&#x29;" horiz-adv-x="341" d="M303.002 265.025 Q303.002 202.029 285.003 146.533 Q267.005 91.036 235.006 43.5389 Q203.008 -3.95819 158.511 -43.4558 Q114.014 -82.9534 61.0171 -114.951 L8.02032 -48.9554 Q44.0181 -15.9575 72.0164 17.5405 Q100.015 51.0385 118.514 88.5362 Q137.012 126.034 147.012 169.531 Q157.011 213.029 157.011 265.025 L157.011 416.016 Q157.011 468.013 147.012 511.51 Q137.012 555.008 118.514 592.505 Q100.015 630.003 72.0164 663.501 Q44.0181 696.999 8.02032 729.997 L61.0171 795.993 Q114.014 764.995 158.511 724.997 Q203.008 685 235.006 637.503 Q267.005 590.006 285.003 534.509 Q303.002 479.012 303.002 416.016 L303.002 265.025 Z " />
<glyph glyph-name="asterisk" unicode="&#x2a;" horiz-adv-x="446" d="M253 563 L314 623 L366 650 L415 553 L364 527 L267 509 L340 456 L374 410 L288 345 L253 391 L223 474 L193 391 L158 345 L72 410 L106 456 L179 509 L82 527 L31 553 L80 650 L132 623 L193 563 L169 643 L169 700 L277 700 L277 643 L253 563 Z " />
<glyph glyph-name="plus" unicode="&#x2b;" horiz-adv-x="494" d="M33 386 L198 386 L198 552 L296 552 L296 386 L461 386 L461 291 L296 291 L296 124 L198 124 L198 291 L33 291 L33 386 Z " />
<glyph glyph-name="comma" unicode="&#x2c;" horiz-adv-x="247" d="M49 -96 L87 -24 L79 -1 Q38 17 38 71 Q38 108 59 129.5 Q80 151 123 151 Q166 151 187.5 129.5 Q209 108 209 71 Q209 57 203.5 43.5 Q198 30 192 18 L113 -130 L49 -96 Z " />
<glyph glyph-name="hyphen" unicode="&#x2d;" horiz-adv-x="349" d="M54 335 L295 335 L295 230 L54 230 L54 335 Z " />
<glyph glyph-name="period" unicode="&#x2e;" horiz-adv-x="241" d="M35 71 Q35 87 41.5 101.5 Q48 116 59.5 127 Q71 138 86.5 144.5 Q102 151 120 151 Q138 151 153.5 144.5 Q169 138 180.5 127 Q192 116 199 101.5 Q206 87 206 71 Q206 54 199 39.5 Q192 25 180.5 14 Q169 3 153.5 -3.5 Q138 -10 120 -10 Q102 -10 86.5 -3.5 Q71 3 59.5 14 Q48 25 41.5 39.5 Q35 54 35 71 Z " />
<glyph glyph-name="slash" unicode="&#x2f;" horiz-adv-x="437" d="M20 -102 L312 787 L418 787 L126 -102 L20 -102 Z " />
<glyph glyph-name="zero" unicode="0" horiz-adv-x="636" d="M594 350 Q594 259 573 191.5 Q552 124 515.5 79 Q479 34 428.5 12 Q378 -10 318 -10 Q258 -10 207.5 12 Q157 34 120.5 79 Q84 124 63 191.5 Q42 259 42 350 Q42 441 63 509 Q84 577 120.5 621.5 Q157 666 207.5 688 Q258 710 318 710 Q378 710 428.5 688 Q479 666 515.5 621.5 Q552 577 573 509 Q594 441 594 350 Z M424 350 Q424 468 401.5 527 Q379 586 318 586 Q257 586 234.5 527 Q212 468 212 350 Q212 232 234.5 173 Q257 114 318 114 Q379 114 401.5 173 Q424 232 424 350 Z " />
<glyph glyph-name="one" unicode="1" horiz-adv-x="475" d="M134 661 Q151 661 169.5 665 Q188 669 204 675.5 Q220 682 232 691 Q244 700 247 710 L328 710 L328 105 L450 105 L450 0 L44 0 L44 105 L166 105 L166 553 L44 553 L44 661 L134 661 Z " />
<glyph glyph-name="two" unicode="2" horiz-adv-x="562" d="M54 662 Q60 665 79 672.5 Q98 680 127.5 688.5 Q157 697 194.5 703.5 Q232 710 275 710 Q339 710 384 693.5 Q429 677 457.5 650 Q486 623 499 588.5 Q512 554 512 517 Q512 478 500.5 446.5 Q489 415 465 385.5 Q441 356 404 326.5 Q367 297 316 261 Q279 237 257.5 219.5 Q236 202 224.5 188.5 Q213 175 210 163 Q207 151 207 138 L207 131 L520 131 L520 0 L43 0 L43 131 Q43 159 51.5 185.5 Q60 212 80.5 239 Q101 266 135 295 Q169 324 219 359 Q258 386 282.5 405 Q307 424 321 440.5 Q335 457 340 473 Q345 489 345 510 Q345 542 322.5 563 Q300 584 251 584 Q194 584 147 572 Q100 560 54 543 L54 662 Z " />
<glyph glyph-name="three" unicode="3" horiz-adv-x="540" d="M51 681 Q76 689 107 695 Q133 700 167.5 705 Q202 710 242 710 Q309 710 355 694.5 Q401 679 430 653.5 Q459 628 472 595.5 Q485 563 485 529 Q485 491 475.5 462.5 Q466 434 449 413.5 Q432 393 409 379.5 Q386 366 358 359 L358 355 Q424 339 460.5 301.5 Q497 264 497 189 Q497 151 483.5 115.5 Q470 80 439 52 Q408 24 359 7 Q310 -10 239 -10 Q156 -10 109.5 0.5 Q63 11 41 16 L41 138 Q81 127 124 118 Q167 109 221 109 Q277 109 303.5 136 Q330 163 330 203 Q330 258 303.5 280 Q277 302 229 302 L155 302 L155 415 L228 415 Q270 415 295 437.5 Q320 460 320 508 Q320 545 299 567.5 Q278 590 224 590 Q174 590 131 583.5 Q88 577 51 567 L51 681 Z " />
<glyph glyph-name="four" unicode="4" horiz-adv-x="610" d="M23 284 L346 710 L497 710 L497 284 L579 284 L579 162 L497 162 L497 0 L335 0 L335 162 L23 162 L23 284 Z M335 516 L156 284 L335 284 L335 516 Z " />
<glyph glyph-name="five" unicode="5" horiz-adv-x="559" d="M488 569 L199 569 L199 442 L250 442 Q384 442 455.5 386 Q527 330 527 224 Q527 182 512 140 Q497 98 464.5 64.5 Q432 31 380 10 Q328 -11 254 -11 Q166 -11 114 2.5 Q62 16 46 22 L46 150 Q89 136 133 125 Q177 114 241 114 Q304 114 332.5 142.5 Q361 171 361 208 Q361 268 325 292.5 Q289 317 226 317 L67 317 L67 700 L488 700 L488 569 Z " />
<glyph glyph-name="six" unicode="6" horiz-adv-x="581" d="M553 218 Q553 160 532.5 117.5 Q512 75 477 46.5 Q442 18 396 4 Q350 -10 300 -10 Q241 -10 193.5 8 Q146 26 112 64.5 Q78 103 60 162 Q42 221 42 303 Q42 377 56.5 450 Q71 523 107.5 580.5 Q144 638 206.5 674 Q269 710 365 710 Q391 710 413 707.5 Q435 705 452 703 Q471 700 489 697 L489 576 Q465 582 440 585.5 Q415 589 383 589 Q331 589 297.5 573 Q264 557 243.5 528.5 Q223 500 214.5 461.5 Q206 423 203 378 Q232 402 269.5 413.5 Q307 425 345 425 Q385 425 422.5 413 Q460 401 489 375.5 Q518 350 535.5 311 Q553 272 553 218 Z M304 103 Q350 103 374.5 130.5 Q399 158 399 209 Q399 261 374.5 287.5 Q350 314 307 314 Q282 314 254.5 307 Q227 300 202 279 Q205 187 230.5 145 Q256 103 304 103 Z " />
<glyph glyph-name="seven" unicode="7" horiz-adv-x="513" d="M100 0 L318 566 L23 566 L23 700 L498 700 L498 618 L269 0 L100 0 Z " />
<glyph glyph-name="eight" unicode="8" horiz-adv-x="588" d="M288 -10 Q218 -10 170.5 5 Q123 20 94 45 Q65 70 52.5 101 Q40 132 40 165 Q40 206 52 235.5 Q64 265 82 286 Q100 307 121 319.5 Q142 332 159 340 Q117 367 89.5 406.5 Q62 446 62 506 Q62 552 79.5 590 Q97 628 128.5 654.5 Q160 681 204.5 695.5 Q249 710 304 710 Q368 710 411 694 Q454 678 479.5 653 Q505 628 515.5 597.5 Q526 567 526 538 Q526 484 501 445 Q476 406 438 383 Q488 356 517.5 316 Q547 276 547 213 Q547 159 528 117 Q509 75 474.5 47 Q440 19 392.5 4.5 Q345 -10 288 -10 Z M199 534 Q199 519 203.5 505.5 Q208 492 223.5 479 Q239 466 268.5 451.5 Q298 437 348 421 Q368 435 382.5 457.5 Q397 480 397 512 Q397 554 370 576.5 Q343 599 295 599 Q250 599 224.5 581 Q199 563 199 534 Z M290 101 Q342 101 367 126.5 Q392 152 392 184 Q392 206 383 222 Q374 238 355.5 251.5 Q337 265 309 276.5 Q281 288 243 300 Q235 295 223.5 285 Q212 275 201.5 261 Q191 247 183.5 229.5 Q176 212 176 191 Q176 173 181.5 156.5 Q187 140 200.5 128 Q214 116 236 108.5 Q258 101 290 101 Z " />
<glyph glyph-name="nine" unicode="9" horiz-adv-x="581" d="M274 386 Q299 386 326.5 393 Q354 400 379 421 Q376 512 352 554 Q328 596 277 596 Q182 596 182 491 Q182 386 274 386 Z M216 -10 Q190 -10 167.5 -8 Q145 -6 128 -4 Q108 -1 92 3 L92 124 Q116 118 141 114.5 Q166 111 198 111 Q250 111 283.5 127 Q317 143 337.5 171.5 Q358 200 366.5 238.5 Q375 277 378 322 Q349 298 311.5 286.5 Q274 275 236 275 Q196 275 158.5 287 Q121 299 92 324.5 Q63 350 45.5 389 Q28 428 28 482 Q28 539 48.5 582 Q69 625 104 653.5 Q139 682 185 696 Q231 710 281 710 Q340 710 387.5 691.5 Q435 673 469 635 Q503 597 521 537.5 Q539 478 539 397 Q539 323 524.5 250 Q510 177 473.5 119.5 Q437 62 374.5 26 Q312 -10 216 -10 Z " />
<glyph glyph-name="colon" unicode="&#x3a;" horiz-adv-x="277" d="M53 71 Q53 87 59.5 101.5 Q66 116 77.5 127 Q89 138 104.5 144.5 Q120 151 138 151 Q156 151 171.5 144.5 Q187 138 198.5 127 Q210 116 217 101.5 Q224 87 224 71 Q224 54 217 39.5 Q210 25 198.5 14 Q187 3 171.5 -3.5 Q156 -10 138 -10 Q120 -10 104.5 -3.5 Q89 3 77.5 14 Q66 25 59.5 39.5 Q53 54 53 71 Z M53 460 Q53 476 59.5 490.5 Q66 505 77.5 516 Q89 527 104.5 533.5 Q120 540 138 540 Q156 540 171.5 533.5 Q187 527 198.5 516 Q210 505 217 490.5 Q224 476 224 460 Q224 443 217 428.5 Q210 414 198.5 403 Q187 392 171.5 385.5 Q156 379 138 379 Q120 379 104.5 385.5 Q89 392 77.5 403 Q66 414 59.5 428.5 Q53 443 53 460 Z " />
<glyph glyph-name="semicolon" unicode="&#x3b;" horiz-adv-x="279" d="M54 460 Q54 476 60.5 490.5 Q67 505 78.5 516 Q90 527 105.5 533.5 Q121 540 139 540 Q157 540 172.5 533.5 Q188 527 199.5 516 Q211 505 218 490.5 Q225 476 225 460 Q225 443 218 428.5 Q211 414 199.5 403 Q188 392 172.5 385.5 Q157 379 139 379 Q121 379 105.5 385.5 Q90 392 78.5 403 Q67 414 60.5 428.5 Q54 443 54 460 Z M54 71 Q54 108 75 129.5 Q96 151 139 151 Q182 151 203.5 129.5 Q225 108 225 71 Q225 57 219.5 43.5 Q214 30 208 18 L129 -130 L65 -96 L103 -24 L95 -1 Q54 17 54 71 Z " />
<glyph glyph-name="less" unicode="&#x3c;" horiz-adv-x="515" d="M31 305 L31 372 L459 545 L459 442 L185 340 L459 233 L459 131 L31 305 Z " />
<glyph glyph-name="equal" unicode="&#x3d;" horiz-adv-x="544" d="M58 470 L486 470 L486 375 L58 375 L58 470 Z M58 305 L486 305 L486 210 L58 210 L58 305 Z " />
<glyph glyph-name="greater" unicode="&#x3e;" horiz-adv-x="516" d="M56 131 L56 233 L330 340 L56 442 L56 545 L484 372 L484 305 L56 131 Z " />
<glyph glyph-name="question" unicode="&#x3f;" horiz-adv-x="501" d="M101 76 Q101 113 125.5 138.5 Q150 164 192 164 Q236 164 260.5 138.5 Q285 113 285 76 Q285 41 260.5 15.5 Q236 -10 192 -10 Q150 -10 125.5 15.5 Q101 41 101 76 Z M33 657 Q46 664 66 673 Q86 682 111.5 690.5 Q137 699 166.5 704.5 Q196 710 229 710 Q297 710 344 695 Q391 680 420 655 Q449 630 462 598.5 Q475 567 475 534 Q475 472 444 430.5 Q413 389 342 358 Q318 347 303 339.5 Q288 332 279 324.5 Q270 317 266 309 Q262 301 261 289 L255 225 L130 225 L123 289 Q119 322 127 343.5 Q135 365 151 381 Q167 397 189.5 408.5 Q212 420 239 433 Q265 445 279 456.5 Q293 468 300 478.5 Q307 489 308 498 Q309 507 309 516 Q309 542 287 560.5 Q265 579 211 579 Q190 579 170 577 Q150 575 129.5 570.5 Q109 566 85.5 558 Q62 550 33 537 L33 657 Z " />
<glyph glyph-name="at" unicode="&#x40;" horiz-adv-x="881" d="M225 246 Q225 300 239.5 350.5 Q254 401 281.5 440.5 Q309 480 348.5 504 Q388 528 438 528 Q467 528 490.5 515.5 Q514 503 528 482 L531 482 L532 486 Q535 498 543.5 509 Q552 520 575 520 L656 520 L599 256 Q597 248 596 241 Q595 234 595 226 Q595 206 607.5 191.5 Q620 177 652 177 Q672 177 692 189.5 Q712 202 728 227 Q744 252 754 290.5 Q764 329 764 382 Q764 433 747.5 479.5 Q731 526 697.5 562 Q664 598 614 619 Q564 640 498 640 Q415 640 347.5 611.5 Q280 583 231.5 533 Q183 483 156.5 413.5 Q130 344 130 263 Q130 197 148.5 150.5 Q167 104 196 72 Q225 40 261.5 21 Q298 2 333.5 -8 Q369 -18 400.5 -21 Q432 -24 452 -24 Q513 -24 559.5 -16.5 Q606 -9 646 2 L651 -51 Q611 -70 558 -82.5 Q505 -95 442 -95 Q416 -95 376.5 -91 Q337 -87 292 -74.5 Q247 -62 202 -38.5 Q157 -15 121 25 Q85 65 62.5 123 Q40 181 40 263 Q40 359 73 441 Q106 523 166 583 Q226 643 310.5 676.5 Q395 710 498 710 Q587 710 653.5 683 Q720 656 764.5 610.5 Q809 565 831.5 505.5 Q854 446 854 382 Q854 304 830 250.5 Q806 197 769.5 163.5 Q733 130 689 115.5 Q645 101 605 101 Q559 101 523.5 116.5 Q488 132 472 161 Q451 134 417.5 118.5 Q384 103 346 103 Q316 103 293.5 114 Q271 125 256 144 Q241 163 233 189.5 Q225 216 225 246 Z M400 203 Q411 203 430 209.5 Q449 216 466 232 L505 410 Q493 418 479.5 423 Q466 428 449 428 Q427 428 410.5 414 Q394 400 382.5 376.5 Q371 353 365 323 Q359 293 359 262 Q359 239 368 221 Q377 203 400 203 Z " />
<glyph glyph-name="A" unicode="A" horiz-adv-x="635" d="M420 131 L199 131 L158 0 L4 0 L235 702 L397 702 L633 0 L461 0 L420 131 Z M235 249 L383 249 L309 485 L235 249 Z " />
<glyph glyph-name="B" unicode="B" horiz-adv-x="625" d="M67 700 L313 700 Q370 700 416.5 689 Q463 678 496 656 Q529 634 547 601 Q565 568 565 523 Q565 461 537.5 424 Q510 387 459 367 L459 363 Q523 342 559 300.5 Q595 259 595 190 Q595 141 577 105 Q559 69 525 46 Q491 23 443.5 11.5 Q396 0 337 0 L67 0 L67 700 Z M227 582 L227 417 L301 417 Q404 417 404 503 Q404 582 301 582 L227 582 Z M227 299 L227 118 L329 118 Q381 118 405 139 Q429 160 429 205 Q429 253 405 276 Q381 299 329 299 L227 299 Z " />
<glyph glyph-name="C" unicode="C" horiz-adv-x="544" d="M515 18 Q489 8 450.5 -1 Q412 -10 347 -10 Q201 -10 119 76 Q37 162 37 344 Q37 436 61 505 Q85 574 128.5 619.5 Q172 665 232.5 687.5 Q293 710 365 710 Q396 710 421.5 707.5 Q447 705 465 702 Q486 698 503 695 L503 567 Q488 571 476.5 573.5 Q465 576 453 577.5 Q441 579 427 580 Q413 581 394 581 Q341 581 305.5 566 Q270 551 248 522.5 Q226 494 216.5 452 Q207 410 207 357 Q207 300 215 255.5 Q223 211 242.5 181 Q262 151 294 135.5 Q326 120 375 120 Q416 120 446 127 Q476 134 515 147 L515 18 Z " />
<glyph glyph-name="D" unicode="D" horiz-adv-x="668" d="M67 700 L303 700 Q377 700 437.5 679 Q498 658 541.5 615.5 Q585 573 608.5 508 Q632 443 632 355 Q632 265 608.5 198 Q585 131 541.5 87 Q498 43 437.5 21.5 Q377 0 303 0 L67 0 L67 700 Z M229 124 L303 124 Q348 124 378.5 138 Q409 152 427.5 181 Q446 210 454 253 Q462 296 462 355 Q462 411 454 452.5 Q446 494 427.5 521.5 Q409 549 378.5 562.5 Q348 576 303 576 L229 576 L229 124 Z " />
<glyph glyph-name="E" unicode="E" horiz-adv-x="563" d="M229 576 L229 418 L480 418 L480 296 L229 296 L229 124 L527 124 L527 0 L67 0 L67 700 L522 700 L522 576 L229 576 Z " />
<glyph glyph-name="F" unicode="F" horiz-adv-x="562" d="M229 576 L229 399 L490 399 L490 275 L229 275 L229 0 L67 0 L67 700 L532 700 L532 576 L229 576 Z " />
<glyph glyph-name="G" unicode="G" horiz-adv-x="598" d="M555 30 Q524 17 477 3.5 Q430 -10 356 -10 Q281 -10 221.5 10 Q162 30 121 73 Q80 116 58 183.5 Q36 251 36 345 Q36 438 60.5 506.5 Q85 575 129 620 Q173 665 235.5 687.5 Q298 710 374 710 Q406 710 434 707 Q462 704 482 700 Q506 696 526 691 L526 565 Q495 570 461 576.5 Q427 583 387 583 Q336 583 301 567.5 Q266 552 245 522.5 Q224 493 215 451.5 Q206 410 206 359 Q206 300 215 254.5 Q224 209 244.5 177.5 Q265 146 299 130 Q333 114 384 114 Q398 114 412 117 L412 343 L555 343 L555 30 Z " />
<glyph glyph-name="H" unicode="H" horiz-adv-x="670" d="M441 295 L229 295 L229 0 L67 0 L67 700 L229 700 L229 419 L441 419 L441 700 L603 700 L603 0 L441 0 L441 295 Z " />
<glyph glyph-name="I" unicode="I" horiz-adv-x="296" d="M67 700 L229 700 L229 0 L67 0 L67 700 Z " />
<glyph glyph-name="J" unicode="J" horiz-adv-x="445" d="M220 700 L382 700 L382 222 Q382 114 326.5 52 Q271 -10 151 -10 Q100 -10 65.5 -0.5 Q31 9 16 17 L16 142 Q70 118 127 118 Q177 118 198.5 138.5 Q220 159 220 216 L220 700 Z " />
<glyph glyph-name="K" unicode="K" horiz-adv-x="631" d="M276 295 L229 295 L229 0 L67 0 L67 700 L229 700 L229 419 L272 419 L446 700 L616 700 L409 370 L636 0 L446 0 L276 295 Z " />
<glyph glyph-name="L" unicode="L" horiz-adv-x="540" d="M229 124 L527 124 L527 0 L67 0 L67 700 L229 700 L229 124 Z " />
<glyph glyph-name="M" unicode="M" horiz-adv-x="769" d="M212 421 L212 0 L67 0 L67 700 L238 700 L392 386 L542 700 L702 700 L702 0 L552 0 L552 434 L432 197 L331 197 L212 421 Z " />
<glyph glyph-name="N" unicode="N" horiz-adv-x="669" d="M488 -3 L206 431 L206 0 L66 0 L66 700 L206 700 L462 306 L462 700 L602 700 L602 -3 L488 -3 Z " />
<glyph glyph-name="O" unicode="O" horiz-adv-x="672" d="M36 350 Q36 441 58.5 509 Q81 577 121 621.5 Q161 666 216 688 Q271 710 336 710 Q401 710 456 688 Q511 666 551 621.5 Q591 577 613.5 509 Q636 441 636 350 Q636 258 613.5 190.5 Q591 123 551 78.5 Q511 34 456 12 Q401 -10 336 -10 Q271 -10 216 12 Q161 34 121 78.5 Q81 123 58.5 190.5 Q36 258 36 350 Z M206 350 Q206 231 235 174 Q264 117 336 117 Q408 117 437 174 Q466 231 466 350 Q466 469 437 526 Q408 583 336 583 Q264 583 235 526 Q206 469 206 350 Z " />
<glyph glyph-name="P" unicode="P" horiz-adv-x="605" d="M67 700 L304 700 Q433 700 507.5 646.5 Q582 593 582 478 Q582 416 562.5 371.5 Q543 327 506.5 297.5 Q470 268 418.5 254 Q367 240 304 240 L229 240 L229 0 L67 0 L67 700 Z M229 582 L229 358 L304 358 Q368 358 391 385.5 Q414 413 414 470 Q414 526 391 554 Q368 582 304 582 L229 582 Z " />
<glyph glyph-name="Q" unicode="Q" horiz-adv-x="671" d="M36 350 Q36 441 58.5 509 Q81 577 121 621.5 Q161 666 216 688 Q271 710 336 710 Q401 710 456 688 Q511 666 551 621.5 Q591 577 613.5 509 Q636 441 636 350 Q636 223 594 142.5 Q552 62 481 24 L524 -15 L566 -33 L636 -33 L636 -142 L502 -142 Q473 -142 447.5 -129.5 Q422 -117 405 -100 L310 -9 Q250 -5 199.5 19 Q149 43 113 87.5 Q77 132 56.5 197.5 Q36 263 36 350 Z M206 350 Q206 231 235 174 Q264 117 336 117 Q408 117 437 174 Q466 231 466 350 Q466 469 437 526 Q408 583 336 583 Q264 583 235 526 Q206 469 206 350 Z " />
<glyph glyph-name="R" unicode="R" horiz-adv-x="628" d="M67 700 L307 700 Q368 700 418 688.5 Q468 677 503 653 Q538 629 557 591 Q576 553 576 501 Q576 458 562.5 426 Q549 394 528 373 Q507 352 481.5 340.5 Q456 329 432 326 L432 325 Q469 321 493 294 Q517 267 535 213 L608 0 L427 0 L362 212 Q351 246 344 258 Q337 270 319 270 L229 270 L229 0 L67 0 L67 700 Z M229 582 L229 388 L303 388 Q360 388 384.5 413 Q409 438 409 492 Q409 534 384.5 558 Q360 582 303 582 L229 582 Z " />
<glyph glyph-name="S" unicode="S" horiz-adv-x="524" d="M496 220 Q496 163 476.5 120 Q457 77 422 48 Q387 19 338.5 4.5 Q290 -10 231 -10 Q190 -10 155.5 -6 Q121 -2 95 3 Q65 9 41 17 L41 142 Q81 134 128 124 Q175 114 231 114 Q292 114 315.5 135.5 Q339 157 339 192 Q339 209 333.5 222 Q328 235 315.5 245.5 Q303 256 282.5 265 Q262 274 232 283 Q185 298 149.5 316.5 Q114 335 90 361.5 Q66 388 53.5 423 Q41 458 41 505 Q41 553 59.5 591 Q78 629 110.5 655.5 Q143 682 188 696 Q233 710 286 710 Q324 710 355.5 706 Q387 702 411 697 Q438 691 462 684 L462 557 Q426 567 385 576.5 Q344 586 297 586 Q246 586 218 567.5 Q190 549 190 517 Q190 504 193.5 492 Q197 480 208 469 Q219 458 240 447 Q261 436 296 425 Q342 410 379 391.5 Q416 373 442 348 Q468 323 482 291.5 Q496 260 496 220 Z " />
<glyph glyph-name="T" unicode="T" horiz-adv-x="586" d="M15 700 L571 700 L571 576 L374 576 L374 0 L212 0 L212 576 L15 576 L15 700 Z " />
<glyph glyph-name="U" unicode="U" horiz-adv-x="654" d="M442 700 L592 700 L592 235 Q592 172 572.5 126 Q553 80 518 50 Q483 20 432.5 5 Q382 -10 321 -10 Q262 -10 214.5 5 Q167 20 133 50 Q99 80 80.5 126 Q62 172 62 235 L62 700 L226 700 L226 233 Q226 176 250 147 Q274 118 331 118 Q397 118 419.5 147 Q442 176 442 233 L442 700 Z " />
<glyph glyph-name="V" unicode="V" horiz-adv-x="619" d="M230 -2 L4 700 L178 700 L318 226 L457 700 L613 700 L392 -2 L230 -2 Z " />
<glyph glyph-name="W" unicode="W" horiz-adv-x="962" d="M481 427 L366 -2 L204 -2 L8 700 L177 700 L293 214 L408 700 L570 700 L687 214 L801 700 L952 700 L761 -2 L599 -2 L481 427 Z " />
<glyph glyph-name="X" unicode="X" horiz-adv-x="653" d="M316 234 L164 0 L-9 0 L234 353 L16 700 L203 700 L336 473 L482 700 L652 700 L421 356 L651 0 L461 0 L316 234 Z " />
<glyph glyph-name="Y" unicode="Y" horiz-adv-x="618" d="M234 0 L234 259 L-5 700 L179 700 L319 422 L449 700 L605 700 L396 278 L396 0 L234 0 Z " />
<glyph glyph-name="Z" unicode="Z" horiz-adv-x="581" d="M26 0 L26 84 L338 577 L42 577 L42 700 L538 700 L538 616 L227 124 L553 124 L553 0 L26 0 Z " />
<glyph glyph-name="bracketleft" unicode="&#x5b;" horiz-adv-x="312" d="M57 -102 L57 786 L287 786 L287 686 L198 686 L198 -3 L287 -3 L287 -102 L57 -102 Z " />
<glyph glyph-name="backslash" unicode="&#x5c;" horiz-adv-x="437" d="M19 787 L125 787 L417 -102 L311 -102 L19 787 Z " />
<glyph glyph-name="bracketright" unicode="&#x5d;" horiz-adv-x="312" d="M255.003 -102 L255.003 786 L25.0175 786 L25.0175 686 L114.012 686 L114.012 -3 L25.0175 -3 L25.0175 -102 L255.003 -102 Z " />
<glyph glyph-name="asciicircum" unicode="&#x5e;" horiz-adv-x="430" d="M295 387 L213 593 L134 387 L35 387 L165 700 L262 700 L395 387 L295 387 Z " />
<glyph glyph-name="underscore" unicode="&#x5f;" horiz-adv-x="519" d="M0 -80 L519 -80 L519 -158 L0 -158 L0 -80 Z " />
<glyph glyph-name="grave" unicode="&#x60;" horiz-adv-x="417" d="M280 577 L260 577 L94 668 L165 756 L191 756 L322 623 L280 577 Z " />
<glyph glyph-name="a" unicode="a" horiz-adv-x="511" d="M233 111 Q258 111 278.5 122 Q299 133 310 141 L310 208 L239 208 Q204 208 187 197.5 Q170 187 170 159 Q170 133 185 122 Q200 111 233 111 Z M314 53 Q307 45 294 34.5 Q281 24 263.5 14 Q246 4 223.5 -3 Q201 -10 174 -10 Q135 -10 106 2 Q77 14 58 35 Q39 56 29.5 85 Q20 114 20 148 Q20 229 70 270.5 Q120 312 202 312 L310 312 L310 338 Q310 355 308 369 Q306 383 296.5 393.5 Q287 404 267 409.5 Q247 415 211 415 Q185 415 162 412 Q139 409 119.5 405 Q100 401 86 396.5 Q72 392 65 390 L65 510 Q97 521 147.5 530.5 Q198 540 263 540 Q320 540 357.5 525.5 Q395 511 418 486.5 Q441 462 450.5 429.5 Q460 397 460 360 L460 0 L364 0 Q334 0 326 14 Q318 28 318 44 L318 53 L314 53 Z " />
<glyph glyph-name="b" unicode="b" horiz-adv-x="567" d="M326 -10 Q286 -10 255 7 Q224 24 203 47 L199 47 L199 44 Q199 28 191 14 Q183 0 153 0 L55 0 L55 730 L207 730 L207 474 Q229 501 263.5 520.5 Q298 540 348 540 Q388 540 422.5 523.5 Q457 507 482.5 473.5 Q508 440 522.5 389.5 Q537 339 537 272 Q537 203 520 150.5 Q503 98 474.5 62.5 Q446 27 407.5 8.5 Q369 -10 326 -10 Z M300 116 Q319 116 333.5 124 Q348 132 358 150 Q368 168 373.5 197.5 Q379 227 379 270 Q379 313 373.5 340.5 Q368 368 357 383.5 Q346 399 330.5 404.5 Q315 410 296 410 Q275 410 250.5 399 Q226 388 207 366 L207 171 Q231 140 253 128 Q275 116 300 116 Z " />
<glyph glyph-name="c" unicode="c" horiz-adv-x="439" d="M408 16 Q382 2 344 -4 Q306 -10 268 -10 Q220 -10 177 6 Q134 22 101 55 Q68 88 48.5 138.5 Q29 189 29 258 Q29 329 49.5 382 Q70 435 105.5 470 Q141 505 187.5 522.5 Q234 540 286 540 Q323 540 353.5 536 Q384 532 404 526 L404 403 Q381 408 361 411.5 Q341 415 307 415 Q244 415 215.5 376.5 Q187 338 187 264 Q187 188 219 152 Q251 116 312 116 Q338 116 363 121 Q388 126 408 131 L408 16 Z " />
<glyph glyph-name="d" unicode="d" horiz-adv-x="568" d="M272 120 Q293 120 317.5 131 Q342 142 361 164 L361 359 Q337 390 315 402 Q293 414 268 414 Q230 414 209.5 379.5 Q189 345 189 260 Q189 217 194.5 189.5 Q200 162 211 146.5 Q222 131 237 125.5 Q252 120 272 120 Z M364 60 Q342 31 307 10.5 Q272 -10 220 -10 Q180 -10 145.5 6.5 Q111 23 85.5 56.5 Q60 90 45.5 140 Q31 190 31 258 Q31 327 48 379.5 Q65 432 93.5 467.5 Q122 503 160.5 521.5 Q199 540 242 540 Q280 540 310 524.5 Q340 509 361 488 L361 730 L513 730 L513 0 L415 0 Q385 0 377 14 Q369 28 369 44 L369 60 L364 60 Z " />
<glyph glyph-name="e" unicode="e" horiz-adv-x="500" d="M260 431 Q222 431 205.5 402.5 Q189 374 185 315 L326 315 L326 344 Q326 385 312 408 Q298 431 260 431 Z M444 27 Q424 13 383 1.5 Q342 -10 276 -10 Q229 -10 184.5 5 Q140 20 105.5 52.5 Q71 85 50 135 Q29 185 29 255 Q29 324 46.5 377 Q64 430 94.5 466.5 Q125 503 167.5 521.5 Q210 540 261 540 Q312 540 351.5 524 Q391 508 418 479 Q445 450 458.5 409 Q472 368 472 317 L472 230 L454 211 L186 211 Q191 179 203.5 158.5 Q216 138 234 126 Q252 114 276 109.5 Q300 105 328 105 Q370 105 400.5 113.5 Q431 122 444 126 L444 27 Z " />
<glyph glyph-name="f" unicode="f" horiz-adv-x="357" d="M238 423 L238 0 L86 0 L86 423 L24 423 L24 528 L86 528 L86 558 Q86 592 96 625 Q106 658 128.5 683.5 Q151 709 188 724.5 Q225 740 279 740 Q305 740 326 738 Q347 736 357 734 L357 635 L297 635 Q259 635 248.5 617.5 Q238 600 238 567 L238 528 L350 528 L350 423 L238 423 Z " />
<glyph glyph-name="g" unicode="g" horiz-adv-x="545" d="M325 371 Q325 453 257 453 Q190 453 190 371 Q190 288 257 288 Q325 288 325 371 Z M524 7 Q524 -41 501.5 -76 Q479 -111 440.5 -134.5 Q402 -158 350 -169 Q298 -180 239 -180 Q188 -180 147 -174.5 Q106 -169 76.5 -156.5 Q47 -144 31.5 -123.5 Q16 -103 16 -73 Q16 -38 40.5 -14 Q65 10 93 24 Q67 37 51.5 60 Q36 83 36 115 Q36 145 57 175.5 Q78 206 123 232 Q86 252 64 286.5 Q42 321 42 371 Q42 414 59.5 446 Q77 478 106 499 Q135 520 174 530 Q213 540 257 540 Q303 540 339 530 L518 530 L518 429 L472 429 L465 422 Q473 398 473 371 Q473 328 455.5 296 Q438 264 408.5 243 Q379 222 339.5 211.5 Q300 201 257 201 Q224 201 194 207 Q183 199 176.5 190.5 Q170 182 170 171 Q170 142 213 142 L347 142 Q383 142 415 135 Q447 128 471.5 112 Q496 96 510 70 Q524 44 524 7 Z M258 -85 Q283 -85 305 -81.5 Q327 -78 343.5 -71.5 Q360 -65 370 -54.5 Q380 -44 380 -29 Q380 -4 363 3 Q346 10 314 10 L167 10 Q161 3 154.5 -9 Q148 -21 148 -38 Q148 -58 174.5 -71.5 Q201 -85 258 -85 Z " />
<glyph glyph-name="h" unicode="h" horiz-adv-x="566" d="M294 408 Q271 408 249 396 Q227 384 207 364 L207 0 L55 0 L55 730 L207 730 L207 474 Q215 482 229 493.5 Q243 505 261.5 515.5 Q280 526 303.5 533 Q327 540 355 540 Q401 540 431.5 527.5 Q462 515 480.5 493 Q499 471 506.5 442 Q514 413 514 380 L514 0 L362 0 L362 336 Q362 347 360.5 360 Q359 373 352.5 383.5 Q346 394 332 401 Q318 408 294 408 Z " />
<glyph glyph-name="i" unicode="i" horiz-adv-x="262" d="M207 530 L207 0 L55 0 L55 530 L207 530 Z M46 665 Q46 702 67 723.5 Q88 745 131 745 Q174 745 195 723.5 Q216 702 216 665 Q216 628 195 606.5 Q174 585 131 585 Q88 585 67 606.5 Q46 628 46 665 Z " />
<glyph glyph-name="j" unicode="j" horiz-adv-x="262" d="M-69 -70 L-1 -70 Q31 -70 43 -50 Q55 -30 55 1 L55 530 L207 530 L207 10 Q207 -24 197 -58 Q187 -92 163.5 -119 Q140 -146 102 -163 Q64 -180 9 -180 Q-17 -180 -36 -177 Q-55 -174 -69 -171 L-69 -70 Z M46 665 Q46 702 67 723.5 Q88 745 131 745 Q174 745 195 723.5 Q216 702 216 665 Q216 628 195 606.5 Q174 585 131 585 Q88 585 67 606.5 Q46 628 46 665 Z " />
<glyph glyph-name="k" unicode="k" horiz-adv-x="559" d="M241 225 L207 225 L207 0 L55 0 L55 730 L207 730 L207 338 L231 338 L384 530 L558 530 L368 299 L557 0 L380 0 L241 225 Z " />
<glyph glyph-name="l" unicode="l" horiz-adv-x="262" d="M207 730 L207 0 L55 0 L55 730 L207 730 Z " />
<glyph glyph-name="m" unicode="m" horiz-adv-x="857" d="M287 407 Q261 407 239.5 392 Q218 377 207 365 L207 0 L55 0 L55 530 L153 530 Q183 530 191 516 Q199 502 199 486 L199 470 L203 470 Q210 478 223.5 490 Q237 502 255.5 513 Q274 524 298 532 Q322 540 351 540 Q410 540 443.5 519 Q477 498 491 463 Q499 473 513 486 Q527 499 547 511 Q567 523 592.5 531.5 Q618 540 650 540 Q695 540 725 527.5 Q755 515 772.5 493 Q790 471 797.5 442 Q805 413 805 380 L805 0 L653 0 L653 336 Q653 347 651.5 359.5 Q650 372 643.5 382.5 Q637 393 623.5 400 Q610 407 586 407 Q560 407 539 392.5 Q518 378 506 366 L506 0 L354 0 L354 336 Q354 347 352.5 359.5 Q351 372 344.5 382.5 Q338 393 324.5 400 Q311 407 287 407 Z " />
<glyph glyph-name="n" unicode="n" horiz-adv-x="566" d="M294 407 Q271 407 249 395.5 Q227 384 207 364 L207 0 L55 0 L55 530 L153 530 Q183 530 191 516 Q199 502 199 486 L199 470 L203 470 Q210 478 224 490 Q238 502 257 513 Q276 524 300.5 532 Q325 540 355 540 Q401 540 431.5 527.5 Q462 515 480.5 493 Q499 471 506.5 442 Q514 413 514 380 L514 0 L362 0 L362 336 Q362 347 360.5 359.5 Q359 372 352.5 382.5 Q346 393 332 400 Q318 407 294 407 Z " />
<glyph glyph-name="o" unicode="o" horiz-adv-x="544" d="M515 265 Q515 195 495.5 143 Q476 91 443 57 Q410 23 366 6.5 Q322 -10 272 -10 Q222 -10 178 6.5 Q134 23 101 57 Q68 91 48.5 143 Q29 195 29 265 Q29 335 48.5 387 Q68 439 101 473 Q134 507 178 523.5 Q222 540 272 540 Q322 540 366 523.5 Q410 507 443 473 Q476 439 495.5 387 Q515 335 515 265 Z M357 265 Q357 345 339 386.5 Q321 428 272 428 Q223 428 205 386.5 Q187 345 187 265 Q187 185 205 143.5 Q223 102 272 102 Q321 102 339 143.5 Q357 185 357 265 Z " />
<glyph glyph-name="p" unicode="p" horiz-adv-x="567" d="M300 116 Q319 116 333.5 124 Q348 132 358 150 Q368 168 373.5 197.5 Q379 227 379 270 Q379 313 373.5 340 Q368 367 357 382.5 Q346 398 330.5 404 Q315 410 296 410 Q275 410 250.5 399 Q226 388 207 366 L207 171 Q232 140 254 128 Q276 116 300 116 Z M326 -10 Q288 -10 258 5.5 Q228 21 207 42 L207 -170 L55 -170 L55 530 L153 530 Q183 530 191 516 Q199 502 199 486 L199 470 L204 470 Q226 499 261 519.5 Q296 540 348 540 Q388 540 422.5 523.5 Q457 507 482.5 473.5 Q508 440 522.5 389.5 Q537 339 537 272 Q537 203 520 150.5 Q503 98 474.5 62.5 Q446 27 407.5 8.5 Q369 -10 326 -10 Z " />
<glyph glyph-name="q" unicode="q" horiz-adv-x="566" d="M360 -170 L360 56 Q338 29 303.5 9.5 Q269 -10 219 -10 Q179 -10 144.5 6.5 Q110 23 84.5 56.5 Q59 90 44.5 140 Q30 190 30 258 Q30 327 47 379.5 Q64 432 92.5 467.5 Q121 503 159.5 521.5 Q198 540 241 540 Q282 540 313.5 522 Q345 504 366 481 L370 481 L370 486 Q370 502 378 516 Q386 530 416 530 L512 530 L512 -170 L360 -170 Z M271 120 Q292 120 316.5 131 Q341 142 360 164 L360 359 Q336 390 314 402 Q292 414 267 414 Q229 414 208.5 379.5 Q188 345 188 260 Q188 217 193.5 189.5 Q199 162 210 146.5 Q221 131 236 125.5 Q251 120 271 120 Z " />
<glyph glyph-name="r" unicode="r" horiz-adv-x="395" d="M303 403 Q288 403 274 398 Q260 393 247 386 Q234 379 224 371 Q214 363 207 357 L207 0 L55 0 L55 530 L153 530 Q183 530 191 516 Q199 502 199 486 L199 462 L203 462 Q210 471 223 484 Q236 497 254.5 509.5 Q273 522 297 531 Q321 540 350 540 Q373 540 388 537 L388 391 L378 391 Q365 396 347.5 399.5 Q330 403 303 403 Z " />
<glyph glyph-name="s" unicode="s" horiz-adv-x="457" d="M434 166 Q434 124 417 91 Q400 58 370 35.5 Q340 13 298.5 1.5 Q257 -10 209 -10 Q167 -10 135 -6 Q103 -2 80 3 Q53 9 32 17 L32 135 Q66 124 104 113.5 Q142 103 187 103 Q238 103 261.5 114.5 Q285 126 285 149 Q285 157 281.5 165 Q278 173 268 180 Q258 187 240.5 193.5 Q223 200 196 206 Q149 215 118 233 Q87 251 69 273.5 Q51 296 44 322.5 Q37 349 37 376 Q37 411 52 441 Q67 471 95.5 493 Q124 515 164 527.5 Q204 540 255 540 Q286 540 313.5 537 Q341 534 361 530 Q385 526 405 520 L405 404 Q396 407 380.5 411 Q365 415 347 418.5 Q329 422 309 425 Q289 428 271 428 Q227 428 203 417.5 Q179 407 179 385 Q179 371 193.5 358 Q208 345 249 335 Q347 312 390.5 272 Q434 232 434 166 Z " />
<glyph glyph-name="t" unicode="t" horiz-adv-x="370" d="M215 -10 Q149 -10 116 17.5 Q83 45 83 114 L83 423 L21 423 L21 528 L75 528 L140 670 L235 670 L235 528 L351 528 L351 423 L235 423 L235 100 L354 100 L354 0 Q334 -3 311 -5 Q291 -7 266 -8.5 Q241 -10 215 -10 Z " />
<glyph glyph-name="u" unicode="u" horiz-adv-x="551" d="M348 60 Q340 52 327 40 Q314 28 295.5 17 Q277 6 253 -2 Q229 -10 201 -10 Q158 -10 129.5 2.5 Q101 15 83.5 37 Q66 59 59 88 Q52 117 52 150 L52 530 L204 530 L204 193 Q204 182 205.5 169.5 Q207 157 213 146.5 Q219 136 231 129.5 Q243 123 265 123 Q291 123 312 132.5 Q333 142 344 150 L344 530 L496 530 L496 0 L399 0 Q369 0 361 14 Q353 28 353 44 L353 60 L348 60 Z " />
<glyph glyph-name="v" unicode="v" horiz-adv-x="521" d="M5 530 L172 530 L268 205 L368 530 L515 530 L331 -2 L191 -2 L5 530 Z " />
<glyph glyph-name="w" unicode="w" horiz-adv-x="790" d="M7 530 L165 530 L251 194 L339 530 L467 530 L553 194 L641 530 L781 530 L618 -2 L478 -2 L395 269 L314 -2 L174 -2 L7 530 Z " />
<glyph glyph-name="x" unicode="x" horiz-adv-x="541" d="M264 156 L162 0 L-2 0 L187 269 L10 530 L189 530 L278 392 L372 530 L536 530 L353 282 L540 0 L362 0 L264 156 Z " />
<glyph glyph-name="y" unicode="y" horiz-adv-x="521" d="M147 -170 L196 -13 L5 530 L172 530 L266 208 L367 530 L515 530 L274 -170 L147 -170 Z " />
<glyph glyph-name="z" unicode="z" horiz-adv-x="498" d="M24 0 L24 68 L261 412 L37 412 L37 530 L459 530 L459 456 L227 118 L472 118 L472 0 L24 0 Z " />
<glyph glyph-name="braceleft" unicode="&#x7b;" horiz-adv-x="354" d="M332 -103 Q317 -105 303.5 -106 Q290 -107 276 -107 Q182 -107 139 -68.5 Q96 -30 96 59 L96 214 Q96 239 94 255 Q92 271 84.5 280.5 Q77 290 62 294.5 Q47 299 22 301 L22 396 Q47 398 61.5 402.5 Q76 407 83.5 416.5 Q91 426 93.5 441.5 Q96 457 96 483 L96 624 Q96 713 139 751.5 Q182 790 276 790 Q290 790 303.5 789 Q317 788 332 786 L332 699 L306 699 Q277 699 260 684 Q243 669 243 623 L243 506 Q243 461 239 433.5 Q235 406 226 389 Q217 372 201.5 364 Q186 356 164 350 L164 347 Q186 341 201.5 333 Q217 325 226 308 Q235 291 239 263.5 Q243 236 243 191 L243 60 Q243 14 259.5 -1 Q276 -16 305 -16 L332 -16 L332 -103 L332 -103 Z " />
<glyph glyph-name="bar" unicode="&#x7c;" horiz-adv-x="216" d="M57 -102 L57 787 L159 787 L159 -102 L57 -102 Z " />
<glyph glyph-name="braceright" unicode="&#x7d;" horiz-adv-x="354" d="M22.0203 -103 Q37.0193 -105 50.5185 -106 Q64.0177 -107 78.0168 -107 Q172.011 -107 215.008 -68.5 Q258.006 -30 258.006 59 L258.006 214 Q258.006 239 260.006 255 Q262.006 271 269.505 280.5 Q277.005 290 292.004 294.5 Q307.003 299 332.001 301 L332.001 396 Q307.003 398 292.504 402.5 Q278.005 407 270.505 416.5 Q263.006 426 260.506 441.5 Q258.006 457 258.006 483 L258.006 624 Q258.006 713 215.008 751.5 Q172.011 790 78.0168 790 Q64.0177 790 50.5185 789 Q37.0193 788 22.0203 786 L22.0203 699 L48.0187 699 Q77.0169 699 94.0159 684 Q111.015 669 111.015 623 L111.015 506 Q111.015 461 115.015 433.5 Q119.014 406 128.014 389 Q137.013 372 152.512 364 Q168.011 356 190.01 350 L190.01 347 Q168.011 341 152.512 333 Q137.013 325 128.014 308 Q119.014 291 115.015 263.5 Q111.015 236 111.015 191 L111.015 60 Q111.015 14 94.5158 -1 Q78.0168 -16 49.0186 -16 L22.0203 -16 L22.0203 -103 L22.0203 -103 Z " />
<glyph glyph-name="asciitilde" unicode="&#x7e;" horiz-adv-x="642" d="M45 278 Q72 329 117 361.5 Q162 394 222 394 Q259 394 289.5 382 Q320 370 346.5 355 Q373 340 397 328 Q421 316 445 316 Q463 316 481 325 L543 389 L599 341 Q571 290 526 258 Q481 226 421 226 Q384 226 353.5 238 Q323 250 296.5 265 Q270 280 246 292 Q222 304 198 304 Q180 304 162 295 L100 231 L45 278 L45 278 Z " />
<glyph glyph-name="uni00A0" unicode="&#xa0;" horiz-adv-x="204" d="" />
<glyph glyph-name="exclamdown" unicode="&#xa1;" horiz-adv-x="272" d="M76 305.014 L48 1.03229 L48 -169.957 L224 -169.957 L224 1.03229 L197 305.014 L76 305.014 Z M47 455.005 Q47 439.006 54 423.507 Q61 408.007 73 396.508 Q85 385.009 101.5 378.009 Q118 371.01 136 371.01 Q155 371.01 171.5 378.009 Q188 385.009 200 396.508 Q212 408.007 219 423.507 Q226 439.006 226 455.005 Q226 490.002 200 515.001 Q174 539.999 136 539.999 Q99 539.999 73 515.001 Q47 490.002 47 455.005 Z " />
<glyph glyph-name="cent" unicode="&#xa2;" horiz-adv-x="478" d="M433 105 Q412 94 384.5 88 Q357 82 326 80 L326 -10 L261 -10 L261 79 Q215 82 173.5 100 Q132 118 101 151.5 Q70 185 52 233.5 Q34 282 34 347 Q34 411 51.5 460 Q69 509 100 544 Q131 579 172.5 599.5 Q214 620 261 626 L261 710 L326 710 L326 629 Q358 627 384.5 623.5 Q411 620 429 615 L429 495 Q404 501 382.5 504 Q361 507 326 507 L326 203 Q376 203 433 218 L433 105 Z M187 353 Q187 244 261 214 L261 497 Q222 482 204.5 446 Q187 410 187 353 Z " />
<glyph glyph-name="sterling" unicode="&#xa3;" horiz-adv-x="587" d="M545 0 L43 0 L43 124 L105 124 L105 299 L43 299 L43 387 L105 387 L105 474 Q105 518 119 560.5 Q133 603 164.5 636 Q196 669 246 689.5 Q296 710 367 710 Q405 710 436 706 Q467 702 490 697 Q516 692 536 685 L536 564 Q496 577 456.5 584 Q417 591 385 591 Q322 591 294.5 566.5 Q267 542 267 474 L267 387 L404 387 L404 299 L267 299 L267 124 L545 124 L545 0 Z " />
<glyph glyph-name="currency" unicode="&#xa4;" horiz-adv-x="514" d="M321 191 Q292 176 257 176 Q222 176 192 191 L113 111 L41 182 L122 262 Q107 290 107 326 Q107 362 122 391 L42 471 L114 542 L193 462 Q223 477 257 477 Q292 477 322 462 L401 542 L473 471 L393 391 Q400 376 404 359.5 Q408 343 408 326 Q408 309 404 292.5 Q400 276 393 261 L472 182 L400 111 L321 191 Z M190 326 Q190 296 210.5 275 Q231 254 258 254 Q285 254 305 275 Q325 296 325 326 Q325 356 305 377 Q285 398 258 398 Q231 398 210.5 377 Q190 356 190 326 Z " />
<glyph glyph-name="yen" unicode="&#xa5;" horiz-adv-x="660" d="M95 383 L197 383 L25 700 L209 700 L349 422 L479 700 L635 700 L478 383 L565 383 L565 295 L434 295 L426 278 L426 253 L565 253 L565 165 L426 165 L426 0 L264 0 L264 165 L95 165 L95 253 L264 253 L264 259 L244 295 L95 295 L95 383 Z " />
<glyph glyph-name="brokenbar" unicode="&#xa6;" horiz-adv-x="224" d="M61 413 L61 787 L163 787 L163 413 L61 413 Z M61 -102 L61 273 L163 273 L163 -102 L61 -102 Z " />
<glyph glyph-name="section" unicode="&#xa7;" horiz-adv-x="571" d="M308 195 Q323 190 337.5 185.5 Q352 181 366 175 Q392 197 392 228 Q392 259 360.5 276 Q329 293 265 313 Q251 318 238.5 322 Q226 326 214 331 Q182 313 182 280 Q182 266 188 255 Q194 244 208 234.5 Q222 225 246.5 215.5 Q271 206 308 195 Z M243 -220 Q202 -220 165.5 -216 Q129 -212 102 -207 Q69 -201 43 -193 L43 -68 Q83 -76 135 -86 Q187 -96 243 -96 Q304 -96 332.5 -77 Q361 -58 361 -28 Q361 3 332.5 18.5 Q304 34 244 53 Q197 68 160 85.5 Q123 103 97 127 Q71 151 57 183 Q43 215 43 257 Q43 302 61.5 335.5 Q80 369 114 392 Q90 416 77 448.5 Q64 481 64 525 Q64 568 84 602.5 Q104 637 138.5 661 Q173 685 219.5 697.5 Q266 710 319 710 Q357 710 390 706 Q423 702 449 697 Q479 691 505 684 L505 557 Q469 567 423 576.5 Q377 586 330 586 Q268 586 240.5 570.5 Q213 555 213 532 Q213 520 218 511 Q223 502 236.5 493 Q250 484 272 475 Q294 466 329 455 Q375 440 413.5 421.5 Q452 403 480 380 Q508 357 523.5 327 Q539 297 539 260 Q538 212 519.5 175.5 Q501 139 469 113 Q492 90 505 62 Q518 34 518 0 Q518 -54 497 -95.5 Q476 -137 439 -164.5 Q402 -192 352 -206 Q302 -220 243 -220 Z " />
<glyph glyph-name="dieresis" unicode="&#xa8;" horiz-adv-x="341" d="M23 660 Q23 686 41.5 705.5 Q60 725 89 725 Q118 725 135.5 705.5 Q153 686 153 660 Q153 633 135.5 614.5 Q118 596 89 596 Q60 596 41.5 614.5 Q23 633 23 660 Z M188 660 Q188 686 206 705.5 Q224 725 253 725 Q282 725 300 705.5 Q318 686 318 660 Q318 633 300 614.5 Q282 596 253 596 Q224 596 206 614.5 Q188 633 188 660 Z " />
<glyph glyph-name="copyright" unicode="&#xa9;" horiz-adv-x="795" d="M38 349 Q38 423 66 488.5 Q94 554 143 603 Q192 652 257 680.5 Q322 709 397 709 Q471 709 536.5 680.5 Q602 652 651 603 Q700 554 728.5 488.5 Q757 423 757 349 Q757 274 728.5 209 Q700 144 651 95 Q602 46 536.5 18 Q471 -10 397 -10 Q322 -10 257 18 Q192 46 143 95 Q94 144 66 209 Q38 274 38 349 Z M96 349 Q96 285 119.5 229 Q143 173 184 131.5 Q225 90 280 66 Q335 42 397 42 Q459 42 514 66 Q569 90 610 131.5 Q651 173 674.5 229 Q698 285 698 349 Q698 413 674.5 469 Q651 525 610 567 Q569 609 514 633 Q459 657 397 657 Q335 657 280 633 Q225 609 184 567 Q143 525 119.5 469 Q96 413 96 349 Z M519 133 Q498 123 466 118 Q434 113 402 113 Q361 113 324.5 126.5 Q288 140 260 167.5 Q232 195 215.5 237.5 Q199 280 199 339 Q199 399 216.5 444 Q234 489 263.5 519 Q293 549 332.5 563.5 Q372 578 416 578 Q448 578 474 574.5 Q500 571 517 566 L517 466 Q497 470 480 472 Q463 474 434 474 Q381 474 355.5 440.5 Q330 407 330 344 Q330 279 358 248.5 Q386 218 439 218 Q461 218 482.5 221 Q504 224 519 228 L519 133 Z " />
<glyph glyph-name="ordfeminine" unicode="&#xaa;" horiz-adv-x="366" d="M171 455 Q185 455 195.5 460.5 Q206 466 212 471 L212 515 L174 515 Q134 515 134 484 Q134 471 142.5 463 Q151 455 171 455 Z M213 420 Q204 410 182.5 395 Q161 380 129 380 Q81 380 57 408.5 Q33 437 33 475 Q33 518 63 545.5 Q93 573 144 573 L212 573 L212 589 Q212 599 211 607.5 Q210 616 204 622 Q198 628 186 631.5 Q174 635 153 635 Q121 635 95.5 628.5 Q70 622 62 619 L62 693 Q63 693 73 695.5 Q83 698 100.5 701.5 Q118 705 142.5 707.5 Q167 710 196 710 Q230 710 252.5 702 Q275 694 288.5 680 Q302 666 307.5 647.5 Q313 629 313 608 L313 386 L245 386 Q227 386 222 394.5 Q217 403 217 412 L217 420 L213 420 Z " />
<glyph glyph-name="guillemotleft" unicode="&#xab;" horiz-adv-x="508" d="M30.017 232 L156.009 46 L273.002 46 L150.01 256 L273.002 463 L156.009 463 L30.017 277 L30.017 232 Z M230.017 232 L356.009 46 L473.002 46 L350.01 256 L473.002 463 L356.009 463 L230.017 277 L230.017 232 Z " />
<glyph glyph-name="logicalnot" unicode="&#xac;" horiz-adv-x="547" d="M58 326 L486 326 L486 97 L391 97 L391 232 L58 232 L58 326 Z " />
<glyph glyph-name="uni00AD" unicode="&#xad;" horiz-adv-x="508" d="" />
<glyph glyph-name="registered" unicode="&#xae;" horiz-adv-x="653" d="M40 421 Q40 481 62.5 533.5 Q85 586 124 625 Q163 664 215 687 Q267 710 326 710 Q386 710 438 687 Q490 664 529 625 Q568 586 590.5 533.5 Q613 481 613 421 Q613 361 590.5 308.5 Q568 256 529 217 Q490 178 438 155 Q386 132 326 132 Q267 132 215 155 Q163 178 124 217 Q85 256 62.5 308.5 Q40 361 40 421 Z M90 421 Q90 370 108.5 325.5 Q127 281 159.5 248 Q192 215 235 195.5 Q278 176 327 176 Q376 176 419 195.5 Q462 215 494 249 Q526 283 544.5 327 Q563 371 563 421 Q563 472 544.5 516.5 Q526 561 494 594 Q462 627 419 646.5 Q376 666 327 666 Q278 666 235 646.5 Q192 627 159.5 594 Q127 561 108.5 516.5 Q90 472 90 421 Z M200 578 L329 578 Q389 578 424 557.5 Q459 537 459 491 Q459 471 452.5 457 Q446 443 436 434 Q426 425 414 420 Q402 415 390 414 L390 412 Q407 409 416 398.5 Q425 388 435 365 L476 265 L369 265 L343 354 Q338 371 335 375.5 Q332 380 322 380 L292 380 L292 265 L200 265 L200 578 Z M292 514 L292 445 L327 445 Q349 445 356.5 453.5 Q364 462 364 481 Q364 496 356.5 505 Q349 514 327 514 L292 514 Z " />
<glyph glyph-name="macron" unicode="&#xaf;" horiz-adv-x="400" d="M68 696 L332 696 L332 608 L68 608 L68 696 Z " />
<glyph glyph-name="degree" unicode="&#xb0;" horiz-adv-x="359" d="M29 559 Q29 590 41 617.5 Q53 645 73.5 665.5 Q94 686 121 698 Q148 710 179 710 Q210 710 237.5 698 Q265 686 285.5 665.5 Q306 645 318 617.5 Q330 590 330 559 Q330 528 318 501 Q306 474 285.5 453.5 Q265 433 237.5 421 Q210 409 179 409 Q148 409 121 421 Q94 433 73.5 453.5 Q53 474 41 501 Q29 528 29 559 Z M111 559 Q111 529 131.5 508 Q152 487 179 487 Q206 487 226 508 Q246 529 246 559 Q246 589 226 610 Q206 631 179 631 Q152 631 131.5 610 Q111 589 111 559 Z " />
<glyph glyph-name="plusminus" unicode="&#xb1;" horiz-adv-x="542" d="M57 461 L224 461 L224 603 L318 603 L318 461 L485 461 L485 367 L318 367 L318 225 L224 225 L224 367 L57 367 L57 461 Z M57 182 L485 182 L485 88 L57 88 L57 182 Z " />
<glyph glyph-name="twosuperior" unicode="&#xb2;" horiz-adv-x="291" d="M27 506 L27 560 Q27 582 30.5 597 Q34 612 43 625 Q52 638 68 650 Q84 662 108 678 Q143 701 152.5 712 Q162 723 162 733 Q162 752 126 752 Q103 752 78.5 747 Q54 742 32 736 L32 814 Q46 820 63 824 Q77 828 97 831.5 Q117 835 140 835 Q172 835 194.5 826.5 Q217 818 231 804 Q245 790 251.5 772.5 Q258 755 258 737 Q258 718 253 703 Q248 688 236.5 674.5 Q225 661 207 647.5 Q189 634 163 618 Q143 605 136.5 599.5 Q130 594 130 587 L130 586 L266 586 L266 506 L27 506 Z " />
<glyph glyph-name="threesuperior" unicode="&#xb3;" horiz-adv-x="274" d="M31 824 Q43 826 58 829 Q71 831 87.5 833 Q104 835 124 835 Q157 835 180 827.5 Q203 820 217 807.5 Q231 795 237.5 780 Q244 765 244 750 Q244 716 226.5 698 Q209 680 183 672 L183 669 Q215 661 232.5 644.5 Q250 628 250 595 Q250 577 243 560 Q236 543 221 529.5 Q206 516 181.5 508 Q157 500 122 500 Q82 500 60.5 503 Q39 506 26 510 L26 589 Q46 585 66 581 Q86 577 112 577 Q154 577 154 606 Q154 633 115 633 L79 633 L79 705 L115 705 Q150 705 150 733 Q150 744 142 750.5 Q134 757 114 757 Q98 757 73 754 Q48 751 31 747 L31 824 Z " />
<glyph glyph-name="acute" unicode="&#xb4;" horiz-adv-x="417" d="M136 577 L94 623 L225 756 L251 756 L322 668 L156 577 L136 577 Z " />
<glyph glyph-name="paragraph" unicode="&#xb6;" horiz-adv-x="645" d="M399 700 L399 -170 L299 -170 L299 250 Q236 250 185.5 264 Q135 278 99.5 306.5 Q64 335 44.5 377.5 Q25 420 25 478 Q25 536 44.5 578 Q64 620 100.5 647 Q137 674 188.5 687 Q240 700 303 700 L399 700 Z M479 -170 L479 700 L579 700 L579 -170 L479 -170 Z " />
<glyph glyph-name="periodcentered" unicode="&#xb7;" horiz-adv-x="251" d="M40 378 Q40 394 46.5 408.5 Q53 423 64.5 434 Q76 445 91.5 451.5 Q107 458 125 458 Q143 458 158.5 451.5 Q174 445 185.5 434 Q197 423 204 408.5 Q211 394 211 378 Q211 361 204 346.5 Q197 332 185.5 321 Q174 310 158.5 303.5 Q143 297 125 297 Q107 297 91.5 303.5 Q76 310 64.5 321 Q53 332 46.5 346.5 Q40 361 40 378 Z " />
<glyph glyph-name="cedilla" unicode="&#xb8;" horiz-adv-x="400" d="M173 -180 Q141 -180 111.5 -171.5 Q82 -163 65 -151 L86 -102 Q95 -107 117.5 -115 Q140 -123 160 -123 Q174 -123 183 -119.5 Q192 -116 192 -105 Q192 -89 169.5 -80 Q147 -71 109 -66 L109 -46 L161 15 L241 15 L200 -32 Q242 -34 268.5 -51 Q295 -68 295 -102 Q295 -124 284.5 -139 Q274 -154 257 -163 Q240 -172 218 -176 Q196 -180 173 -180 Z " />
<glyph glyph-name="onesuperior" unicode="&#xb9;" horiz-adv-x="257" d="M30 506 L30 571 L86 571 L86 737 L30 737 L30 805 L80 805 Q96 805 109 813.5 Q122 822 125 833 L183 833 L183 571 L239 571 L239 506 L30 506 Z " />
<glyph glyph-name="ordmasculine" unicode="&#xba;" horiz-adv-x="363" d="M330 545 Q330 502 318.5 471 Q307 440 287 419.5 Q267 399 239.5 389.5 Q212 380 181 380 Q149 380 122 389.5 Q95 399 75.5 419.5 Q56 440 44.5 471 Q33 502 33 545 Q33 588 44.5 619 Q56 650 75.5 670 Q95 690 122 700 Q149 710 181 710 Q212 710 239.5 700 Q267 690 287 670 Q307 650 318.5 619 Q330 588 330 545 Z M227 545 Q227 595 218 616.5 Q209 638 181 638 Q154 638 145 616.5 Q136 595 136 545 Q136 495 145 473.5 Q154 452 181 452 Q209 452 218 473.5 Q227 495 227 545 Z " />
<glyph glyph-name="guillemotright" unicode="&#xbb;" horiz-adv-x="508" d="M278 232 L152 46 L35 46 L158 256 L35 463 L152 463 L278 277 L278 232 Z M478 232 L352 46 L235 46 L358 256 L235 463 L352 463 L478 277 L478 232 Z " />
<glyph glyph-name="onequarter" unicode="&#xbc;" horiz-adv-x="629" d="M303 140 L451 329 L535 329 L535 140 L571 140 L571 63 L535 63 L535 0 L442 0 L442 63 L303 63 L303 140 Z M442 223 L375 140 L442 140 L442 223 Z M57 376 L57 441 L113 441 L113 607 L57 607 L57 675 L107 675 Q123 675 136 683.5 Q149 692 152 703 L210 703 L210 441 L266 441 L266 376 L57 376 Z M34 0 L521 700 L603 700 L117 0 L34 0 Z " />
<glyph glyph-name="onehalf" unicode="&#xbd;" horiz-adv-x="635" d="M356 0 L356 54 Q356 76 359.5 91 Q363 106 372 119 Q381 132 397 144 Q413 156 437 172 Q472 195 481.5 206 Q491 217 491 227 Q491 246 455 246 Q432 246 407.5 241 Q383 236 361 230 L361 308 Q375 314 392 318 Q406 322 426 325.5 Q446 329 469 329 Q501 329 523.5 320.5 Q546 312 560 298 Q574 284 580.5 266.5 Q587 249 587 231 Q587 212 582 197 Q577 182 565.5 168.5 Q554 155 536 141.5 Q518 128 492 112 Q472 99 465.5 93.5 Q459 88 459 81 L459 80 L595 80 L595 0 L356 0 Z M53 376 L53 441 L109 441 L109 607 L53 607 L53 675 L103 675 Q119 675 132 683.5 Q145 692 148 703 L206 703 L206 441 L262 441 L262 376 L53 376 Z M30 0 L517 700 L599 700 L113 0 L30 0 Z " />
<glyph glyph-name="threequarters" unicode="&#xbe;" horiz-adv-x="631" d="M305 140 L453 329 L537 329 L537 140 L573 140 L573 63 L537 63 L537 0 L444 0 L444 63 L305 63 L305 140 Z M444 223 L377 140 L444 140 L444 223 Z M36 0 L523 700 L605 700 L119 0 L36 0 Z M58 694 Q70 696 85 699 Q98 701 114.5 703 Q131 705 151 705 Q184 705 207 697.5 Q230 690 244 677.5 Q258 665 264.5 650 Q271 635 271 620 Q271 586 253.5 568 Q236 550 210 542 L210 539 Q242 531 259.5 514.5 Q277 498 277 465 Q277 447 270 430 Q263 413 248 399.5 Q233 386 208.5 378 Q184 370 149 370 Q109 370 87.5 373 Q66 376 53 380 L53 459 Q73 455 93 451 Q113 447 139 447 Q181 447 181 476 Q181 503 142 503 L106 503 L106 575 L142 575 Q177 575 177 603 Q177 614 169 620.5 Q161 627 141 627 Q125 627 100 624 Q75 621 58 617 L58 694 Z " />
<glyph glyph-name="questiondown" unicode="&#xbf;" horiz-adv-x="497" d="M398.006 454.005 Q398.006 417.007 373.508 391.508 Q349.009 366.01 307.012 366.01 Q263.014 366.01 238.516 391.508 Q214.017 417.007 214.017 454.005 Q214.017 489.003 238.516 514.501 Q263.014 539.999 307.012 539.999 Q349.009 539.999 373.508 514.501 Q398.006 489.003 398.006 454.005 Z M466.002 -126.96 Q453.003 -133.959 433.004 -142.959 Q413.005 -151.958 387.507 -160.458 Q362.008 -168.957 332.51 -174.457 Q303.012 -179.957 270.014 -179.957 Q202.018 -179.957 155.021 -164.958 Q108.024 -149.958 79.0256 -124.96 Q50.0274 -99.9615 37.0282 -68.4635 Q24.029 -36.9654 24.029 -3.96741 Q24.029 58.0288 55.0271 99.5263 Q86.0252 141.024 157.021 172.022 Q181.019 183.021 196.018 190.521 Q211.018 198.02 220.017 205.52 Q229.016 213.019 233.016 221.019 Q237.016 229.018 238.016 241.018 L244.016 305.014 L369.008 305.014 L376.008 241.018 Q380.007 208.02 372.008 186.521 Q364.008 165.022 348.009 149.023 Q332.01 133.024 309.512 121.525 Q287.013 110.026 260.015 97.0264 Q234.016 85.0272 220.017 73.5279 Q206.018 62.0286 199.018 51.5292 Q192.019 41.0298 191.019 32.0304 Q190.019 23.0309 190.019 14.0315 Q190.019 -11.9669 212.018 -30.4658 Q234.016 -48.9647 288.013 -48.9647 Q309.012 -48.9647 329.01 -46.9648 Q349.009 -44.9649 369.508 -40.4652 Q390.007 -35.9655 413.505 -27.9659 Q437.004 -19.9664 466.002 -6.96722 L466.002 -126.96 Z " />
<glyph glyph-name="Agrave" unicode="&#xc0;" horiz-adv-x="635" d="M420 131 L199 131 L158 0 L4 0 L235 702 L397 702 L633 0 L461 0 L420 131 Z M235 249 L383 249 L309 485 L235 249 Z M327 747 L307 747 L141 838 L212 926 L238 926 L369 793 L327 747 Z " />
<glyph glyph-name="Aacute" unicode="&#xc1;" horiz-adv-x="635" d="M420 131 L199 131 L158 0 L4 0 L235 702 L397 702 L633 0 L461 0 L420 131 Z M235 249 L383 249 L309 485 L235 249 Z M306 747 L264 793 L395 926 L421 926 L492 838 L326 747 L306 747 Z " />
<glyph glyph-name="Acircumflex" unicode="&#xc2;" horiz-adv-x="635" d="M420 131 L199 131 L158 0 L4 0 L235 702 L397 702 L633 0 L461 0 L420 131 Z M235 249 L383 249 L309 485 L235 249 Z M180 747 L151 782 L291 929 L340 929 L480 782 L451 747 L428 747 L316 816 L203 747 L180 747 Z " />
<glyph glyph-name="Atilde" unicode="&#xc3;" horiz-adv-x="635" d="M420 131 L199 131 L158 0 L4 0 L235 702 L397 702 L633 0 L461 0 L420 131 Z M235 249 L383 249 L309 485 L235 249 Z M475 898 L475 853 Q475 803 451.5 781 Q428 759 388 759 Q365 759 346 764.5 Q327 770 310.5 777 Q294 784 281 789.5 Q268 795 258 795 Q253 795 250 793.5 Q247 792 245 790 Q242 788 241 786 L241 748 L157 748 L157 789 Q157 848 180.5 870 Q204 892 240 892 Q262 892 281.5 885.5 Q301 879 317.5 871.5 Q334 864 348.5 857.5 Q363 851 375 851 Q386 851 390 858 Q392 861 393 865 L393 898 L475 898 Z " />
<glyph glyph-name="Adieresis" unicode="&#xc4;" horiz-adv-x="635" d="M420 131 L199 131 L158 0 L4 0 L235 702 L397 702 L633 0 L461 0 L420 131 Z M235 249 L383 249 L309 485 L235 249 Z M169 840 Q169 866 187.5 885.5 Q206 905 235 905 Q264 905 281.5 885.5 Q299 866 299 840 Q299 813 281.5 794.5 Q264 776 235 776 Q206 776 187.5 794.5 Q169 813 169 840 Z M334 840 Q334 866 352 885.5 Q370 905 399 905 Q428 905 446 885.5 Q464 866 464 840 Q464 813 446 794.5 Q428 776 399 776 Q370 776 352 794.5 Q334 813 334 840 Z " />
<glyph glyph-name="Aring" unicode="&#xc5;" horiz-adv-x="635" d="M420 131 L199 131 L158 0 L4 0 L235 702 L397 702 L633 0 L461 0 L420 131 Z M235 249 L383 249 L309 485 L235 249 Z M360 826 Q360 862 316 862 Q273 862 273 826 Q273 809 283 799.5 Q293 790 316 790 Q339 790 349.5 799.5 Q360 809 360 826 Z M442 826 Q442 781 406 759.5 Q370 738 316 738 Q263 738 227 759.5 Q191 781 191 826 Q191 871 227 892.5 Q263 914 316 914 Q370 914 406 892.5 Q442 871 442 826 Z " />
<glyph glyph-name="AE" unicode="&#xc6;" horiz-adv-x="950" d="M454 131 L231 131 L168 0 L-7 0 L349 700 L909 700 L909 576 L616 576 L616 418 L867 418 L867 296 L616 296 L616 124 L914 124 L914 0 L454 0 L454 131 Z M288 249 L454 249 L454 576 L446 576 L288 249 Z " />
<glyph glyph-name="Ccedilla" unicode="&#xc7;" horiz-adv-x="544" d="M319 -180 Q287 -180 257.5 -171.5 Q228 -163 211 -151 L232 -102 Q241 -107 263.5 -115 Q286 -123 306 -123 Q320 -123 329 -119.5 Q338 -116 338 -105 Q338 -89 315.5 -80 Q293 -71 255 -66 L255 -46 L289 -6 Q170 9 103.5 94.5 Q37 180 37 344 Q37 436 61 505 Q85 574 128.5 619.5 Q172 665 232.5 687.5 Q293 710 365 710 Q396 710 421.5 707.5 Q447 705 465 702 Q486 698 503 695 L503 567 Q488 571 476.5 573.5 Q465 576 453 577.5 Q441 579 427 580 Q413 581 394 581 Q341 581 305.5 566 Q270 551 248 522.5 Q226 494 216.5 452 Q207 410 207 357 Q207 300 215 255.5 Q223 211 242.5 181 Q262 151 294 135.5 Q326 120 375 120 Q416 120 446 127 Q476 134 515 147 L515 18 Q490 9 456 0.5 Q422 -8 365 -10 L346 -32 Q388 -34 414.5 -51 Q441 -68 441 -102 Q441 -124 430.5 -139 Q420 -154 403 -163 Q386 -172 364 -176 Q342 -180 319 -180 Z " />
<glyph glyph-name="Egrave" unicode="&#xc8;" horiz-adv-x="563" d="M326 747 L306 747 L140 838 L211 926 L237 926 L368 793 L326 747 Z M229 576 L229 418 L480 418 L480 296 L229 296 L229 124 L527 124 L527 0 L67 0 L67 700 L522 700 L522 576 L229 576 Z " />
<glyph glyph-name="Eacute" unicode="&#xc9;" horiz-adv-x="563" d="M229 576 L229 418 L480 418 L480 296 L229 296 L229 124 L527 124 L527 0 L67 0 L67 700 L522 700 L522 576 L229 576 Z M305 747 L263 793 L394 926 L420 926 L491 838 L325 747 L305 747 Z " />
<glyph glyph-name="Ecircumflex" unicode="&#xca;" horiz-adv-x="563" d="M179 747 L150 782 L290 929 L339 929 L479 782 L450 747 L427 747 L315 816 L202 747 L179 747 Z M229 576 L229 418 L480 418 L480 296 L229 296 L229 124 L527 124 L527 0 L67 0 L67 700 L522 700 L522 576 L229 576 Z " />
<glyph glyph-name="Edieresis" unicode="&#xcb;" horiz-adv-x="563" d="M229 576 L229 418 L480 418 L480 296 L229 296 L229 124 L527 124 L527 0 L67 0 L67 700 L522 700 L522 576 L229 576 Z M168 840 Q168 866 186.5 885.5 Q205 905 234 905 Q263 905 280.5 885.5 Q298 866 298 840 Q298 813 280.5 794.5 Q263 776 234 776 Q205 776 186.5 794.5 Q168 813 168 840 Z M333 840 Q333 866 351 885.5 Q369 905 398 905 Q427 905 445 885.5 Q463 866 463 840 Q463 813 445 794.5 Q427 776 398 776 Q369 776 351 794.5 Q333 813 333 840 Z " />
<glyph glyph-name="Igrave" unicode="&#xcc;" horiz-adv-x="296" d="M67 700 L229 700 L229 0 L67 0 L67 700 Z M159 747 L139 747 L-27 838 L44 926 L70 926 L201 793 L159 747 Z " />
<glyph glyph-name="Iacute" unicode="&#xcd;" horiz-adv-x="296" d="M67 700 L229 700 L229 0 L67 0 L67 700 Z M138 747 L96 793 L227 926 L253 926 L324 838 L158 747 L138 747 Z " />
<glyph glyph-name="Icircumflex" unicode="&#xce;" horiz-adv-x="296" d="M67 700 L229 700 L229 0 L67 0 L67 700 Z M12 747 L-17 782 L123 929 L172 929 L312 782 L283 747 L260 747 L148 816 L35 747 L12 747 Z " />
<glyph glyph-name="Idieresis" unicode="&#xcf;" horiz-adv-x="296" d="M67 700 L229 700 L229 0 L67 0 L67 700 Z M1 840 Q1 866 19.5 885.5 Q38 905 67 905 Q96 905 113.5 885.5 Q131 866 131 840 Q131 813 113.5 794.5 Q96 776 67 776 Q38 776 19.5 794.5 Q1 813 1 840 Z M166 840 Q166 866 184 885.5 Q202 905 231 905 Q260 905 278 885.5 Q296 866 296 840 Q296 813 278 794.5 Q260 776 231 776 Q202 776 184 794.5 Q166 813 166 840 Z " />
<glyph glyph-name="Eth" unicode="&#xd0;" horiz-adv-x="674" d="M73 0 L73 315 L11 315 L11 395 L73 395 L73 700 L309 700 Q383 700 443.5 679 Q504 658 547.5 615.5 Q591 573 614.5 508 Q638 443 638 355 Q638 265 614.5 198 Q591 131 547.5 87 Q504 43 443.5 21.5 Q383 0 309 0 L73 0 Z M309 124 Q354 124 384.5 138 Q415 152 433.5 181 Q452 210 460 253 Q468 296 468 355 Q468 411 460 452.5 Q452 494 433.5 521.5 Q415 549 384.5 562.5 Q354 576 309 576 L235 576 L235 395 L379 395 L379 315 L235 315 L235 124 L309 124 Z " />
<glyph glyph-name="Ntilde" unicode="&#xd1;" horiz-adv-x="669" d="M508 898 L508 853 Q508 803 484.5 781 Q461 759 421 759 Q398 759 379 764.5 Q360 770 343.5 777 Q327 784 314 789.5 Q301 795 291 795 Q286 795 283 793.5 Q280 792 278 790 Q275 788 274 786 L274 748 L190 748 L190 789 Q190 848 213.5 870 Q237 892 273 892 Q295 892 314.5 885.5 Q334 879 350.5 871.5 Q367 864 381.5 857.5 Q396 851 408 851 Q419 851 423 858 Q425 861 426 865 L426 898 L508 898 Z M488 -3 L206 431 L206 0 L66 0 L66 700 L206 700 L462 306 L462 700 L602 700 L602 -3 L488 -3 Z " />
<glyph glyph-name="Ograve" unicode="&#xd2;" horiz-adv-x="672" d="M349 747 L329 747 L163 838 L234 926 L260 926 L391 793 L349 747 Z M36 350 Q36 441 58.5 509 Q81 577 121 621.5 Q161 666 216 688 Q271 710 336 710 Q401 710 456 688 Q511 666 551 621.5 Q591 577 613.5 509 Q636 441 636 350 Q636 258 613.5 190.5 Q591 123 551 78.5 Q511 34 456 12 Q401 -10 336 -10 Q271 -10 216 12 Q161 34 121 78.5 Q81 123 58.5 190.5 Q36 258 36 350 Z M206 350 Q206 231 235 174 Q264 117 336 117 Q408 117 437 174 Q466 231 466 350 Q466 469 437 526 Q408 583 336 583 Q264 583 235 526 Q206 469 206 350 Z " />
<glyph glyph-name="Oacute" unicode="&#xd3;" horiz-adv-x="672" d="M328 747 L286 793 L417 926 L443 926 L514 838 L348 747 L328 747 Z M36 350 Q36 441 58.5 509 Q81 577 121 621.5 Q161 666 216 688 Q271 710 336 710 Q401 710 456 688 Q511 666 551 621.5 Q591 577 613.5 509 Q636 441 636 350 Q636 258 613.5 190.5 Q591 123 551 78.5 Q511 34 456 12 Q401 -10 336 -10 Q271 -10 216 12 Q161 34 121 78.5 Q81 123 58.5 190.5 Q36 258 36 350 Z M206 350 Q206 231 235 174 Q264 117 336 117 Q408 117 437 174 Q466 231 466 350 Q466 469 437 526 Q408 583 336 583 Q264 583 235 526 Q206 469 206 350 Z " />
<glyph glyph-name="Ocircumflex" unicode="&#xd4;" horiz-adv-x="672" d="M202 747 L173 782 L313 929 L362 929 L502 782 L473 747 L450 747 L338 816 L225 747 L202 747 Z M36 350 Q36 441 58.5 509 Q81 577 121 621.5 Q161 666 216 688 Q271 710 336 710 Q401 710 456 688 Q511 666 551 621.5 Q591 577 613.5 509 Q636 441 636 350 Q636 258 613.5 190.5 Q591 123 551 78.5 Q511 34 456 12 Q401 -10 336 -10 Q271 -10 216 12 Q161 34 121 78.5 Q81 123 58.5 190.5 Q36 258 36 350 Z M206 350 Q206 231 235 174 Q264 117 336 117 Q408 117 437 174 Q466 231 466 350 Q466 469 437 526 Q408 583 336 583 Q264 583 235 526 Q206 469 206 350 Z " />
<glyph glyph-name="Otilde" unicode="&#xd5;" horiz-adv-x="672" d="M36 350 Q36 441 58.5 509 Q81 577 121 621.5 Q161 666 216 688 Q271 710 336 710 Q401 710 456 688 Q511 666 551 621.5 Q591 577 613.5 509 Q636 441 636 350 Q636 258 613.5 190.5 Q591 123 551 78.5 Q511 34 456 12 Q401 -10 336 -10 Q271 -10 216 12 Q161 34 121 78.5 Q81 123 58.5 190.5 Q36 258 36 350 Z M206 350 Q206 231 235 174 Q264 117 336 117 Q408 117 437 174 Q466 231 466 350 Q466 469 437 526 Q408 583 336 583 Q264 583 235 526 Q206 469 206 350 Z M497 898 L497 853 Q497 803 473.5 781 Q450 759 410 759 Q387 759 368 764.5 Q349 770 332.5 777 Q316 784 303 789.5 Q290 795 280 795 Q275 795 272 793.5 Q269 792 267 790 Q264 788 263 786 L263 748 L179 748 L179 789 Q179 848 202.5 870 Q226 892 262 892 Q284 892 303.5 885.5 Q323 879 339.5 871.5 Q356 864 370.5 857.5 Q385 851 397 851 Q408 851 412 858 Q414 861 415 865 L415 898 L497 898 Z " />
<glyph glyph-name="Odieresis" unicode="&#xd6;" horiz-adv-x="672" d="M36 350 Q36 441 58.5 509 Q81 577 121 621.5 Q161 666 216 688 Q271 710 336 710 Q401 710 456 688 Q511 666 551 621.5 Q591 577 613.5 509 Q636 441 636 350 Q636 258 613.5 190.5 Q591 123 551 78.5 Q511 34 456 12 Q401 -10 336 -10 Q271 -10 216 12 Q161 34 121 78.5 Q81 123 58.5 190.5 Q36 258 36 350 Z M206 350 Q206 231 235 174 Q264 117 336 117 Q408 117 437 174 Q466 231 466 350 Q466 469 437 526 Q408 583 336 583 Q264 583 235 526 Q206 469 206 350 Z M191 840 Q191 866 209.5 885.5 Q228 905 257 905 Q286 905 303.5 885.5 Q321 866 321 840 Q321 813 303.5 794.5 Q286 776 257 776 Q228 776 209.5 794.5 Q191 813 191 840 Z M356 840 Q356 866 374 885.5 Q392 905 421 905 Q450 905 468 885.5 Q486 866 486 840 Q486 813 468 794.5 Q450 776 421 776 Q392 776 374 794.5 Q356 813 356 840 Z " />
<glyph glyph-name="multiply" unicode="&#xd7;" horiz-adv-x="488" d="M42 206 L173 336 L42 467 L114 538 L244 407 L374 538 L446 467 L314 336 L446 206 L375 134 L244 266 L113 134 L42 206 Z " />
<glyph glyph-name="Oslash" unicode="&#xd8;" horiz-adv-x="675" d="M38 350 Q38 441 60.5 509 Q83 577 123 621.5 Q163 666 218 688 Q273 710 338 710 Q438 710 510 659 L547 710 L648 710 L569 600 Q601 555 619.5 493 Q638 431 638 350 Q638 258 615.5 190.5 Q593 123 553 78.5 Q513 34 458 12 Q403 -10 338 -10 Q237 -10 166 40 L130 -10 L28 -10 L106 99 Q74 144 56 206 Q38 268 38 350 Z M208 350 Q208 292 214 249 L427 544 Q395 583 338 583 Q266 583 237 526 Q208 469 208 350 Z M468 350 Q468 379 466.5 404 Q465 429 461 450 L249 155 Q278 117 338 117 Q410 117 439 174 Q468 231 468 350 Z " />
<glyph glyph-name="Ugrave" unicode="&#xd9;" horiz-adv-x="654" d="M342 747 L322 747 L156 838 L227 926 L253 926 L384 793 L342 747 Z M442 700 L592 700 L592 235 Q592 172 572.5 126 Q553 80 518 50 Q483 20 432.5 5 Q382 -10 321 -10 Q262 -10 214.5 5 Q167 20 133 50 Q99 80 80.5 126 Q62 172 62 235 L62 700 L226 700 L226 233 Q226 176 250 147 Q274 118 331 118 Q397 118 419.5 147 Q442 176 442 233 L442 700 Z " />
<glyph glyph-name="Uacute" unicode="&#xda;" horiz-adv-x="654" d="M442 700 L592 700 L592 235 Q592 172 572.5 126 Q553 80 518 50 Q483 20 432.5 5 Q382 -10 321 -10 Q262 -10 214.5 5 Q167 20 133 50 Q99 80 80.5 126 Q62 172 62 235 L62 700 L226 700 L226 233 Q226 176 250 147 Q274 118 331 118 Q397 118 419.5 147 Q442 176 442 233 L442 700 Z M321 747 L279 793 L410 926 L436 926 L507 838 L341 747 L321 747 Z " />
<glyph glyph-name="Ucircumflex" unicode="&#xdb;" horiz-adv-x="654" d="M195 747 L166 782 L306 929 L355 929 L495 782 L466 747 L443 747 L331 816 L218 747 L195 747 Z M442 700 L592 700 L592 235 Q592 172 572.5 126 Q553 80 518 50 Q483 20 432.5 5 Q382 -10 321 -10 Q262 -10 214.5 5 Q167 20 133 50 Q99 80 80.5 126 Q62 172 62 235 L62 700 L226 700 L226 233 Q226 176 250 147 Q274 118 331 118 Q397 118 419.5 147 Q442 176 442 233 L442 700 Z " />
<glyph glyph-name="Udieresis" unicode="&#xdc;" horiz-adv-x="654" d="M442 700 L592 700 L592 235 Q592 172 572.5 126 Q553 80 518 50 Q483 20 432.5 5 Q382 -10 321 -10 Q262 -10 214.5 5 Q167 20 133 50 Q99 80 80.5 126 Q62 172 62 235 L62 700 L226 700 L226 233 Q226 176 250 147 Q274 118 331 118 Q397 118 419.5 147 Q442 176 442 233 L442 700 Z M184 840 Q184 866 202.5 885.5 Q221 905 250 905 Q279 905 296.5 885.5 Q314 866 314 840 Q314 813 296.5 794.5 Q279 776 250 776 Q221 776 202.5 794.5 Q184 813 184 840 Z M349 840 Q349 866 367 885.5 Q385 905 414 905 Q443 905 461 885.5 Q479 866 479 840 Q479 813 461 794.5 Q443 776 414 776 Q385 776 367 794.5 Q349 813 349 840 Z " />
<glyph glyph-name="Yacute" unicode="&#xdd;" horiz-adv-x="617" d="M234 0 L234 259 L-5 700 L179 700 L319 422 L449 700 L605 700 L396 278 L396 0 L234 0 Z M315 747 L273 793 L404 926 L430 926 L501 838 L335 747 L315 747 Z " />
<glyph glyph-name="Ygrave" unicode="&#x1ef2;" horiz-adv-x="617" d="M234 0 L234 259 L-5 700 L179 700 L319 422 L449 700 L605 700 L396 278 L396 0 L234 0 Z M328 747 L308 747 L142 838 L213 926 L239 926 L370 793 L328 747 Z " />
<glyph glyph-name="Thorn" unicode="&#xde;" horiz-adv-x="604" d="M229 458 L229 254 L304 254 Q368 254 391 280 Q414 306 414 360 Q414 409 391 433.5 Q368 458 304 458 L229 458 Z M67 0 L67 700 L229 700 L229 576 L304 576 Q433 576 507.5 525.5 Q582 475 582 368 Q582 308 562.5 264 Q543 220 506.5 191.5 Q470 163 418.5 149.5 Q367 136 304 136 L229 136 L229 0 L67 0 Z " />
<glyph glyph-name="germandbls" unicode="&#xdf;" horiz-adv-x="624" d="M302 129 Q327 115 356.5 106 Q386 97 421 97 Q471 97 471 141 Q471 160 446.5 184 Q422 208 390 236 Q348 273 325.5 301 Q303 329 303 367 Q303 397 318 421.5 Q333 446 351.5 469.5 Q370 493 385 517.5 Q400 542 400 571 Q400 591 392.5 603.5 Q385 616 373.5 623 Q362 630 348 632.5 Q334 635 321 635 Q287 635 262.5 619.5 Q238 604 238 557 L238 0 L86 0 L86 423 L24 423 L24 528 L86 528 L86 547 Q86 581 100.5 615.5 Q115 650 144.5 677.5 Q174 705 217.5 722.5 Q261 740 320 740 Q352 740 389.5 733 Q427 726 458.5 707 Q490 688 511 656 Q532 624 532 573 Q532 540 518 515.5 Q504 491 487.5 471 Q471 451 457 433 Q443 415 443 396 Q443 375 456.5 358.5 Q470 342 496 316 Q518 293 539.5 272.5 Q561 252 577.5 230 Q594 208 604.5 184 Q615 160 615 131 Q615 69 572 29.5 Q529 -10 445 -10 Q404 -10 364.5 -3.5 Q325 3 302 13 L302 129 L302 129 Z " />
<glyph glyph-name="agrave" unicode="&#xe0;" horiz-adv-x="511" d="M233 111 Q258 111 278.5 122 Q299 133 310 141 L310 208 L239 208 Q204 208 187 197.5 Q170 187 170 159 Q170 133 185 122 Q200 111 233 111 Z M314 53 Q307 45 294 34.5 Q281 24 263.5 14 Q246 4 223.5 -3 Q201 -10 174 -10 Q135 -10 106 2 Q77 14 58 35 Q39 56 29.5 85 Q20 114 20 148 Q20 229 70 270.5 Q120 312 202 312 L310 312 L310 338 Q310 355 308 369 Q306 383 296.5 393.5 Q287 404 267 409.5 Q247 415 211 415 Q185 415 162 412 Q139 409 119.5 405 Q100 401 86 396.5 Q72 392 65 390 L65 510 Q97 521 147.5 530.5 Q198 540 263 540 Q320 540 357.5 525.5 Q395 511 418 486.5 Q441 462 450.5 429.5 Q460 397 460 360 L460 0 L364 0 Q334 0 326 14 Q318 28 318 44 L318 53 L314 53 Z M275 577 L255 577 L89 668 L160 756 L186 756 L317 623 L275 577 Z " />
<glyph glyph-name="aacute" unicode="&#xe1;" horiz-adv-x="511" d="M233 111 Q258 111 278.5 122 Q299 133 310 141 L310 208 L239 208 Q204 208 187 197.5 Q170 187 170 159 Q170 133 185 122 Q200 111 233 111 Z M314 53 Q307 45 294 34.5 Q281 24 263.5 14 Q246 4 223.5 -3 Q201 -10 174 -10 Q135 -10 106 2 Q77 14 58 35 Q39 56 29.5 85 Q20 114 20 148 Q20 229 70 270.5 Q120 312 202 312 L310 312 L310 338 Q310 355 308 369 Q306 383 296.5 393.5 Q287 404 267 409.5 Q247 415 211 415 Q185 415 162 412 Q139 409 119.5 405 Q100 401 86 396.5 Q72 392 65 390 L65 510 Q97 521 147.5 530.5 Q198 540 263 540 Q320 540 357.5 525.5 Q395 511 418 486.5 Q441 462 450.5 429.5 Q460 397 460 360 L460 0 L364 0 Q334 0 326 14 Q318 28 318 44 L318 53 L314 53 Z M255 577 L213 623 L344 756 L370 756 L441 668 L275 577 L255 577 Z " />
<glyph glyph-name="acircumflex" unicode="&#xe2;" horiz-adv-x="511" d="M233 111 Q258 111 278.5 122 Q299 133 310 141 L310 208 L239 208 Q204 208 187 197.5 Q170 187 170 159 Q170 133 185 122 Q200 111 233 111 Z M314 53 Q307 45 294 34.5 Q281 24 263.5 14 Q246 4 223.5 -3 Q201 -10 174 -10 Q135 -10 106 2 Q77 14 58 35 Q39 56 29.5 85 Q20 114 20 148 Q20 229 70 270.5 Q120 312 202 312 L310 312 L310 338 Q310 355 308 369 Q306 383 296.5 393.5 Q287 404 267 409.5 Q247 415 211 415 Q185 415 162 412 Q139 409 119.5 405 Q100 401 86 396.5 Q72 392 65 390 L65 510 Q97 521 147.5 530.5 Q198 540 263 540 Q320 540 357.5 525.5 Q395 511 418 486.5 Q441 462 450.5 429.5 Q460 397 460 360 L460 0 L364 0 Q334 0 326 14 Q318 28 318 44 L318 53 L314 53 Z M131 577 L104 610 L241 756 L287 756 L424 610 L397 577 L375 577 L264 650 L153 577 L131 577 Z " />
<glyph glyph-name="atilde" unicode="&#xe3;" horiz-adv-x="511" d="M233 111 Q258 111 278.5 122 Q299 133 310 141 L310 208 L239 208 Q204 208 187 197.5 Q170 187 170 159 Q170 133 185 122 Q200 111 233 111 Z M314 53 Q307 45 294 34.5 Q281 24 263.5 14 Q246 4 223.5 -3 Q201 -10 174 -10 Q135 -10 106 2 Q77 14 58 35 Q39 56 29.5 85 Q20 114 20 148 Q20 229 70 270.5 Q120 312 202 312 L310 312 L310 338 Q310 355 308 369 Q306 383 296.5 393.5 Q287 404 267 409.5 Q247 415 211 415 Q185 415 162 412 Q139 409 119.5 405 Q100 401 86 396.5 Q72 392 65 390 L65 510 Q97 521 147.5 530.5 Q198 540 263 540 Q320 540 357.5 525.5 Q395 511 418 486.5 Q441 462 450.5 429.5 Q460 397 460 360 L460 0 L364 0 Q334 0 326 14 Q318 28 318 44 L318 53 L314 53 Z M423 728 L423 683 Q423 633 399.5 611 Q376 589 336 589 Q313 589 294 594.5 Q275 600 258.5 607 Q242 614 229 619.5 Q216 625 206 625 Q201 625 198 623.5 Q195 622 193 620 Q190 618 189 616 L189 578 L105 578 L105 619 Q105 678 128.5 700 Q152 722 188 722 Q210 722 229.5 715.5 Q249 709 265.5 701.5 Q282 694 296.5 687.5 Q311 681 323 681 Q334 681 338 688 Q340 691 341 695 L341 728 L423 728 Z " />
<glyph glyph-name="adieresis" unicode="&#xe4;" horiz-adv-x="511" d="M233 111 Q258 111 278.5 122 Q299 133 310 141 L310 208 L239 208 Q204 208 187 197.5 Q170 187 170 159 Q170 133 185 122 Q200 111 233 111 Z M314 53 Q307 45 294 34.5 Q281 24 263.5 14 Q246 4 223.5 -3 Q201 -10 174 -10 Q135 -10 106 2 Q77 14 58 35 Q39 56 29.5 85 Q20 114 20 148 Q20 229 70 270.5 Q120 312 202 312 L310 312 L310 338 Q310 355 308 369 Q306 383 296.5 393.5 Q287 404 267 409.5 Q247 415 211 415 Q185 415 162 412 Q139 409 119.5 405 Q100 401 86 396.5 Q72 392 65 390 L65 510 Q97 521 147.5 530.5 Q198 540 263 540 Q320 540 357.5 525.5 Q395 511 418 486.5 Q441 462 450.5 429.5 Q460 397 460 360 L460 0 L364 0 Q334 0 326 14 Q318 28 318 44 L318 53 L314 53 Z M116 660 Q116 686 134.5 705.5 Q153 725 182 725 Q211 725 228.5 705.5 Q246 686 246 660 Q246 633 228.5 614.5 Q211 596 182 596 Q153 596 134.5 614.5 Q116 633 116 660 Z M281 660 Q281 686 299 705.5 Q317 725 346 725 Q375 725 393 705.5 Q411 686 411 660 Q411 633 393 614.5 Q375 596 346 596 Q317 596 299 614.5 Q281 633 281 660 Z " />
<glyph glyph-name="aring" unicode="&#xe5;" horiz-adv-x="511" d="M233 111 Q258 111 278.5 122 Q299 133 310 141 L310 208 L239 208 Q204 208 187 197.5 Q170 187 170 159 Q170 133 185 122 Q200 111 233 111 Z M314 53 Q307 45 294 34.5 Q281 24 263.5 14 Q246 4 223.5 -3 Q201 -10 174 -10 Q135 -10 106 2 Q77 14 58 35 Q39 56 29.5 85 Q20 114 20 148 Q20 229 70 270.5 Q120 312 202 312 L310 312 L310 338 Q310 355 308 369 Q306 383 296.5 393.5 Q287 404 267 409.5 Q247 415 211 415 Q185 415 162 412 Q139 409 119.5 405 Q100 401 86 396.5 Q72 392 65 390 L65 510 Q97 521 147.5 530.5 Q198 540 263 540 Q320 540 357.5 525.5 Q395 511 418 486.5 Q441 462 450.5 429.5 Q460 397 460 360 L460 0 L364 0 Q334 0 326 14 Q318 28 318 44 L318 53 L314 53 Z M389 656 Q389 611 353 589.5 Q317 568 263 568 Q210 568 174 589.5 Q138 611 138 656 Q138 701 174 722.5 Q210 744 263 744 Q317 744 353 722.5 Q389 701 389 656 Z M307 656 Q307 692 263 692 Q220 692 220 656 Q220 639 230 629.5 Q240 620 263 620 Q286 620 296.5 629.5 Q307 639 307 656 Z " />
<glyph glyph-name="ae" unicode="&#xe6;" horiz-adv-x="774" d="M533 431 Q495 431 478.5 402.5 Q462 374 458 315 L599 315 L599 344 Q599 385 585 408 Q571 431 533 431 Z M717 27 Q697 13 656 1.5 Q615 -10 549 -10 Q499 -10 450 10.5 Q401 31 365 76 Q356 67 340 52 Q324 37 300 23.5 Q276 10 244.5 0 Q213 -10 174 -10 Q135 -10 106 2 Q77 14 58 35 Q39 56 29.5 85 Q20 114 20 148 Q20 229 70 270.5 Q120 312 202 312 L310 312 L310 338 Q310 355 308 369 Q306 383 296.5 393.5 Q287 404 267 409.5 Q247 415 211 415 Q185 415 162 412 Q139 409 119.5 405 Q100 401 86 396.5 Q72 392 65 390 L65 510 Q97 521 147.5 530.5 Q198 540 263 540 Q312 540 343.5 524 Q375 508 393 481 Q449 540 534 540 Q585 540 624.5 524 Q664 508 691 479 Q718 450 731.5 409 Q745 368 745 317 L745 230 L727 211 L459 211 Q464 179 476.5 158.5 Q489 138 507 126 Q525 114 549 109.5 Q573 105 601 105 Q643 105 673.5 113.5 Q704 122 717 126 L717 27 Z M233 111 Q262 111 286 120 Q310 129 329 140 Q316 172 312 208 L239 208 Q204 208 187 197.5 Q170 187 170 159 Q170 133 185 122 Q200 111 233 111 Z " />
<glyph glyph-name="ccedilla" unicode="&#xe7;" horiz-adv-x="439" d="M242 -180 Q210 -180 180.5 -171.5 Q151 -163 134 -151 L155 -102 Q164 -107 186.5 -115 Q209 -123 229 -123 Q243 -123 252 -119.5 Q261 -116 261 -105 Q261 -89 238.5 -80 Q216 -71 178 -66 L178 -46 L213 -4 Q174 4 140.5 24 Q107 44 82.5 76 Q58 108 43.5 153.5 Q29 199 29 258 Q29 329 49.5 382 Q70 435 105.5 470 Q141 505 187.5 522.5 Q234 540 286 540 Q323 540 353.5 536 Q384 532 404 526 L404 403 Q381 408 361 411.5 Q341 415 307 415 Q244 415 215.5 376.5 Q187 338 187 264 Q187 188 219 152 Q251 116 312 116 Q338 116 363 121 Q388 126 408 131 L408 16 Q385 4 353.5 -2 Q322 -8 288 -10 L269 -32 Q311 -34 337.5 -51 Q364 -68 364 -102 Q364 -124 353.5 -139 Q343 -154 326 -163 Q309 -172 287 -176 Q265 -180 242 -180 Z " />
<glyph glyph-name="egrave" unicode="&#xe8;" horiz-adv-x="500" d="M260 431 Q222 431 205.5 402.5 Q189 374 185 315 L326 315 L326 344 Q326 385 312 408 Q298 431 260 431 Z M444 27 Q424 13 383 1.5 Q342 -10 276 -10 Q229 -10 184.5 5 Q140 20 105.5 52.5 Q71 85 50 135 Q29 185 29 255 Q29 324 46.5 377 Q64 430 94.5 466.5 Q125 503 167.5 521.5 Q210 540 261 540 Q312 540 351.5 524 Q391 508 418 479 Q445 450 458.5 409 Q472 368 472 317 L472 230 L454 211 L186 211 Q191 179 203.5 158.5 Q216 138 234 126 Q252 114 276 109.5 Q300 105 328 105 Q370 105 400.5 113.5 Q431 122 444 126 L444 27 Z M272 577 L252 577 L86 668 L157 756 L183 756 L314 623 L272 577 Z " />
<glyph glyph-name="eacute" unicode="&#xe9;" horiz-adv-x="500" d="M252 577 L210 623 L341 756 L367 756 L438 668 L272 577 L252 577 Z M260 431 Q222 431 205.5 402.5 Q189 374 185 315 L326 315 L326 344 Q326 385 312 408 Q298 431 260 431 Z M444 27 Q424 13 383 1.5 Q342 -10 276 -10 Q229 -10 184.5 5 Q140 20 105.5 52.5 Q71 85 50 135 Q29 185 29 255 Q29 324 46.5 377 Q64 430 94.5 466.5 Q125 503 167.5 521.5 Q210 540 261 540 Q312 540 351.5 524 Q391 508 418 479 Q445 450 458.5 409 Q472 368 472 317 L472 230 L454 211 L186 211 Q191 179 203.5 158.5 Q216 138 234 126 Q252 114 276 109.5 Q300 105 328 105 Q370 105 400.5 113.5 Q431 122 444 126 L444 27 Z " />
<glyph glyph-name="ecircumflex" unicode="&#xea;" horiz-adv-x="500" d="M128 577 L101 610 L238 756 L284 756 L421 610 L394 577 L372 577 L261 650 L150 577 L128 577 Z M260 431 Q222 431 205.5 402.5 Q189 374 185 315 L326 315 L326 344 Q326 385 312 408 Q298 431 260 431 Z M444 27 Q424 13 383 1.5 Q342 -10 276 -10 Q229 -10 184.5 5 Q140 20 105.5 52.5 Q71 85 50 135 Q29 185 29 255 Q29 324 46.5 377 Q64 430 94.5 466.5 Q125 503 167.5 521.5 Q210 540 261 540 Q312 540 351.5 524 Q391 508 418 479 Q445 450 458.5 409 Q472 368 472 317 L472 230 L454 211 L186 211 Q191 179 203.5 158.5 Q216 138 234 126 Q252 114 276 109.5 Q300 105 328 105 Q370 105 400.5 113.5 Q431 122 444 126 L444 27 Z " />
<glyph glyph-name="edieresis" unicode="&#xeb;" horiz-adv-x="500" d="M113 660 Q113 686 131.5 705.5 Q150 725 179 725 Q208 725 225.5 705.5 Q243 686 243 660 Q243 633 225.5 614.5 Q208 596 179 596 Q150 596 131.5 614.5 Q113 633 113 660 Z M278 660 Q278 686 296 705.5 Q314 725 343 725 Q372 725 390 705.5 Q408 686 408 660 Q408 633 390 614.5 Q372 596 343 596 Q314 596 296 614.5 Q278 633 278 660 Z M260 431 Q222 431 205.5 402.5 Q189 374 185 315 L326 315 L326 344 Q326 385 312 408 Q298 431 260 431 Z M444 27 Q424 13 383 1.5 Q342 -10 276 -10 Q229 -10 184.5 5 Q140 20 105.5 52.5 Q71 85 50 135 Q29 185 29 255 Q29 324 46.5 377 Q64 430 94.5 466.5 Q125 503 167.5 521.5 Q210 540 261 540 Q312 540 351.5 524 Q391 508 418 479 Q445 450 458.5 409 Q472 368 472 317 L472 230 L454 211 L186 211 Q191 179 203.5 158.5 Q216 138 234 126 Q252 114 276 109.5 Q300 105 328 105 Q370 105 400.5 113.5 Q431 122 444 126 L444 27 Z " />
<glyph glyph-name="igrave" unicode="&#xec;" horiz-adv-x="262" d="M207 530 L207 0 L55 0 L55 530 L207 530 Z M143 577 L123 577 L-43 668 L28 756 L54 756 L185 623 L143 577 Z " />
<glyph glyph-name="iacute" unicode="&#xed;" horiz-adv-x="262" d="M123 577 L81 623 L212 756 L238 756 L309 668 L143 577 L123 577 Z M207 530 L207 0 L55 0 L55 530 L207 530 Z " />
<glyph glyph-name="icircumflex" unicode="&#xee;" horiz-adv-x="262" d="M-1 577 L-28 610 L109 756 L155 756 L292 610 L265 577 L243 577 L132 650 L21 577 L-1 577 Z M207 530 L207 0 L55 0 L55 530 L207 530 Z " />
<glyph glyph-name="idieresis" unicode="&#xef;" horiz-adv-x="262" d="M-16 660 Q-16 686 2.5 705.5 Q21 725 50 725 Q79 725 96.5 705.5 Q114 686 114 660 Q114 633 96.5 614.5 Q79 596 50 596 Q21 596 2.5 614.5 Q-16 633 -16 660 Z M149 660 Q149 686 167 705.5 Q185 725 214 725 Q243 725 261 705.5 Q279 686 279 660 Q279 633 261 614.5 Q243 596 214 596 Q185 596 167 614.5 Q149 633 149 660 Z M207 530 L207 0 L55 0 L55 530 L207 530 Z " />
<glyph glyph-name="eth" unicode="&#xf0;" horiz-adv-x="546" d="M272 -10 Q222 -10 178 6.5 Q134 23 101 57 Q68 91 48.5 143 Q29 195 29 265 Q29 335 47.5 387 Q66 439 98 473 Q130 507 172 523.5 Q214 540 261 540 Q271 540 282 538.5 Q293 537 301 534 Q290 548 277 563.5 Q264 579 251 593 L188 565 L162 624 L199 641 Q188 650 176 659 Q164 668 158 673 L219 738 Q265 717 305 688 L377 720 L404 660 L361 641 Q435 569 475 473 Q515 377 515 265 Q515 195 495.5 143 Q476 91 443 57 Q410 23 366 6.5 Q322 -10 272 -10 Z M272 102 Q321 102 339 143.5 Q357 185 357 265 Q357 345 339 386.5 Q321 428 272 428 Q223 428 205 386.5 Q187 345 187 265 Q187 185 205 143.5 Q223 102 272 102 Z " />
<glyph glyph-name="ntilde" unicode="&#xf1;" horiz-adv-x="566" d="M294 407 Q271 407 249 395.5 Q227 384 207 364 L207 0 L55 0 L55 530 L153 530 Q183 530 191 516 Q199 502 199 486 L199 470 L203 470 Q210 478 224 490 Q238 502 257 513 Q276 524 300.5 532 Q325 540 355 540 Q401 540 431.5 527.5 Q462 515 480.5 493 Q499 471 506.5 442 Q514 413 514 380 L514 0 L362 0 L362 336 Q362 347 360.5 359.5 Q359 372 352.5 382.5 Q346 393 332 400 Q318 407 294 407 Z M450 728 L450 683 Q450 633 426.5 611 Q403 589 363 589 Q340 589 321 594.5 Q302 600 285.5 607 Q269 614 256 619.5 Q243 625 233 625 Q228 625 225 623.5 Q222 622 220 620 Q217 618 216 616 L216 578 L132 578 L132 619 Q132 678 155.5 700 Q179 722 215 722 Q237 722 256.5 715.5 Q276 709 292.5 701.5 Q309 694 323.5 687.5 Q338 681 350 681 Q361 681 365 688 Q367 691 368 695 L368 728 L450 728 Z " />
<glyph glyph-name="ograve" unicode="&#xf2;" horiz-adv-x="544" d="M515 265 Q515 195 495.5 143 Q476 91 443 57 Q410 23 366 6.5 Q322 -10 272 -10 Q222 -10 178 6.5 Q134 23 101 57 Q68 91 48.5 143 Q29 195 29 265 Q29 335 48.5 387 Q68 439 101 473 Q134 507 178 523.5 Q222 540 272 540 Q322 540 366 523.5 Q410 507 443 473 Q476 439 495.5 387 Q515 335 515 265 Z M357 265 Q357 345 339 386.5 Q321 428 272 428 Q223 428 205 386.5 Q187 345 187 265 Q187 185 205 143.5 Q223 102 272 102 Q321 102 339 143.5 Q357 185 357 265 Z M289 577 L269 577 L103 668 L174 756 L200 756 L331 623 L289 577 Z " />
<glyph glyph-name="oacute" unicode="&#xf3;" horiz-adv-x="544" d="M269 577 L227 623 L358 756 L384 756 L455 668 L289 577 L269 577 Z M515 265 Q515 195 495.5 143 Q476 91 443 57 Q410 23 366 6.5 Q322 -10 272 -10 Q222 -10 178 6.5 Q134 23 101 57 Q68 91 48.5 143 Q29 195 29 265 Q29 335 48.5 387 Q68 439 101 473 Q134 507 178 523.5 Q222 540 272 540 Q322 540 366 523.5 Q410 507 443 473 Q476 439 495.5 387 Q515 335 515 265 Z M357 265 Q357 345 339 386.5 Q321 428 272 428 Q223 428 205 386.5 Q187 345 187 265 Q187 185 205 143.5 Q223 102 272 102 Q321 102 339 143.5 Q357 185 357 265 Z " />
<glyph glyph-name="ocircumflex" unicode="&#xf4;" horiz-adv-x="544" d="M145 577 L118 610 L255 756 L301 756 L438 610 L411 577 L389 577 L278 650 L167 577 L145 577 Z M515 265 Q515 195 495.5 143 Q476 91 443 57 Q410 23 366 6.5 Q322 -10 272 -10 Q222 -10 178 6.5 Q134 23 101 57 Q68 91 48.5 143 Q29 195 29 265 Q29 335 48.5 387 Q68 439 101 473 Q134 507 178 523.5 Q222 540 272 540 Q322 540 366 523.5 Q410 507 443 473 Q476 439 495.5 387 Q515 335 515 265 Z M357 265 Q357 345 339 386.5 Q321 428 272 428 Q223 428 205 386.5 Q187 345 187 265 Q187 185 205 143.5 Q223 102 272 102 Q321 102 339 143.5 Q357 185 357 265 Z " />
<glyph glyph-name="otilde" unicode="&#xf5;" horiz-adv-x="544" d="M515 265 Q515 195 495.5 143 Q476 91 443 57 Q410 23 366 6.5 Q322 -10 272 -10 Q222 -10 178 6.5 Q134 23 101 57 Q68 91 48.5 143 Q29 195 29 265 Q29 335 48.5 387 Q68 439 101 473 Q134 507 178 523.5 Q222 540 272 540 Q322 540 366 523.5 Q410 507 443 473 Q476 439 495.5 387 Q515 335 515 265 Z M357 265 Q357 345 339 386.5 Q321 428 272 428 Q223 428 205 386.5 Q187 345 187 265 Q187 185 205 143.5 Q223 102 272 102 Q321 102 339 143.5 Q357 185 357 265 Z M437 728 L437 683 Q437 633 413.5 611 Q390 589 350 589 Q327 589 308 594.5 Q289 600 272.5 607 Q256 614 243 619.5 Q230 625 220 625 Q215 625 212 623.5 Q209 622 207 620 Q204 618 203 616 L203 578 L119 578 L119 619 Q119 678 142.5 700 Q166 722 202 722 Q224 722 243.5 715.5 Q263 709 279.5 701.5 Q296 694 310.5 687.5 Q325 681 337 681 Q348 681 352 688 Q354 691 355 695 L355 728 L437 728 Z " />
<glyph glyph-name="odieresis" unicode="&#xf6;" horiz-adv-x="544" d="M130 660 Q130 686 148.5 705.5 Q167 725 196 725 Q225 725 242.5 705.5 Q260 686 260 660 Q260 633 242.5 614.5 Q225 596 196 596 Q167 596 148.5 614.5 Q130 633 130 660 Z M295 660 Q295 686 313 705.5 Q331 725 360 725 Q389 725 407 705.5 Q425 686 425 660 Q425 633 407 614.5 Q389 596 360 596 Q331 596 313 614.5 Q295 633 295 660 Z M515 265 Q515 195 495.5 143 Q476 91 443 57 Q410 23 366 6.5 Q322 -10 272 -10 Q222 -10 178 6.5 Q134 23 101 57 Q68 91 48.5 143 Q29 195 29 265 Q29 335 48.5 387 Q68 439 101 473 Q134 507 178 523.5 Q222 540 272 540 Q322 540 366 523.5 Q410 507 443 473 Q476 439 495.5 387 Q515 335 515 265 Z M357 265 Q357 345 339 386.5 Q321 428 272 428 Q223 428 205 386.5 Q187 345 187 265 Q187 185 205 143.5 Q223 102 272 102 Q321 102 339 143.5 Q357 185 357 265 Z " />
<glyph glyph-name="divide" unicode="&#xf7;" horiz-adv-x="508" d="M40 386 L468 386 L468 291 L40 291 L40 386 Z M188 175 Q188 203 208 222 Q228 241 254 241 Q280 241 300 222 Q320 203 320 175 Q320 149 300 129.5 Q280 110 254 110 Q228 110 208 129.5 Q188 149 188 175 Z M188 501 Q188 529 208 548 Q228 567 254 567 Q280 567 300 548 Q320 529 320 501 Q320 475 300 455.5 Q280 436 254 436 Q228 436 208 455.5 Q188 475 188 501 Z " />
<glyph glyph-name="oslash" unicode="&#xf8;" horiz-adv-x="545" d="M26 -10 L87 73 Q61 107 45.5 154.5 Q30 202 30 265 Q30 335 49.5 387 Q69 439 102 473 Q135 507 179 523.5 Q223 540 273 540 Q345 540 403 505 L429 540 L520 540 L458 456 Q485 422 500.5 375 Q516 328 516 265 Q516 195 496.5 143 Q477 91 444 57 Q411 23 367 6.5 Q323 -10 273 -10 Q237 -10 204 -1.5 Q171 7 143 24 L118 -10 L26 -10 Z M188 265 Q188 251 188 238 Q188 225 190 213 L329 403 Q309 428 273 428 Q224 428 206 386.5 Q188 345 188 265 Z M358 265 Q358 279 357.5 291.5 Q357 304 356 316 L217 126 Q236 102 273 102 Q322 102 340 143.5 Q358 185 358 265 Z " />
<glyph glyph-name="ugrave" unicode="&#xf9;" horiz-adv-x="551" d="M348 60 Q340 52 327 40 Q314 28 295.5 17 Q277 6 253 -2 Q229 -10 201 -10 Q158 -10 129.5 2.5 Q101 15 83.5 37 Q66 59 59 88 Q52 117 52 150 L52 530 L204 530 L204 193 Q204 182 205.5 169.5 Q207 157 213 146.5 Q219 136 231 129.5 Q243 123 265 123 Q291 123 312 132.5 Q333 142 344 150 L344 530 L496 530 L496 0 L399 0 Q369 0 361 14 Q353 28 353 44 L353 60 L348 60 Z M273 577 L253 577 L87 668 L158 756 L184 756 L315 623 L273 577 Z " />
<glyph glyph-name="uacute" unicode="&#xfa;" horiz-adv-x="551" d="M253 577 L211 623 L342 756 L368 756 L439 668 L273 577 L253 577 Z M348 60 Q340 52 327 40 Q314 28 295.5 17 Q277 6 253 -2 Q229 -10 201 -10 Q158 -10 129.5 2.5 Q101 15 83.5 37 Q66 59 59 88 Q52 117 52 150 L52 530 L204 530 L204 193 Q204 182 205.5 169.5 Q207 157 213 146.5 Q219 136 231 129.5 Q243 123 265 123 Q291 123 312 132.5 Q333 142 344 150 L344 530 L496 530 L496 0 L399 0 Q369 0 361 14 Q353 28 353 44 L353 60 L348 60 Z " />
<glyph glyph-name="ucircumflex" unicode="&#xfb;" horiz-adv-x="551" d="M129 577 L102 610 L239 756 L285 756 L422 610 L395 577 L373 577 L262 650 L151 577 L129 577 Z M348 60 Q340 52 327 40 Q314 28 295.5 17 Q277 6 253 -2 Q229 -10 201 -10 Q158 -10 129.5 2.5 Q101 15 83.5 37 Q66 59 59 88 Q52 117 52 150 L52 530 L204 530 L204 193 Q204 182 205.5 169.5 Q207 157 213 146.5 Q219 136 231 129.5 Q243 123 265 123 Q291 123 312 132.5 Q333 142 344 150 L344 530 L496 530 L496 0 L399 0 Q369 0 361 14 Q353 28 353 44 L353 60 L348 60 Z " />
<glyph glyph-name="udieresis" unicode="&#xfc;" horiz-adv-x="551" d="M114 660 Q114 686 132.5 705.5 Q151 725 180 725 Q209 725 226.5 705.5 Q244 686 244 660 Q244 633 226.5 614.5 Q209 596 180 596 Q151 596 132.5 614.5 Q114 633 114 660 Z M279 660 Q279 686 297 705.5 Q315 725 344 725 Q373 725 391 705.5 Q409 686 409 660 Q409 633 391 614.5 Q373 596 344 596 Q315 596 297 614.5 Q279 633 279 660 Z M348 60 Q340 52 327 40 Q314 28 295.5 17 Q277 6 253 -2 Q229 -10 201 -10 Q158 -10 129.5 2.5 Q101 15 83.5 37 Q66 59 59 88 Q52 117 52 150 L52 530 L204 530 L204 193 Q204 182 205.5 169.5 Q207 157 213 146.5 Q219 136 231 129.5 Q243 123 265 123 Q291 123 312 132.5 Q333 142 344 150 L344 530 L496 530 L496 0 L399 0 Q369 0 361 14 Q353 28 353 44 L353 60 L348 60 Z " />
<glyph glyph-name="yacute" unicode="&#xfd;" horiz-adv-x="521" d="M147 -170 L196 -13 L5 530 L172 530 L266 208 L367 530 L515 530 L274 -170 L147 -170 Z M260 577 L218 623 L349 756 L375 756 L446 668 L280 577 L260 577 Z " />
<glyph glyph-name="ygrave" unicode="&#x1ef3;" horiz-adv-x="521" d="M147 -170 L196 -13 L5 530 L172 530 L266 208 L367 530 L515 530 L274 -170 L147 -170 Z M280 577 L260 577 L94 668 L165 756 L191 756 L322 623 L280 577 Z " />
<glyph glyph-name="thorn" unicode="&#xfe;" horiz-adv-x="567" d="M300 116 Q319 116 333.5 124 Q348 132 358 150 Q368 168 373.5 197.5 Q379 227 379 270 Q379 313 373.5 340.5 Q368 368 357 383.5 Q346 399 330.5 404.5 Q315 410 296 410 Q275 410 250.5 399 Q226 388 207 366 L207 171 Q231 140 253 128 Q275 116 300 116 Z M326 -10 Q288 -10 258 5.5 Q228 21 207 42 L207 -170 L55 -170 L55 730 L207 730 L207 474 Q229 501 263.5 520.5 Q298 540 348 540 Q388 540 422.5 523.5 Q457 507 482.5 473.5 Q508 440 522.5 389.5 Q537 339 537 272 Q537 203 520 150.5 Q503 98 474.5 62.5 Q446 27 407.5 8.5 Q369 -10 326 -10 Z " />
<glyph glyph-name="ydieresis" unicode="&#xff;" horiz-adv-x="521" d="M147 -170 L196 -13 L5 530 L172 530 L266 208 L367 530 L515 530 L274 -170 L147 -170 Z M121 660 Q121 686 139.5 705.5 Q158 725 187 725 Q216 725 233.5 705.5 Q251 686 251 660 Q251 633 233.5 614.5 Q216 596 187 596 Q158 596 139.5 614.5 Q121 633 121 660 Z M286 660 Q286 686 304 705.5 Q322 725 351 725 Q380 725 398 705.5 Q416 686 416 660 Q416 633 398 614.5 Q380 596 351 596 Q322 596 304 614.5 Q286 633 286 660 Z " />
<glyph glyph-name="Amacron" unicode="&#x100;" horiz-adv-x="635" d="M420 131 L199 131 L158 0 L4 0 L235 702 L397 702 L633 0 L461 0 L420 131 Z M235 249 L383 249 L309 485 L235 249 Z M184 876 L448 876 L448 788 L184 788 L184 876 Z " />
<glyph glyph-name="amacron" unicode="&#x101;" horiz-adv-x="511" d="M233 111 Q258 111 278.5 122 Q299 133 310 141 L310 208 L239 208 Q204 208 187 197.5 Q170 187 170 159 Q170 133 185 122 Q200 111 233 111 Z M314 53 Q307 45 294 34.5 Q281 24 263.5 14 Q246 4 223.5 -3 Q201 -10 174 -10 Q135 -10 106 2 Q77 14 58 35 Q39 56 29.5 85 Q20 114 20 148 Q20 229 70 270.5 Q120 312 202 312 L310 312 L310 338 Q310 355 308 369 Q306 383 296.5 393.5 Q287 404 267 409.5 Q247 415 211 415 Q185 415 162 412 Q139 409 119.5 405 Q100 401 86 396.5 Q72 392 65 390 L65 510 Q97 521 147.5 530.5 Q198 540 263 540 Q320 540 357.5 525.5 Q395 511 418 486.5 Q441 462 450.5 429.5 Q460 397 460 360 L460 0 L364 0 Q334 0 326 14 Q318 28 318 44 L318 53 L314 53 Z M132 696 L396 696 L396 608 L132 608 L132 696 Z " />
<glyph glyph-name="Abreve" unicode="&#x102;" horiz-adv-x="635" d="M420 131 L199 131 L158 0 L4 0 L235 702 L397 702 L633 0 L461 0 L420 131 Z M235 249 L383 249 L309 485 L235 249 Z M447 885 Q444 858 434.5 835 Q425 812 408.5 795 Q392 778 369 768.5 Q346 759 315 759 Q284 759 261 768.5 Q238 778 221.5 795 Q205 812 195.5 835 Q186 858 183 885 L253 905 Q259 885 274 868.5 Q289 852 316 852 Q345 852 362 867 Q379 882 385 901 L447 885 L447 885 Z " />
<glyph glyph-name="abreve" unicode="&#x103;" horiz-adv-x="511" d="M233 111 Q258 111 278.5 122 Q299 133 310 141 L310 208 L239 208 Q204 208 187 197.5 Q170 187 170 159 Q170 133 185 122 Q200 111 233 111 Z M314 53 Q307 45 294 34.5 Q281 24 263.5 14 Q246 4 223.5 -3 Q201 -10 174 -10 Q135 -10 106 2 Q77 14 58 35 Q39 56 29.5 85 Q20 114 20 148 Q20 229 70 270.5 Q120 312 202 312 L310 312 L310 338 Q310 355 308 369 Q306 383 296.5 393.5 Q287 404 267 409.5 Q247 415 211 415 Q185 415 162 412 Q139 409 119.5 405 Q100 401 86 396.5 Q72 392 65 390 L65 510 Q97 521 147.5 530.5 Q198 540 263 540 Q320 540 357.5 525.5 Q395 511 418 486.5 Q441 462 450.5 429.5 Q460 397 460 360 L460 0 L364 0 Q334 0 326 14 Q318 28 318 44 L318 53 L314 53 Z M401 717 Q396 692 385.5 669 Q375 646 358 628 Q341 610 317.5 599.5 Q294 589 264 589 Q234 589 211 599.5 Q188 610 171.5 627 Q155 644 144.5 666.5 Q134 689 129 713 L199 733 Q206 710 221 691 Q236 672 265 672 Q297 672 314 691 Q331 710 339 733 L401 717 L401 717 Z " />
<glyph glyph-name="Aogonek" unicode="&#x104;" horiz-adv-x="634" d="M399 -97 Q399 -65 416 -41 Q433 -17 460 0 L419 131 L198 131 L157 0 L3 0 L234 702 L396 702 L632 0 L567 0 Q548 0 535.5 -6.5 Q523 -13 515.5 -22.5 Q508 -32 505 -43 Q502 -54 502 -63 Q502 -86 516 -96 Q530 -106 551 -106 Q562 -106 578 -101.5 Q594 -97 612 -86 L628 -147 Q608 -161 578.5 -170.5 Q549 -180 516 -180 Q464 -180 431.5 -159.5 Q399 -139 399 -97 Z M234 249 L382 249 L308 485 L234 249 Z " />
<glyph glyph-name="aogonek" unicode="&#x105;" horiz-adv-x="511" d="M314 53 Q307 45 294 34.5 Q281 24 263.5 14 Q246 4 223.5 -3 Q201 -10 174 -10 Q135 -10 106 2 Q77 14 58 35 Q39 56 29.5 85 Q20 114 20 148 Q20 229 70 270.5 Q120 312 202 312 L310 312 L310 338 Q310 355 308 369 Q306 383 296.5 393.5 Q287 404 267 409.5 Q247 415 211 415 Q185 415 162 412 Q139 409 119.5 405 Q100 401 86 396.5 Q72 392 65 390 L65 510 Q97 521 147.5 530.5 Q198 540 263 540 Q320 540 357.5 525.5 Q395 511 418 486.5 Q441 462 450.5 429.5 Q460 397 460 360 L460 0 L411 0 Q392 0 379.5 -6.5 Q367 -13 359.5 -22.5 Q352 -32 349 -43 Q346 -54 346 -63 Q346 -86 360 -96 Q374 -106 395 -106 Q406 -106 422 -101.5 Q438 -97 456 -86 L472 -147 Q452 -161 422.5 -170.5 Q393 -180 360 -180 Q308 -180 275.5 -159.5 Q243 -139 243 -97 Q243 -59 267 -31.5 Q291 -4 326 13 Q321 19 319.5 27.5 Q318 36 318 44 L318 53 L314 53 Z M233 111 Q258 111 278.5 122 Q299 133 310 141 L310 208 L239 208 Q204 208 187 197.5 Q170 187 170 159 Q170 133 185 122 Q200 111 233 111 Z " />
<glyph glyph-name="Cacute" unicode="&#x106;" horiz-adv-x="544" d="M515 18 Q489 8 450.5 -1 Q412 -10 347 -10 Q201 -10 119 76 Q37 162 37 344 Q37 436 61 505 Q85 574 128.5 619.5 Q172 665 232.5 687.5 Q293 710 365 710 Q396 710 421.5 707.5 Q447 705 465 702 Q486 698 503 695 L503 567 Q488 571 476.5 573.5 Q465 576 453 577.5 Q441 579 427 580 Q413 581 394 581 Q341 581 305.5 566 Q270 551 248 522.5 Q226 494 216.5 452 Q207 410 207 357 Q207 300 215 255.5 Q223 211 242.5 181 Q262 151 294 135.5 Q326 120 375 120 Q416 120 446 127 Q476 134 515 147 L515 18 Z M355 747 L313 793 L444 926 L470 926 L541 838 L375 747 L355 747 Z " />
<glyph glyph-name="cacute" unicode="&#x107;" horiz-adv-x="439" d="M280 577 L238 623 L369 756 L395 756 L466 668 L300 577 L280 577 Z M408 16 Q382 2 344 -4 Q306 -10 268 -10 Q220 -10 177 6 Q134 22 101 55 Q68 88 48.5 138.5 Q29 189 29 258 Q29 329 49.5 382 Q70 435 105.5 470 Q141 505 187.5 522.5 Q234 540 286 540 Q323 540 353.5 536 Q384 532 404 526 L404 403 Q381 408 361 411.5 Q341 415 307 415 Q244 415 215.5 376.5 Q187 338 187 264 Q187 188 219 152 Q251 116 312 116 Q338 116 363 121 Q388 126 408 131 L408 16 Z " />
<glyph glyph-name="Ccircumflex" unicode="&#x108;" horiz-adv-x="544" d="M515 18 Q489 8 450.5 -1 Q412 -10 347 -10 Q201 -10 119 76 Q37 162 37 344 Q37 436 61 505 Q85 574 128.5 619.5 Q172 665 232.5 687.5 Q293 710 365 710 Q396 710 421.5 707.5 Q447 705 465 702 Q486 698 503 695 L503 567 Q488 571 476.5 573.5 Q465 576 453 577.5 Q441 579 427 580 Q413 581 394 581 Q341 581 305.5 566 Q270 551 248 522.5 Q226 494 216.5 452 Q207 410 207 357 Q207 300 215 255.5 Q223 211 242.5 181 Q262 151 294 135.5 Q326 120 375 120 Q416 120 446 127 Q476 134 515 147 L515 18 Z M229 747 L200 782 L340 929 L389 929 L529 782 L500 747 L477 747 L365 816 L252 747 L229 747 Z " />
<glyph glyph-name="ccircumflex" unicode="&#x109;" horiz-adv-x="439" d="M156 577 L129 610 L266 756 L312 756 L449 610 L422 577 L400 577 L289 650 L178 577 L156 577 Z M408 16 Q382 2 344 -4 Q306 -10 268 -10 Q220 -10 177 6 Q134 22 101 55 Q68 88 48.5 138.5 Q29 189 29 258 Q29 329 49.5 382 Q70 435 105.5 470 Q141 505 187.5 522.5 Q234 540 286 540 Q323 540 353.5 536 Q384 532 404 526 L404 403 Q381 408 361 411.5 Q341 415 307 415 Q244 415 215.5 376.5 Q187 338 187 264 Q187 188 219 152 Q251 116 312 116 Q338 116 363 121 Q388 126 408 131 L408 16 Z " />
<glyph glyph-name="Cdotaccent" unicode="&#x10a;" horiz-adv-x="544" d="M280 830 Q280 846 286.5 860.5 Q293 875 304.5 886 Q316 897 331.5 903.5 Q347 910 365 910 Q383 910 398.5 903.5 Q414 897 425.5 886 Q437 875 444 860.5 Q451 846 451 830 Q451 813 444 798.5 Q437 784 425.5 773 Q414 762 398.5 755.5 Q383 749 365 749 Q347 749 331.5 755.5 Q316 762 304.5 773 Q293 784 286.5 798.5 Q280 813 280 830 Z M515 18 Q489 8 450.5 -1 Q412 -10 347 -10 Q201 -10 119 76 Q37 162 37 344 Q37 436 61 505 Q85 574 128.5 619.5 Q172 665 232.5 687.5 Q293 710 365 710 Q396 710 421.5 707.5 Q447 705 465 702 Q486 698 503 695 L503 567 Q488 571 476.5 573.5 Q465 576 453 577.5 Q441 579 427 580 Q413 581 394 581 Q341 581 305.5 566 Q270 551 248 522.5 Q226 494 216.5 452 Q207 410 207 357 Q207 300 215 255.5 Q223 211 242.5 181 Q262 151 294 135.5 Q326 120 375 120 Q416 120 446 127 Q476 134 515 147 L515 18 Z " />
<glyph glyph-name="cdotaccent" unicode="&#x10b;" horiz-adv-x="439" d="M408 16 Q382 2 344 -4 Q306 -10 268 -10 Q220 -10 177 6 Q134 22 101 55 Q68 88 48.5 138.5 Q29 189 29 258 Q29 329 49.5 382 Q70 435 105.5 470 Q141 505 187.5 522.5 Q234 540 286 540 Q323 540 353.5 536 Q384 532 404 526 L404 403 Q381 408 361 411.5 Q341 415 307 415 Q244 415 215.5 376.5 Q187 338 187 264 Q187 188 219 152 Q251 116 312 116 Q338 116 363 121 Q388 126 408 131 L408 16 Z M203 660 Q203 676 209.5 690.5 Q216 705 227.5 716 Q239 727 254.5 733.5 Q270 740 288 740 Q306 740 321.5 733.5 Q337 727 348.5 716 Q360 705 367 690.5 Q374 676 374 660 Q374 643 367 628.5 Q360 614 348.5 603 Q337 592 321.5 585.5 Q306 579 288 579 Q270 579 254.5 585.5 Q239 592 227.5 603 Q216 614 209.5 628.5 Q203 643 203 660 Z " />
<glyph glyph-name="Ccaron" unicode="&#x10c;" horiz-adv-x="544" d="M515 18 Q489 8 450.5 -1 Q412 -10 347 -10 Q201 -10 119 76 Q37 162 37 344 Q37 436 61 505 Q85 574 128.5 619.5 Q172 665 232.5 687.5 Q293 710 365 710 Q396 710 421.5 707.5 Q447 705 465 702 Q486 698 503 695 L503 567 Q488 571 476.5 573.5 Q465 576 453 577.5 Q441 579 427 580 Q413 581 394 581 Q341 581 305.5 566 Q270 551 248 522.5 Q226 494 216.5 452 Q207 410 207 357 Q207 300 215 255.5 Q223 211 242.5 181 Q262 151 294 135.5 Q326 120 375 120 Q416 120 446 127 Q476 134 515 147 L515 18 Z M501 929 L530 894 L390 747 L341 747 L200 894 L229 929 L252 929 L365 860 L478 929 L501 929 Z " />
<glyph glyph-name="ccaron" unicode="&#x10d;" horiz-adv-x="439" d="M424 759 L453 724 L313 577 L264 577 L124 724 L153 759 L176 759 L288 690 L401 759 L424 759 Z M408 16 Q382 2 344 -4 Q306 -10 268 -10 Q220 -10 177 6 Q134 22 101 55 Q68 88 48.5 138.5 Q29 189 29 258 Q29 329 49.5 382 Q70 435 105.5 470 Q141 505 187.5 522.5 Q234 540 286 540 Q323 540 353.5 536 Q384 532 404 526 L404 403 Q381 408 361 411.5 Q341 415 307 415 Q244 415 215.5 376.5 Q187 338 187 264 Q187 188 219 152 Q251 116 312 116 Q338 116 363 121 Q388 126 408 131 L408 16 Z " />
<glyph glyph-name="Dcaron" unicode="&#x10e;" horiz-adv-x="668" d="M67 700 L303 700 Q377 700 437.5 679 Q498 658 541.5 615.5 Q585 573 608.5 508 Q632 443 632 355 Q632 265 608.5 198 Q585 131 541.5 87 Q498 43 437.5 21.5 Q377 0 303 0 L67 0 L67 700 Z M229 124 L303 124 Q348 124 378.5 138 Q409 152 427.5 181 Q446 210 454 253 Q462 296 462 355 Q462 411 454 452.5 Q446 494 427.5 521.5 Q409 549 378.5 562.5 Q348 576 303 576 L229 576 L229 124 Z M449 929 L478 894 L338 747 L289 747 L148 894 L177 929 L200 929 L313 860 L426 929 L449 929 Z " />
<glyph glyph-name="dcaron" unicode="&#x10f;" horiz-adv-x="598" d="M585 582 L585 780 L694 780 L694 719 L675 582 L585 582 Z M272 120 Q293 120 317.5 131 Q342 142 361 164 L361 359 Q337 390 315 402 Q293 414 268 414 Q230 414 209.5 379.5 Q189 345 189 260 Q189 217 194.5 189.5 Q200 162 211 146.5 Q222 131 237 125.5 Q252 120 272 120 Z M364 60 Q342 31 307 10.5 Q272 -10 220 -10 Q180 -10 145.5 6.5 Q111 23 85.5 56.5 Q60 90 45.5 140 Q31 190 31 258 Q31 327 48 379.5 Q65 432 93.5 467.5 Q122 503 160.5 521.5 Q199 540 242 540 Q280 540 310 524.5 Q340 509 361 488 L361 730 L513 730 L513 0 L415 0 Q385 0 377 14 Q369 28 369 44 L369 60 L364 60 Z " />
<glyph glyph-name="Dcroat" unicode="&#x110;" horiz-adv-x="674" d="M73 0 L73 315 L11 315 L11 395 L73 395 L73 700 L309 700 Q383 700 443.5 679 Q504 658 547.5 615.5 Q591 573 614.5 508 Q638 443 638 355 Q638 265 614.5 198 Q591 131 547.5 87 Q504 43 443.5 21.5 Q383 0 309 0 L73 0 Z M309 124 Q354 124 384.5 138 Q415 152 433.5 181 Q452 210 460 253 Q468 296 468 355 Q468 411 460 452.5 Q452 494 433.5 521.5 Q415 549 384.5 562.5 Q354 576 309 576 L235 576 L235 395 L379 395 L379 315 L235 315 L235 124 L309 124 Z " />
<glyph glyph-name="dcroat" unicode="&#x111;" horiz-adv-x="568" d="M243 646 L361 646 L361 730 L513 730 L513 646 L577 646 L577 568 L513 568 L513 0 L415 0 Q385 0 377 14 Q369 28 369 44 L369 60 L364 60 Q342 31 307 10.5 Q272 -10 220 -10 Q180 -10 145.5 6.5 Q111 23 85.5 56.5 Q60 90 45.5 140 Q31 190 31 258 Q31 327 48 379.5 Q65 432 93.5 467.5 Q122 503 160.5 521.5 Q199 540 242 540 Q280 540 310 524.5 Q340 509 361 488 L361 568 L243 568 L243 646 Z M272 120 Q293 120 317.5 131 Q342 142 361 164 L361 359 Q337 390 315 402 Q293 414 268 414 Q230 414 209.5 379.5 Q189 345 189 260 Q189 217 194.5 189.5 Q200 162 211 146.5 Q222 131 237 125.5 Q252 120 272 120 Z " />
<glyph glyph-name="Emacron" unicode="&#x112;" horiz-adv-x="563" d="M229 576 L229 418 L480 418 L480 296 L229 296 L229 124 L527 124 L527 0 L67 0 L67 700 L522 700 L522 576 L229 576 Z M183 876 L447 876 L447 788 L183 788 L183 876 Z " />
<glyph glyph-name="emacron" unicode="&#x113;" horiz-adv-x="500" d="M260 431 Q222 431 205.5 402.5 Q189 374 185 315 L326 315 L326 344 Q326 385 312 408 Q298 431 260 431 Z M444 27 Q424 13 383 1.5 Q342 -10 276 -10 Q229 -10 184.5 5 Q140 20 105.5 52.5 Q71 85 50 135 Q29 185 29 255 Q29 324 46.5 377 Q64 430 94.5 466.5 Q125 503 167.5 521.5 Q210 540 261 540 Q312 540 351.5 524 Q391 508 418 479 Q445 450 458.5 409 Q472 368 472 317 L472 230 L454 211 L186 211 Q191 179 203.5 158.5 Q216 138 234 126 Q252 114 276 109.5 Q300 105 328 105 Q370 105 400.5 113.5 Q431 122 444 126 L444 27 Z M129 696 L393 696 L393 608 L129 608 L129 696 Z " />
<glyph glyph-name="Ebreve" unicode="&#x114;" horiz-adv-x="563" d="M229 576 L229 418 L480 418 L480 296 L229 296 L229 124 L527 124 L527 0 L67 0 L67 700 L522 700 L522 576 L229 576 Z M446 885 Q443 858 433.5 835 Q424 812 407.5 795 Q391 778 368 768.5 Q345 759 314 759 Q283 759 260 768.5 Q237 778 220.5 795 Q204 812 194.5 835 Q185 858 182 885 L252 905 Q258 885 273 868.5 Q288 852 315 852 Q344 852 361 867 Q378 882 384 901 L446 885 L446 885 Z " />
<glyph glyph-name="ebreve" unicode="&#x115;" horiz-adv-x="500" d="M260 431 Q222 431 205.5 402.5 Q189 374 185 315 L326 315 L326 344 Q326 385 312 408 Q298 431 260 431 Z M444 27 Q424 13 383 1.5 Q342 -10 276 -10 Q229 -10 184.5 5 Q140 20 105.5 52.5 Q71 85 50 135 Q29 185 29 255 Q29 324 46.5 377 Q64 430 94.5 466.5 Q125 503 167.5 521.5 Q210 540 261 540 Q312 540 351.5 524 Q391 508 418 479 Q445 450 458.5 409 Q472 368 472 317 L472 230 L454 211 L186 211 Q191 179 203.5 158.5 Q216 138 234 126 Q252 114 276 109.5 Q300 105 328 105 Q370 105 400.5 113.5 Q431 122 444 126 L444 27 Z M398 717 Q393 692 382.5 669 Q372 646 355 628 Q338 610 314.5 599.5 Q291 589 261 589 Q231 589 208 599.5 Q185 610 168.5 627 Q152 644 141.5 666.5 Q131 689 126 713 L196 733 Q203 710 218 691 Q233 672 262 672 Q294 672 311 691 Q328 710 336 733 L398 717 L398 717 Z " />
<glyph glyph-name="Edotaccent" unicode="&#x116;" horiz-adv-x="563" d="M230 830 Q230 846 236.5 860.5 Q243 875 254.5 886 Q266 897 281.5 903.5 Q297 910 315 910 Q333 910 348.5 903.5 Q364 897 375.5 886 Q387 875 394 860.5 Q401 846 401 830 Q401 813 394 798.5 Q387 784 375.5 773 Q364 762 348.5 755.5 Q333 749 315 749 Q297 749 281.5 755.5 Q266 762 254.5 773 Q243 784 236.5 798.5 Q230 813 230 830 Z M229 576 L229 418 L480 418 L480 296 L229 296 L229 124 L527 124 L527 0 L67 0 L67 700 L522 700 L522 576 L229 576 Z " />
<glyph glyph-name="edotaccent" unicode="&#x117;" horiz-adv-x="500" d="M260 431 Q222 431 205.5 402.5 Q189 374 185 315 L326 315 L326 344 Q326 385 312 408 Q298 431 260 431 Z M444 27 Q424 13 383 1.5 Q342 -10 276 -10 Q229 -10 184.5 5 Q140 20 105.5 52.5 Q71 85 50 135 Q29 185 29 255 Q29 324 46.5 377 Q64 430 94.5 466.5 Q125 503 167.5 521.5 Q210 540 261 540 Q312 540 351.5 524 Q391 508 418 479 Q445 450 458.5 409 Q472 368 472 317 L472 230 L454 211 L186 211 Q191 179 203.5 158.5 Q216 138 234 126 Q252 114 276 109.5 Q300 105 328 105 Q370 105 400.5 113.5 Q431 122 444 126 L444 27 Z M175 660 Q175 676 181.5 690.5 Q188 705 199.5 716 Q211 727 226.5 733.5 Q242 740 260 740 Q278 740 293.5 733.5 Q309 727 320.5 716 Q332 705 339 690.5 Q346 676 346 660 Q346 643 339 628.5 Q332 614 320.5 603 Q309 592 293.5 585.5 Q278 579 260 579 Q242 579 226.5 585.5 Q211 592 199.5 603 Q188 614 181.5 628.5 Q175 643 175 660 Z " />
<glyph glyph-name="Eogonek" unicode="&#x118;" horiz-adv-x="562" d="M228 576 L228 418 L479 418 L479 296 L228 296 L228 124 L526 124 L526 0 L466 0 Q447 0 434.5 -6.5 Q422 -13 414.5 -22.5 Q407 -32 404 -43 Q401 -54 401 -63 Q401 -86 415 -96 Q429 -106 450 -106 Q461 -106 477 -101.5 Q493 -97 511 -86 L527 -147 Q507 -161 477.5 -170.5 Q448 -180 415 -180 Q363 -180 330.5 -159.5 Q298 -139 298 -97 Q298 -65 314.5 -41 Q331 -17 358 0 L66 0 L66 700 L521 700 L521 576 L228 576 Z " />
<glyph glyph-name="eogonek" unicode="&#x119;" horiz-adv-x="500" d="M337 -180 Q285 -180 252.5 -159.5 Q220 -139 220 -97 Q220 -70 232 -48.5 Q244 -27 264 -10 Q218 -8 175.5 8.5 Q133 25 100.5 57 Q68 89 48.5 138 Q29 187 29 255 Q29 324 46.5 377 Q64 430 94.5 466.5 Q125 503 167.5 521.5 Q210 540 261 540 Q312 540 351.5 524 Q391 508 418 479 Q445 450 458.5 409 Q472 368 472 317 L472 230 L454 211 L186 211 Q191 179 203.5 158.5 Q216 138 234 126 Q252 114 276 109.5 Q300 105 328 105 Q370 105 400.5 113.5 Q431 122 444 126 L444 27 Q433 20 418.5 14 Q404 8 380 0 Q349 -10 336 -27 Q323 -44 323 -63 Q323 -86 337 -96 Q351 -106 372 -106 Q383 -106 399 -101.5 Q415 -97 433 -86 L449 -147 Q429 -161 399.5 -170.5 Q370 -180 337 -180 Z M260 431 Q222 431 205.5 402.5 Q189 374 185 315 L326 315 L326 344 Q326 385 312 408 Q298 431 260 431 Z " />
<glyph glyph-name="Ecaron" unicode="&#x11a;" horiz-adv-x="563" d="M229 576 L229 418 L480 418 L480 296 L229 296 L229 124 L527 124 L527 0 L67 0 L67 700 L522 700 L522 576 L229 576 Z M451 929 L480 894 L340 747 L291 747 L150 894 L179 929 L202 929 L315 860 L428 929 L451 929 Z " />
<glyph glyph-name="ecaron" unicode="&#x11b;" horiz-adv-x="500" d="M396 759 L425 724 L285 577 L236 577 L96 724 L125 759 L148 759 L260 690 L373 759 L396 759 Z M260 431 Q222 431 205.5 402.5 Q189 374 185 315 L326 315 L326 344 Q326 385 312 408 Q298 431 260 431 Z M444 27 Q424 13 383 1.5 Q342 -10 276 -10 Q229 -10 184.5 5 Q140 20 105.5 52.5 Q71 85 50 135 Q29 185 29 255 Q29 324 46.5 377 Q64 430 94.5 466.5 Q125 503 167.5 521.5 Q210 540 261 540 Q312 540 351.5 524 Q391 508 418 479 Q445 450 458.5 409 Q472 368 472 317 L472 230 L454 211 L186 211 Q191 179 203.5 158.5 Q216 138 234 126 Q252 114 276 109.5 Q300 105 328 105 Q370 105 400.5 113.5 Q431 122 444 126 L444 27 Z " />
<glyph glyph-name="Gcircumflex" unicode="&#x11c;" horiz-adv-x="598" d="M238 747 L209 782 L349 929 L398 929 L538 782 L509 747 L486 747 L374 816 L261 747 L238 747 Z M555 30 Q524 17 477 3.5 Q430 -10 356 -10 Q281 -10 221.5 10 Q162 30 121 73 Q80 116 58 183.5 Q36 251 36 345 Q36 438 60.5 506.5 Q85 575 129 620 Q173 665 235.5 687.5 Q298 710 374 710 Q406 710 434 707 Q462 704 482 700 Q506 696 526 691 L526 565 Q495 570 461 576.5 Q427 583 387 583 Q336 583 301 567.5 Q266 552 245 522.5 Q224 493 215 451.5 Q206 410 206 359 Q206 300 215 254.5 Q224 209 244.5 177.5 Q265 146 299 130 Q333 114 384 114 Q398 114 412 117 L412 343 L555 343 L555 30 Z " />
<glyph glyph-name="gcircumflex" unicode="&#x11d;" horiz-adv-x="545" d="M125 577 L98 610 L235 756 L281 756 L418 610 L391 577 L369 577 L258 650 L147 577 L125 577 Z M325 371 Q325 453 257 453 Q190 453 190 371 Q190 288 257 288 Q325 288 325 371 Z M524 7 Q524 -41 501.5 -76 Q479 -111 440.5 -134.5 Q402 -158 350 -169 Q298 -180 239 -180 Q188 -180 147 -174.5 Q106 -169 76.5 -156.5 Q47 -144 31.5 -123.5 Q16 -103 16 -73 Q16 -38 40.5 -14 Q65 10 93 24 Q67 37 51.5 60 Q36 83 36 115 Q36 145 57 175.5 Q78 206 123 232 Q86 252 64 286.5 Q42 321 42 371 Q42 414 59.5 446 Q77 478 106 499 Q135 520 174 530 Q213 540 257 540 Q303 540 339 530 L518 530 L518 429 L472 429 L465 422 Q473 398 473 371 Q473 328 455.5 296 Q438 264 408.5 243 Q379 222 339.5 211.5 Q300 201 257 201 Q224 201 194 207 Q183 199 176.5 190.5 Q170 182 170 171 Q170 142 213 142 L347 142 Q383 142 415 135 Q447 128 471.5 112 Q496 96 510 70 Q524 44 524 7 Z M258 -85 Q283 -85 305 -81.5 Q327 -78 343.5 -71.5 Q360 -65 370 -54.5 Q380 -44 380 -29 Q380 -4 363 3 Q346 10 314 10 L167 10 Q161 3 154.5 -9 Q148 -21 148 -38 Q148 -58 174.5 -71.5 Q201 -85 258 -85 Z " />
<glyph glyph-name="Gbreve" unicode="&#x11e;" horiz-adv-x="598" d="M555 30 Q524 17 477 3.5 Q430 -10 356 -10 Q281 -10 221.5 10 Q162 30 121 73 Q80 116 58 183.5 Q36 251 36 345 Q36 438 60.5 506.5 Q85 575 129 620 Q173 665 235.5 687.5 Q298 710 374 710 Q406 710 434 707 Q462 704 482 700 Q506 696 526 691 L526 565 Q495 570 461 576.5 Q427 583 387 583 Q336 583 301 567.5 Q266 552 245 522.5 Q224 493 215 451.5 Q206 410 206 359 Q206 300 215 254.5 Q224 209 244.5 177.5 Q265 146 299 130 Q333 114 384 114 Q398 114 412 117 L412 343 L555 343 L555 30 Z M505 885 Q502 858 492.5 835 Q483 812 466.5 795 Q450 778 427 768.5 Q404 759 373 759 Q342 759 319 768.5 Q296 778 279.5 795 Q263 812 253.5 835 Q244 858 241 885 L311 905 Q317 885 332 868.5 Q347 852 374 852 Q403 852 420 867 Q437 882 443 901 L505 885 L505 885 Z " />
<glyph glyph-name="gbreve" unicode="&#x11f;" horiz-adv-x="545" d="M325 371 Q325 453 257 453 Q190 453 190 371 Q190 288 257 288 Q325 288 325 371 Z M524 7 Q524 -41 501.5 -76 Q479 -111 440.5 -134.5 Q402 -158 350 -169 Q298 -180 239 -180 Q188 -180 147 -174.5 Q106 -169 76.5 -156.5 Q47 -144 31.5 -123.5 Q16 -103 16 -73 Q16 -38 40.5 -14 Q65 10 93 24 Q67 37 51.5 60 Q36 83 36 115 Q36 145 57 175.5 Q78 206 123 232 Q86 252 64 286.5 Q42 321 42 371 Q42 414 59.5 446 Q77 478 106 499 Q135 520 174 530 Q213 540 257 540 Q303 540 339 530 L518 530 L518 429 L472 429 L465 422 Q473 398 473 371 Q473 328 455.5 296 Q438 264 408.5 243 Q379 222 339.5 211.5 Q300 201 257 201 Q224 201 194 207 Q183 199 176.5 190.5 Q170 182 170 171 Q170 142 213 142 L347 142 Q383 142 415 135 Q447 128 471.5 112 Q496 96 510 70 Q524 44 524 7 Z M258 -85 Q283 -85 305 -81.5 Q327 -78 343.5 -71.5 Q360 -65 370 -54.5 Q380 -44 380 -29 Q380 -4 363 3 Q346 10 314 10 L167 10 Q161 3 154.5 -9 Q148 -21 148 -38 Q148 -58 174.5 -71.5 Q201 -85 258 -85 Z M395 717 Q390 692 379.5 669 Q369 646 352 628 Q335 610 311.5 599.5 Q288 589 258 589 Q228 589 205 599.5 Q182 610 165.5 627 Q149 644 138.5 666.5 Q128 689 123 713 L193 733 Q200 710 215 691 Q230 672 259 672 Q291 672 308 691 Q325 710 333 733 L395 717 L395 717 Z " />
<glyph glyph-name="Gdotaccent" unicode="&#x120;" horiz-adv-x="598" d="M289 830 Q289 846 295.5 860.5 Q302 875 313.5 886 Q325 897 340.5 903.5 Q356 910 374 910 Q392 910 407.5 903.5 Q423 897 434.5 886 Q446 875 453 860.5 Q460 846 460 830 Q460 813 453 798.5 Q446 784 434.5 773 Q423 762 407.5 755.5 Q392 749 374 749 Q356 749 340.5 755.5 Q325 762 313.5 773 Q302 784 295.5 798.5 Q289 813 289 830 Z M555 30 Q524 17 477 3.5 Q430 -10 356 -10 Q281 -10 221.5 10 Q162 30 121 73 Q80 116 58 183.5 Q36 251 36 345 Q36 438 60.5 506.5 Q85 575 129 620 Q173 665 235.5 687.5 Q298 710 374 710 Q406 710 434 707 Q462 704 482 700 Q506 696 526 691 L526 565 Q495 570 461 576.5 Q427 583 387 583 Q336 583 301 567.5 Q266 552 245 522.5 Q224 493 215 451.5 Q206 410 206 359 Q206 300 215 254.5 Q224 209 244.5 177.5 Q265 146 299 130 Q333 114 384 114 Q398 114 412 117 L412 343 L555 343 L555 30 Z " />
<glyph glyph-name="gdotaccent" unicode="&#x121;" horiz-adv-x="545" d="M325 371 Q325 453 257 453 Q190 453 190 371 Q190 288 257 288 Q325 288 325 371 Z M524 7 Q524 -41 501.5 -76 Q479 -111 440.5 -134.5 Q402 -158 350 -169 Q298 -180 239 -180 Q188 -180 147 -174.5 Q106 -169 76.5 -156.5 Q47 -144 31.5 -123.5 Q16 -103 16 -73 Q16 -38 40.5 -14 Q65 10 93 24 Q67 37 51.5 60 Q36 83 36 115 Q36 145 57 175.5 Q78 206 123 232 Q86 252 64 286.5 Q42 321 42 371 Q42 414 59.5 446 Q77 478 106 499 Q135 520 174 530 Q213 540 257 540 Q303 540 339 530 L518 530 L518 429 L472 429 L465 422 Q473 398 473 371 Q473 328 455.5 296 Q438 264 408.5 243 Q379 222 339.5 211.5 Q300 201 257 201 Q224 201 194 207 Q183 199 176.5 190.5 Q170 182 170 171 Q170 142 213 142 L347 142 Q383 142 415 135 Q447 128 471.5 112 Q496 96 510 70 Q524 44 524 7 Z M258 -85 Q283 -85 305 -81.5 Q327 -78 343.5 -71.5 Q360 -65 370 -54.5 Q380 -44 380 -29 Q380 -4 363 3 Q346 10 314 10 L167 10 Q161 3 154.5 -9 Q148 -21 148 -38 Q148 -58 174.5 -71.5 Q201 -85 258 -85 Z M172 660 Q172 676 178.5 690.5 Q185 705 196.5 716 Q208 727 223.5 733.5 Q239 740 257 740 Q275 740 290.5 733.5 Q306 727 317.5 716 Q329 705 336 690.5 Q343 676 343 660 Q343 643 336 628.5 Q329 614 317.5 603 Q306 592 290.5 585.5 Q275 579 257 579 Q239 579 223.5 585.5 Q208 592 196.5 603 Q185 614 178.5 628.5 Q172 643 172 660 Z " />
<glyph glyph-name="uni0122" unicode="&#x122;" horiz-adv-x="598" d="M296 -258 L324 -210 L315 -190 Q281 -174 281 -132 Q281 -96 298.5 -77 Q316 -58 354 -58 Q391 -58 409.5 -76.5 Q428 -95 428 -128 Q428 -139 423.5 -151 Q419 -163 413 -175 L352 -287 L296 -258 Z M555 30 Q524 17 477 3.5 Q430 -10 356 -10 Q281 -10 221.5 10 Q162 30 121 73 Q80 116 58 183.5 Q36 251 36 345 Q36 438 60.5 506.5 Q85 575 129 620 Q173 665 235.5 687.5 Q298 710 374 710 Q406 710 434 707 Q462 704 482 700 Q506 696 526 691 L526 565 Q495 570 461 576.5 Q427 583 387 583 Q336 583 301 567.5 Q266 552 245 522.5 Q224 493 215 451.5 Q206 410 206 359 Q206 300 215 254.5 Q224 209 244.5 177.5 Q265 146 299 130 Q333 114 384 114 Q398 114 412 117 L412 343 L555 343 L555 30 Z " />
<glyph glyph-name="uni0123" unicode="&#x123;" horiz-adv-x="545" d="M320 779 L292 731 L301 711 Q335 695 335 653 Q335 616 317.5 597.5 Q300 579 262 579 Q225 579 206.5 597.5 Q188 616 188 649 Q188 660 192.5 672 Q197 684 203 696 L264 808 L320 779 Z M325 371 Q325 453 257 453 Q190 453 190 371 Q190 288 257 288 Q325 288 325 371 Z M524 7 Q524 -41 501.5 -76 Q479 -111 440.5 -134.5 Q402 -158 350 -169 Q298 -180 239 -180 Q188 -180 147 -174.5 Q106 -169 76.5 -156.5 Q47 -144 31.5 -123.5 Q16 -103 16 -73 Q16 -38 40.5 -14 Q65 10 93 24 Q67 37 51.5 60 Q36 83 36 115 Q36 145 57 175.5 Q78 206 123 232 Q86 252 64 286.5 Q42 321 42 371 Q42 414 59.5 446 Q77 478 106 499 Q135 520 174 530 Q213 540 257 540 Q303 540 339 530 L518 530 L518 429 L472 429 L465 422 Q473 398 473 371 Q473 328 455.5 296 Q438 264 408.5 243 Q379 222 339.5 211.5 Q300 201 257 201 Q224 201 194 207 Q183 199 176.5 190.5 Q170 182 170 171 Q170 142 213 142 L347 142 Q383 142 415 135 Q447 128 471.5 112 Q496 96 510 70 Q524 44 524 7 Z M258 -85 Q283 -85 305 -81.5 Q327 -78 343.5 -71.5 Q360 -65 370 -54.5 Q380 -44 380 -29 Q380 -4 363 3 Q346 10 314 10 L167 10 Q161 3 154.5 -9 Q148 -21 148 -38 Q148 -58 174.5 -71.5 Q201 -85 258 -85 Z " />
<glyph glyph-name="Hcircumflex" unicode="&#x124;" horiz-adv-x="670" d="M441 295 L229 295 L229 0 L67 0 L67 700 L229 700 L229 419 L441 419 L441 700 L603 700 L603 0 L441 0 L441 295 Z M194 747 L165 782 L305 929 L354 929 L494 782 L465 747 L442 747 L330 816 L217 747 L194 747 Z " />
<glyph glyph-name="hcircumflex" unicode="&#x125;" horiz-adv-x="566" d="M-4 778 L-31 811 L106 957 L152 957 L289 811 L262 778 L240 778 L129 851 L18 778 L-4 778 Z M294 408 Q271 408 249 396 Q227 384 207 364 L207 0 L55 0 L55 730 L207 730 L207 474 Q215 482 229 493.5 Q243 505 261.5 515.5 Q280 526 303.5 533 Q327 540 355 540 Q401 540 431.5 527.5 Q462 515 480.5 493 Q499 471 506.5 442 Q514 413 514 380 L514 0 L362 0 L362 336 Q362 347 360.5 360 Q359 373 352.5 383.5 Q346 394 332 401 Q318 408 294 408 Z " />
<glyph glyph-name="Hbar" unicode="&#x126;" horiz-adv-x="678" d="M11 582 L73 582 L73 700 L235 700 L235 582 L447 582 L447 700 L609 700 L609 582 L661 582 L661 502 L609 502 L609 0 L447 0 L447 295 L235 295 L235 0 L73 0 L73 502 L11 502 L11 582 Z M447 419 L447 502 L235 502 L235 419 L447 419 Z " />
<glyph glyph-name="hbar" unicode="&#x127;" horiz-adv-x="566" d="M9 646 L55 646 L55 731 L207 731 L207 646 L343 646 L343 568 L207 568 L207 475 Q215 483 229 494.5 Q243 506 261.5 516.5 Q280 527 303.5 534 Q327 541 355 541 Q401 541 431.5 528.5 Q462 516 480.5 494 Q499 472 506.5 443 Q514 414 514 381 L514 1 L362 1 L362 337 Q362 348 360.5 361 Q359 374 352.5 384.5 Q346 395 332 402 Q318 409 294 409 Q271 409 249 397 Q227 385 207 365 L207 1 L55 1 L55 568 L9 568 L9 646 Z " />
<glyph glyph-name="Itilde" unicode="&#x128;" horiz-adv-x="296" d="M67 700 L229 700 L229 0 L67 0 L67 700 Z M307 898 L307 853 Q307 803 283.5 781 Q260 759 220 759 Q197 759 178 764.5 Q159 770 142.5 777 Q126 784 113 789.5 Q100 795 90 795 Q85 795 82 793.5 Q79 792 77 790 Q74 788 73 786 L73 748 L-11 748 L-11 789 Q-11 848 12.5 870 Q36 892 72 892 Q94 892 113.5 885.5 Q133 879 149.5 871.5 Q166 864 180.5 857.5 Q195 851 207 851 Q218 851 222 858 Q224 861 225 865 L225 898 L307 898 Z " />
<glyph glyph-name="itilde" unicode="&#x129;" horiz-adv-x="262" d="M207 530 L207 0 L55 0 L55 530 L207 530 Z M291 728 L291 683 Q291 633 267.5 611 Q244 589 204 589 Q181 589 162 594.5 Q143 600 126.5 607 Q110 614 97 619.5 Q84 625 74 625 Q69 625 66 623.5 Q63 622 61 620 Q58 618 57 616 L57 578 L-27 578 L-27 619 Q-27 678 -3.5 700 Q20 722 56 722 Q78 722 97.5 715.5 Q117 709 133.5 701.5 Q150 694 164.5 687.5 Q179 681 191 681 Q202 681 206 688 Q208 691 209 695 L209 728 L291 728 Z " />
<glyph glyph-name="Imacron" unicode="&#x12a;" horiz-adv-x="296" d="M67 700 L229 700 L229 0 L67 0 L67 700 Z M16 876 L280 876 L280 788 L16 788 L16 876 Z " />
<glyph glyph-name="imacron" unicode="&#x12b;" horiz-adv-x="262" d="M207 530 L207 0 L55 0 L55 530 L207 530 Z M0 696 L264 696 L264 608 L0 608 L0 696 Z " />
<glyph glyph-name="Iogonek" unicode="&#x12e;" horiz-adv-x="296" d="M67 700 L229 700 L229 0 L175 0 Q156 0 143.5 -6.5 Q131 -13 123.5 -22.5 Q116 -32 113 -43 Q110 -54 110 -63 Q110 -86 124 -96 Q138 -106 159 -106 Q170 -106 186 -101.5 Q202 -97 220 -86 L236 -147 Q216 -161 186.5 -170.5 Q157 -180 124 -180 Q72 -180 39.5 -159.5 Q7 -139 7 -97 Q7 -65 23.5 -41 Q40 -17 67 0 L67 700 Z " />
<glyph glyph-name="iogonek" unicode="&#x12f;" horiz-adv-x="262" d="M207 530 L207 0 L162 0 Q143 0 130.5 -6.5 Q118 -13 110.5 -22.5 Q103 -32 100 -43 Q97 -54 97 -63 Q97 -86 111 -96 Q125 -106 146 -106 Q157 -106 173 -101.5 Q189 -97 207 -86 L223 -147 Q203 -161 173.5 -170.5 Q144 -180 111 -180 Q59 -180 26.5 -159.5 Q-6 -139 -6 -97 Q-6 -65 11 -41 Q28 -17 55 0 L55 530 L207 530 Z M46 665 Q46 702 67 723.5 Q88 745 131 745 Q174 745 195 723.5 Q216 702 216 665 Q216 628 195 606.5 Q174 585 131 585 Q88 585 67 606.5 Q46 628 46 665 Z " />
<glyph glyph-name="Idotaccent" unicode="&#x130;" horiz-adv-x="296" d="M67 700 L229 700 L229 0 L67 0 L67 700 Z M63 830 Q63 846 69.5 860.5 Q76 875 87.5 886 Q99 897 114.5 903.5 Q130 910 148 910 Q166 910 181.5 903.5 Q197 897 208.5 886 Q220 875 227 860.5 Q234 846 234 830 Q234 813 227 798.5 Q220 784 208.5 773 Q197 762 181.5 755.5 Q166 749 148 749 Q130 749 114.5 755.5 Q99 762 87.5 773 Q76 784 69.5 798.5 Q63 813 63 830 Z " />
<glyph glyph-name="dotlessi" unicode="&#x131;" horiz-adv-x="262" d="M207 530 L207 0 L55 0 L55 530 L207 530 Z " />
<glyph glyph-name="IJ" unicode="&#x132;" horiz-adv-x="611" d="M387 700 L549 700 L549 242 Q549 121 478.5 55.5 Q408 -10 260 -10 Q188 -10 138 4.5 Q88 19 66 31 L66 154 Q108 137 152 127.5 Q196 118 243 118 Q280 118 307 123 Q334 128 352 141.5 Q370 155 378.5 177.5 Q387 200 387 236 L387 700 Z M65 700 L227 700 L227 237 L65 237 L65 700 Z " />
<glyph glyph-name="ij" unicode="&#x133;" horiz-adv-x="549" d="M207 530 L207 0 L55 0 L55 530 L207 530 Z M46 665 Q46 702 67 723.5 Q88 745 131 745 Q174 745 195 723.5 Q216 702 216 665 Q216 628 195 606.5 Q174 585 131 585 Q88 585 67 606.5 Q46 628 46 665 Z M218 -70 L286 -70 Q318 -70 330 -50 Q342 -30 342 1 L342 530 L494 530 L494 10 Q494 -24 484 -58 Q474 -92 450.5 -119 Q427 -146 389 -163 Q351 -180 296 -180 Q270 -180 251 -177 Q232 -174 218 -171 L218 -70 Z M333 665 Q333 702 354 723.5 Q375 745 418 745 Q461 745 482 723.5 Q503 702 503 665 Q503 628 482 606.5 Q461 585 418 585 Q375 585 354 606.5 Q333 628 333 665 Z " />
<glyph glyph-name="Jcircumflex" unicode="&#x134;" horiz-adv-x="445" d="M220 700 L382 700 L382 222 Q382 114 326.5 52 Q271 -10 151 -10 Q100 -10 65.5 -0.5 Q31 9 16 17 L16 142 Q70 118 127 118 Q177 118 198.5 138.5 Q220 159 220 216 L220 700 Z M163 747 L134 782 L274 929 L323 929 L463 782 L434 747 L411 747 L299 816 L186 747 L163 747 Z " />
<glyph glyph-name="jcircumflex" unicode="&#x135;" horiz-adv-x="262" d="M-67 -70 L0 -70 Q32 -70 43.5 -50 Q55 -30 55 1 L55 530 L207 530 L207 10 Q207 -24 197 -58 Q187 -92 163.5 -119 Q140 -146 102.5 -163 Q65 -180 10 -180 Q-16 -180 -34.5 -177 Q-53 -174 -67 -171 L-67 -70 Z M-3 577 L-30 610 L107 756 L153 756 L290 610 L263 577 L241 577 L130 650 L19 577 L-3 577 Z " />
<glyph glyph-name="uni0136" unicode="&#x136;" horiz-adv-x="631" d="M261 -258 L289 -210 L280 -190 Q246 -174 246 -132 Q246 -96 263.5 -77 Q281 -58 319 -58 Q356 -58 374.5 -76.5 Q393 -95 393 -128 Q393 -139 388.5 -151 Q384 -163 378 -175 L317 -287 L261 -258 Z M276 295 L229 295 L229 0 L67 0 L67 700 L229 700 L229 419 L272 419 L446 700 L616 700 L409 370 L636 0 L446 0 L276 295 Z " />
<glyph glyph-name="uni0137" unicode="&#x137;" horiz-adv-x="559" d="M224 -258 L252 -210 L243 -190 Q209 -174 209 -132 Q209 -96 226.5 -77 Q244 -58 282 -58 Q319 -58 337.5 -76.5 Q356 -95 356 -128 Q356 -139 351.5 -151 Q347 -163 341 -175 L280 -287 L224 -258 Z M241 225 L207 225 L207 0 L55 0 L55 730 L207 730 L207 338 L231 338 L384 530 L558 530 L368 299 L557 0 L380 0 L241 225 Z " />
<glyph glyph-name="kgreenlandic" unicode="&#x138;" horiz-adv-x="559" d="M241 225 L207 225 L207 0 L55 0 L55 530 L207 530 L207 338 L231 338 L384 530 L558 530 L368 299 L557 0 L380 0 L241 225 Z " />
<glyph glyph-name="Lacute" unicode="&#x139;" horiz-adv-x="540" d="M140 747 L98 793 L229 926 L255 926 L326 838 L160 747 L140 747 Z M229 124 L527 124 L527 0 L67 0 L67 700 L229 700 L229 124 Z " />
<glyph glyph-name="lacute" unicode="&#x13a;" horiz-adv-x="262" d="M127 777 L85 823 L216 956 L242 956 L313 868 L147 777 L127 777 Z M207 730 L207 0 L55 0 L55 730 L207 730 Z " />
<glyph glyph-name="uni013B" unicode="&#x13b;" horiz-adv-x="540" d="M235 -258 L263 -210 L254 -190 Q220 -174 220 -132 Q220 -96 237.5 -77 Q255 -58 293 -58 Q330 -58 348.5 -76.5 Q367 -95 367 -128 Q367 -139 362.5 -151 Q358 -163 352 -175 L291 -287 L235 -258 Z M229 124 L527 124 L527 0 L67 0 L67 700 L229 700 L229 124 Z " />
<glyph glyph-name="uni013C" unicode="&#x13c;" horiz-adv-x="262" d="M64 -258 L92 -210 L83 -190 Q49 -174 49 -132 Q49 -96 66.5 -77 Q84 -58 122 -58 Q159 -58 177.5 -76.5 Q196 -95 196 -128 Q196 -139 191.5 -151 Q187 -163 181 -175 L120 -287 L64 -258 Z M207 730 L207 0 L55 0 L55 730 L207 730 Z " />
<glyph glyph-name="Lcaron" unicode="&#x13d;" horiz-adv-x="547" d="M410 582 L410 780 L519 780 L519 719 L500 582 L410 582 Z M228 124 L526 124 L526 0 L66 0 L66 700 L228 700 L228 124 Z " />
<glyph glyph-name="lcaron" unicode="&#x13e;" horiz-adv-x="292" d="M279 582 L279 780 L388 780 L388 719 L369 582 L279 582 Z M207 730 L207 0 L55 0 L55 730 L207 730 Z " />
<glyph glyph-name="zero.denominator" unicode="&#xf655;" horiz-adv-x="322" d="M202 162 Q202 203 194.5 225.5 Q187 248 161 248 Q135 248 127.5 225.5 Q120 203 120 162 Q120 121 127.5 98.5 Q135 76 161 76 Q187 76 194.5 98.5 Q202 121 202 162 Z M298 162 Q298 75 261 35 Q224 -5 162 -5 Q100 -5 62 35.5 Q24 76 24 163 Q24 249 62 289 Q100 329 162 329 Q223 329 260.5 289 Q298 249 298 162 Z " />
<glyph glyph-name="fraction" unicode="&#x2044;" horiz-adv-x="90" d="M-239 0 L248 700 L330 700 L-156 0 L-239 0 Z " />
<glyph glyph-name="guilsinglright" unicode="&#x203a;" horiz-adv-x="308" d="M278 232 L152 46 L35 46 L158 256 L35 463 L152 463 L278 277 L278 232 Z " />
<glyph glyph-name="two.denominator" unicode="&#xf657;" horiz-adv-x="289" d="M26 0 L26 54 Q26 76 29.5 91 Q33 106 42 119 Q51 132 67 144 Q83 156 107 172 Q142 195 151.5 206 Q161 217 161 227 Q161 246 125 246 Q102 246 77.5 241 Q53 236 31 230 L31 308 Q45 314 62 318 Q76 322 96 325.5 Q116 329 139 329 Q171 329 193.5 320.5 Q216 312 230 298 Q244 284 250.5 266.5 Q257 249 257 231 Q257 212 252 197 Q247 182 235.5 168.5 Q224 155 206 141.5 Q188 128 162 112 Q142 99 135.5 93.5 Q129 88 129 81 L129 80 L265 80 L265 0 L26 0 Z " />
<glyph glyph-name="three.denominator" unicode="&#xf658;" horiz-adv-x="274" d="M31 318 Q43 320 58 323 Q71 325 87.5 327 Q104 329 124 329 Q157 329 180 321.5 Q203 314 217 301.5 Q231 289 237.5 274 Q244 259 244 244 Q244 210 226.5 192 Q209 174 183 166 L183 163 Q215 155 232.5 138.5 Q250 122 250 89 Q250 71 243 54 Q236 37 221 23.5 Q206 10 181.5 2 Q157 -6 122 -6 Q82 -6 60.5 -3 Q39 0 26 4 L26 83 Q46 79 66 75 Q86 71 112 71 Q154 71 154 100 Q154 127 115 127 L79 127 L79 199 L115 199 Q150 199 150 227 Q150 238 142 244.5 Q134 251 114 251 Q98 251 73 248 Q48 245 31 241 L31 318 Z " />
<glyph glyph-name="one.denominator" unicode="&#xf656;" horiz-adv-x="254" d="M28 0 L28 65 L84 65 L84 231 L28 231 L28 299 L78 299 Q94 299 107 307.5 Q120 316 123 327 L181 327 L181 65 L237 65 L237 0 L28 0 Z " />
<glyph glyph-name="four.denominator" unicode="&#xf659;" horiz-adv-x="305" d="M15 140 L163 329 L247 329 L247 140 L283 140 L283 63 L247 63 L247 0 L154 0 L154 63 L15 63 L15 140 Z M154 223 L87 140 L154 140 L154 223 Z " />
<glyph glyph-name="circumflex" unicode="&#x2c6;" horiz-adv-x="400" d="M67 577 L40 610 L177 756 L223 756 L360 610 L333 577 L311 577 L200 650 L89 577 L67 577 Z " />
<glyph glyph-name="tilde" unicode="&#x2dc;" horiz-adv-x="400" d="M359 728 L359 683 Q359 633 335.5 611 Q312 589 272 589 Q249 589 230 594.5 Q211 600 194.5 607 Q178 614 165 619.5 Q152 625 142 625 Q137 625 134 623.5 Q131 622 129 620 Q126 618 125 616 L125 578 L41 578 L41 619 Q41 678 64.5 700 Q88 722 124 722 Q146 722 165.5 715.5 Q185 709 201.5 701.5 Q218 694 232.5 687.5 Q247 681 259 681 Q270 681 274 688 Q276 691 277 695 L277 728 L359 728 Z " />
<glyph glyph-name="ring" unicode="&#x2da;" horiz-adv-x="399" d="M325 656 Q325 611 289 589.5 Q253 568 199 568 Q146 568 110 589.5 Q74 611 74 656 Q74 701 110 722.5 Q146 744 199 744 Q253 744 289 722.5 Q325 701 325 656 Z M243 656 Q243 692 199 692 Q156 692 156 656 Q156 639 166 629.5 Q176 620 199 620 Q222 620 232.5 629.5 Q243 639 243 656 Z " />
<glyph glyph-name="breve" unicode="&#x2d8;" horiz-adv-x="400" d="M337 717 Q332 692 321.5 669 Q311 646 294 628 Q277 610 253.5 599.5 Q230 589 200 589 Q170 589 147 599.5 Q124 610 107.5 627 Q91 644 80.5 666.5 Q70 689 65 713 L135 733 Q142 710 157 691 Q172 672 201 672 Q233 672 250 691 Q267 710 275 733 L337 717 L337 717 Z " />
<glyph glyph-name="dotaccent" unicode="&#x2d9;" horiz-adv-x="371" d="M100 660 Q100 676 106.5 690.5 Q113 705 124.5 716 Q136 727 151.5 733.5 Q167 740 185 740 Q203 740 218.5 733.5 Q234 727 245.5 716 Q257 705 264 690.5 Q271 676 271 660 Q271 643 264 628.5 Q257 614 245.5 603 Q234 592 218.5 585.5 Q203 579 185 579 Q167 579 151.5 585.5 Q136 592 124.5 603 Q113 614 106.5 628.5 Q100 643 100 660 Z " />
<glyph glyph-name="caron" unicode="&#x2c7;" horiz-adv-x="409" d="M340 759 L369 724 L229 577 L180 577 L40 724 L69 759 L92 759 L204 690 L317 759 L340 759 Z " />
<glyph glyph-name="commaaccent" unicode="&#xf6c3;" horiz-adv-x="222" d="M77 -258 L105 -210 L96 -190 Q62 -174 62 -132 Q62 -96 79.5 -77 Q97 -58 135 -58 Q172 -58 190.5 -76.5 Q209 -95 209 -128 Q209 -139 204.5 -151 Q200 -163 194 -175 L133 -287 L77 -258 Z " />
<glyph glyph-name="Ldot" unicode="&#x13f;" horiz-adv-x="563" d="M229 124 L527 124 L527 0 L67 0 L67 700 L229 700 L229 124 Z M342 378 Q342 394 348.5 408.5 Q355 423 366.5 434 Q378 445 393.5 451.5 Q409 458 427 458 Q445 458 460.5 451.5 Q476 445 487.5 434 Q499 423 506 408.5 Q513 394 513 378 Q513 361 506 346.5 Q499 332 487.5 321 Q476 310 460.5 303.5 Q445 297 427 297 Q409 297 393.5 303.5 Q378 310 366.5 321 Q355 332 348.5 346.5 Q342 361 342 378 Z " />
<glyph glyph-name="ldot" unicode="&#x140;" horiz-adv-x="443" d="M267 368 Q267 384 273.5 398.5 Q280 413 291.5 424 Q303 435 318.5 441.5 Q334 448 352 448 Q370 448 385.5 441.5 Q401 435 412.5 424 Q424 413 431 398.5 Q438 384 438 368 Q438 351 431 336.5 Q424 322 412.5 311 Q401 300 385.5 293.5 Q370 287 352 287 Q334 287 318.5 293.5 Q303 300 291.5 311 Q280 322 273.5 336.5 Q267 351 267 368 Z M207 730 L207 0 L55 0 L55 730 L207 730 Z " />
<glyph glyph-name="Lslash" unicode="&#x141;" horiz-adv-x="557" d="M246 433 L357 485 L357 390 L246 338 L246 124 L544 124 L544 0 L84 0 L84 262 L12 229 L12 324 L84 357 L84 700 L246 700 L246 433 Z " />
<glyph glyph-name="lslash" unicode="&#x142;" horiz-adv-x="336" d="M247 730 L247 441 L327 482 L327 396 L247 355 L247 0 L95 0 L95 276 L15 235 L15 321 L95 362 L95 730 L247 730 Z " />
<glyph glyph-name="Nacute" unicode="&#x143;" horiz-adv-x="669" d="M339 747 L297 793 L428 926 L454 926 L525 838 L359 747 L339 747 Z M488 -3 L206 431 L206 0 L66 0 L66 700 L206 700 L462 306 L462 700 L602 700 L602 -3 L488 -3 Z " />
<glyph glyph-name="nacute" unicode="&#x144;" horiz-adv-x="566" d="M282 577 L240 623 L371 756 L397 756 L468 668 L302 577 L282 577 Z M294 407 Q271 407 249 395.5 Q227 384 207 364 L207 0 L55 0 L55 530 L153 530 Q183 530 191 516 Q199 502 199 486 L199 470 L203 470 Q210 478 224 490 Q238 502 257 513 Q276 524 300.5 532 Q325 540 355 540 Q401 540 431.5 527.5 Q462 515 480.5 493 Q499 471 506.5 442 Q514 413 514 380 L514 0 L362 0 L362 336 Q362 347 360.5 359.5 Q359 372 352.5 382.5 Q346 393 332 400 Q318 407 294 407 Z " />
<glyph glyph-name="uni0145" unicode="&#x145;" horiz-adv-x="669" d="M273 -258 L301 -210 L292 -190 Q258 -174 258 -132 Q258 -96 275.5 -77 Q293 -58 331 -58 Q368 -58 386.5 -76.5 Q405 -95 405 -128 Q405 -139 400.5 -151 Q396 -163 390 -175 L329 -287 L273 -258 Z M488 -3 L206 431 L206 0 L66 0 L66 700 L206 700 L462 306 L462 700 L602 700 L602 -3 L488 -3 Z " />
<glyph glyph-name="uni0146" unicode="&#x146;" horiz-adv-x="566" d="M222 -258 L250 -210 L241 -190 Q207 -174 207 -132 Q207 -96 224.5 -77 Q242 -58 280 -58 Q317 -58 335.5 -76.5 Q354 -95 354 -128 Q354 -139 349.5 -151 Q345 -163 339 -175 L278 -287 L222 -258 Z M294 407 Q271 407 249 395.5 Q227 384 207 364 L207 0 L55 0 L55 530 L153 530 Q183 530 191 516 Q199 502 199 486 L199 470 L203 470 Q210 478 224 490 Q238 502 257 513 Q276 524 300.5 532 Q325 540 355 540 Q401 540 431.5 527.5 Q462 515 480.5 493 Q499 471 506.5 442 Q514 413 514 380 L514 0 L362 0 L362 336 Q362 347 360.5 359.5 Q359 372 352.5 382.5 Q346 393 332 400 Q318 407 294 407 Z " />
<glyph glyph-name="Ncaron" unicode="&#x147;" horiz-adv-x="669" d="M488 -3 L206 431 L206 0 L66 0 L66 700 L206 700 L462 306 L462 700 L602 700 L602 -3 L488 -3 Z M485 929 L514 894 L374 747 L325 747 L184 894 L213 929 L236 929 L349 860 L462 929 L485 929 Z " />
<glyph glyph-name="ncaron" unicode="&#x148;" horiz-adv-x="566" d="M426 759 L455 724 L315 577 L266 577 L126 724 L155 759 L178 759 L290 690 L403 759 L426 759 Z M294 407 Q271 407 249 395.5 Q227 384 207 364 L207 0 L55 0 L55 530 L153 530 Q183 530 191 516 Q199 502 199 486 L199 470 L203 470 Q210 478 224 490 Q238 502 257 513 Q276 524 300.5 532 Q325 540 355 540 Q401 540 431.5 527.5 Q462 515 480.5 493 Q499 471 506.5 442 Q514 413 514 380 L514 0 L362 0 L362 336 Q362 347 360.5 359.5 Q359 372 352.5 382.5 Q346 393 332 400 Q318 407 294 407 Z " />
<glyph glyph-name="napostrophe" unicode="&#x149;" horiz-adv-x="566" d="M32 599 L60 647 L51 667 Q17 683 17 725 Q17 761 34.5 780 Q52 799 90 799 Q127 799 145.5 780.5 Q164 762 164 729 Q164 718 159.5 706 Q155 694 149 682 L88 570 L32 599 Z M294 407 Q271 407 249 395.5 Q227 384 207 364 L207 0 L55 0 L55 530 L153 530 Q183 530 191 516 Q199 502 199 486 L199 470 L203 470 Q210 478 224 490 Q238 502 257 513 Q276 524 300.5 532 Q325 540 355 540 Q401 540 431.5 527.5 Q462 515 480.5 493 Q499 471 506.5 442 Q514 413 514 380 L514 0 L362 0 L362 336 Q362 347 360.5 359.5 Q359 372 352.5 382.5 Q346 393 332 400 Q318 407 294 407 Z " />
<glyph glyph-name="Omacron" unicode="&#x14c;" horiz-adv-x="672" d="M36 350 Q36 441 58.5 509 Q81 577 121 621.5 Q161 666 216 688 Q271 710 336 710 Q401 710 456 688 Q511 666 551 621.5 Q591 577 613.5 509 Q636 441 636 350 Q636 258 613.5 190.5 Q591 123 551 78.5 Q511 34 456 12 Q401 -10 336 -10 Q271 -10 216 12 Q161 34 121 78.5 Q81 123 58.5 190.5 Q36 258 36 350 Z M206 350 Q206 231 235 174 Q264 117 336 117 Q408 117 437 174 Q466 231 466 350 Q466 469 437 526 Q408 583 336 583 Q264 583 235 526 Q206 469 206 350 Z M206 876 L470 876 L470 788 L206 788 L206 876 Z " />
<glyph glyph-name="omacron" unicode="&#x14d;" horiz-adv-x="544" d="M146 696 L410 696 L410 608 L146 608 L146 696 Z M515 265 Q515 195 495.5 143 Q476 91 443 57 Q410 23 366 6.5 Q322 -10 272 -10 Q222 -10 178 6.5 Q134 23 101 57 Q68 91 48.5 143 Q29 195 29 265 Q29 335 48.5 387 Q68 439 101 473 Q134 507 178 523.5 Q222 540 272 540 Q322 540 366 523.5 Q410 507 443 473 Q476 439 495.5 387 Q515 335 515 265 Z M357 265 Q357 345 339 386.5 Q321 428 272 428 Q223 428 205 386.5 Q187 345 187 265 Q187 185 205 143.5 Q223 102 272 102 Q321 102 339 143.5 Q357 185 357 265 Z " />
<glyph glyph-name="Obreve" unicode="&#x14e;" horiz-adv-x="672" d="M36 350 Q36 441 58.5 509 Q81 577 121 621.5 Q161 666 216 688 Q271 710 336 710 Q401 710 456 688 Q511 666 551 621.5 Q591 577 613.5 509 Q636 441 636 350 Q636 258 613.5 190.5 Q591 123 551 78.5 Q511 34 456 12 Q401 -10 336 -10 Q271 -10 216 12 Q161 34 121 78.5 Q81 123 58.5 190.5 Q36 258 36 350 Z M206 350 Q206 231 235 174 Q264 117 336 117 Q408 117 437 174 Q466 231 466 350 Q466 469 437 526 Q408 583 336 583 Q264 583 235 526 Q206 469 206 350 Z M469 885 Q466 858 456.5 835 Q447 812 430.5 795 Q414 778 391 768.5 Q368 759 337 759 Q306 759 283 768.5 Q260 778 243.5 795 Q227 812 217.5 835 Q208 858 205 885 L275 905 Q281 885 296 868.5 Q311 852 338 852 Q367 852 384 867 Q401 882 407 901 L469 885 L469 885 Z " />
<glyph glyph-name="obreve" unicode="&#x14f;" horiz-adv-x="544" d="M515 265 Q515 195 495.5 143 Q476 91 443 57 Q410 23 366 6.5 Q322 -10 272 -10 Q222 -10 178 6.5 Q134 23 101 57 Q68 91 48.5 143 Q29 195 29 265 Q29 335 48.5 387 Q68 439 101 473 Q134 507 178 523.5 Q222 540 272 540 Q322 540 366 523.5 Q410 507 443 473 Q476 439 495.5 387 Q515 335 515 265 Z M357 265 Q357 345 339 386.5 Q321 428 272 428 Q223 428 205 386.5 Q187 345 187 265 Q187 185 205 143.5 Q223 102 272 102 Q321 102 339 143.5 Q357 185 357 265 Z M415 717 Q410 692 399.5 669 Q389 646 372 628 Q355 610 331.5 599.5 Q308 589 278 589 Q248 589 225 599.5 Q202 610 185.5 627 Q169 644 158.5 666.5 Q148 689 143 713 L213 733 Q220 710 235 691 Q250 672 279 672 Q311 672 328 691 Q345 710 353 733 L415 717 L415 717 Z " />
<glyph glyph-name="Ohungarumlaut" unicode="&#x150;" horiz-adv-x="672" d="M256 747 L220 787 L339 926 L365 926 L421 867 L276 747 L256 747 Z M392 747 L366 784 L487 901 L513 901 L573 833 L412 747 L392 747 Z M36 350 Q36 441 58.5 509 Q81 577 121 621.5 Q161 666 216 688 Q271 710 336 710 Q401 710 456 688 Q511 666 551 621.5 Q591 577 613.5 509 Q636 441 636 350 Q636 258 613.5 190.5 Q591 123 551 78.5 Q511 34 456 12 Q401 -10 336 -10 Q271 -10 216 12 Q161 34 121 78.5 Q81 123 58.5 190.5 Q36 258 36 350 Z M206 350 Q206 231 235 174 Q264 117 336 117 Q408 117 437 174 Q466 231 466 350 Q466 469 437 526 Q408 583 336 583 Q264 583 235 526 Q206 469 206 350 Z " />
<glyph glyph-name="ohungarumlaut" unicode="&#x151;" horiz-adv-x="544" d="M192 577 L156 617 L275 756 L301 756 L357 697 L212 577 L192 577 Z M328 577 L302 614 L423 731 L449 731 L509 663 L348 577 L328 577 Z M515 265 Q515 195 495.5 143 Q476 91 443 57 Q410 23 366 6.5 Q322 -10 272 -10 Q222 -10 178 6.5 Q134 23 101 57 Q68 91 48.5 143 Q29 195 29 265 Q29 335 48.5 387 Q68 439 101 473 Q134 507 178 523.5 Q222 540 272 540 Q322 540 366 523.5 Q410 507 443 473 Q476 439 495.5 387 Q515 335 515 265 Z M357 265 Q357 345 339 386.5 Q321 428 272 428 Q223 428 205 386.5 Q187 345 187 265 Q187 185 205 143.5 Q223 102 272 102 Q321 102 339 143.5 Q357 185 357 265 Z " />
<glyph glyph-name="hungarumlaut" unicode="&#x2dd;" horiz-adv-x="400" d="M59 577 L23 617 L142 756 L168 756 L224 697 L79 577 L59 577 Z M195 577 L169 614 L290 731 L316 731 L376 663 L215 577 L195 577 Z " />
<glyph glyph-name="OE" unicode="&#x152;" horiz-adv-x="962" d="M358 117 Q392 117 419 122.5 Q446 128 467 137 L467 561 Q447 571 420.5 577 Q394 583 358 583 Q313 583 284 569 Q255 555 237.5 526 Q220 497 213 453 Q206 409 206 350 Q206 291 213 247 Q220 203 237.5 174 Q255 145 284 131 Q313 117 358 117 Z M483 0 Q454 -5 422.5 -7.5 Q391 -10 356 -10 Q283 -10 224 11.5 Q165 33 123.5 77 Q82 121 59.5 189 Q37 257 37 350 Q37 443 59.5 511 Q82 579 123.5 623 Q165 667 224 688.5 Q283 710 356 710 Q392 710 424.5 707.5 Q457 705 486 700 L922 700 L922 576 L629 576 L629 418 L880 418 L880 296 L629 296 L629 124 L927 124 L927 0 L483 0 Z " />
<glyph glyph-name="oe" unicode="&#x153;" horiz-adv-x="820" d="M580 431 Q542 431 525.5 402.5 Q509 374 505 315 L646 315 L646 344 Q646 385 632 408 Q618 431 580 431 Z M357 265 Q357 345 339 386.5 Q321 428 272 428 Q223 428 205 386.5 Q187 345 187 265 Q187 185 205 143.5 Q223 102 272 102 Q321 102 339 143.5 Q357 185 357 265 Z M764 27 Q744 13 703 1.5 Q662 -10 596 -10 Q548 -10 504 10 Q460 30 429 74 Q400 31 359.5 10.5 Q319 -10 272 -10 Q222 -10 178 6.5 Q134 23 101 57 Q68 91 48.5 143 Q29 195 29 265 Q29 335 48.5 387 Q68 439 101 473 Q134 507 178 523.5 Q222 540 272 540 Q318 540 358 520.5 Q398 501 427 459 Q479 540 581 540 Q632 540 671.5 524 Q711 508 738 479 Q765 450 778.5 409 Q792 368 792 317 L792 230 L774 211 L506 211 Q511 179 523.5 158.5 Q536 138 554 126 Q572 114 596 109.5 Q620 105 648 105 Q690 105 720.5 113.5 Q751 122 764 126 L764 27 Z " />
<glyph glyph-name="Racute" unicode="&#x154;" horiz-adv-x="628" d="M67 700 L307 700 Q368 700 418 688.5 Q468 677 503 653 Q538 629 557 591 Q576 553 576 501 Q576 458 562.5 426 Q549 394 528 373 Q507 352 481.5 340.5 Q456 329 432 326 L432 325 Q469 321 493 294 Q517 267 535 213 L608 0 L427 0 L362 212 Q351 246 344 258 Q337 270 319 270 L229 270 L229 0 L67 0 L67 700 Z M229 582 L229 388 L303 388 Q360 388 384.5 413 Q409 438 409 492 Q409 534 384.5 558 Q360 582 303 582 L229 582 Z M304 747 L262 793 L393 926 L419 926 L490 838 L324 747 L304 747 Z " />
<glyph glyph-name="racute" unicode="&#x155;" horiz-adv-x="396" d="M230 577 L188 623 L319 756 L345 756 L416 668 L250 577 L230 577 Z M303 403 Q288 403 274 398 Q260 393 247 386 Q234 379 224 371 Q214 363 207 357 L207 0 L55 0 L55 530 L153 530 Q183 530 191 516 Q199 502 199 486 L199 462 L203 462 Q210 471 223 484 Q236 497 254.5 509.5 Q273 522 297 531 Q321 540 350 540 Q373 540 388 537 L388 391 L378 391 Q365 396 347.5 399.5 Q330 403 303 403 Z " />
<glyph glyph-name="uni0156" unicode="&#x156;" horiz-adv-x="628" d="M264 -258 L292 -210 L283 -190 Q249 -174 249 -132 Q249 -96 266.5 -77 Q284 -58 322 -58 Q359 -58 377.5 -76.5 Q396 -95 396 -128 Q396 -139 391.5 -151 Q387 -163 381 -175 L320 -287 L264 -258 Z M67 700 L307 700 Q368 700 418 688.5 Q468 677 503 653 Q538 629 557 591 Q576 553 576 501 Q576 458 562.5 426 Q549 394 528 373 Q507 352 481.5 340.5 Q456 329 432 326 L432 325 Q469 321 493 294 Q517 267 535 213 L608 0 L427 0 L362 212 Q351 246 344 258 Q337 270 319 270 L229 270 L229 0 L67 0 L67 700 Z M229 582 L229 388 L303 388 Q360 388 384.5 413 Q409 438 409 492 Q409 534 384.5 558 Q360 582 303 582 L229 582 Z " />
<glyph glyph-name="uni0157" unicode="&#x157;" horiz-adv-x="396" d="M76 -258 L104 -210 L95 -190 Q61 -174 61 -132 Q61 -96 78.5 -77 Q96 -58 134 -58 Q171 -58 189.5 -76.5 Q208 -95 208 -128 Q208 -139 203.5 -151 Q199 -163 193 -175 L132 -287 L76 -258 Z M303 403 Q288 403 274 398 Q260 393 247 386 Q234 379 224 371 Q214 363 207 357 L207 0 L55 0 L55 530 L153 530 Q183 530 191 516 Q199 502 199 486 L199 462 L203 462 Q210 471 223 484 Q236 497 254.5 509.5 Q273 522 297 531 Q321 540 350 540 Q373 540 388 537 L388 391 L378 391 Q365 396 347.5 399.5 Q330 403 303 403 Z " />
<glyph glyph-name="Rcaron" unicode="&#x158;" horiz-adv-x="628" d="M67 700 L307 700 Q368 700 418 688.5 Q468 677 503 653 Q538 629 557 591 Q576 553 576 501 Q576 458 562.5 426 Q549 394 528 373 Q507 352 481.5 340.5 Q456 329 432 326 L432 325 Q469 321 493 294 Q517 267 535 213 L608 0 L427 0 L362 212 Q351 246 344 258 Q337 270 319 270 L229 270 L229 0 L67 0 L67 700 Z M229 582 L229 388 L303 388 Q360 388 384.5 413 Q409 438 409 492 Q409 534 384.5 558 Q360 582 303 582 L229 582 Z M450 929 L479 894 L339 747 L290 747 L149 894 L178 929 L201 929 L314 860 L427 929 L450 929 Z " />
<glyph glyph-name="rcaron" unicode="&#x159;" horiz-adv-x="396" d="M374 759 L403 724 L263 577 L214 577 L74 724 L103 759 L126 759 L238 690 L351 759 L374 759 Z M303 403 Q288 403 274 398 Q260 393 247 386 Q234 379 224 371 Q214 363 207 357 L207 0 L55 0 L55 530 L153 530 Q183 530 191 516 Q199 502 199 486 L199 462 L203 462 Q210 471 223 484 Q236 497 254.5 509.5 Q273 522 297 531 Q321 540 350 540 Q373 540 388 537 L388 391 L378 391 Q365 396 347.5 399.5 Q330 403 303 403 Z " />
<glyph glyph-name="Sacute" unicode="&#x15a;" horiz-adv-x="524" d="M496 220 Q496 163 476.5 120 Q457 77 422 48 Q387 19 338.5 4.5 Q290 -10 231 -10 Q190 -10 155.5 -6 Q121 -2 95 3 Q65 9 41 17 L41 142 Q81 134 128 124 Q175 114 231 114 Q292 114 315.5 135.5 Q339 157 339 192 Q339 209 333.5 222 Q328 235 315.5 245.5 Q303 256 282.5 265 Q262 274 232 283 Q185 298 149.5 316.5 Q114 335 90 361.5 Q66 388 53.5 423 Q41 458 41 505 Q41 553 59.5 591 Q78 629 110.5 655.5 Q143 682 188 696 Q233 710 286 710 Q324 710 355.5 706 Q387 702 411 697 Q438 691 462 684 L462 557 Q426 567 385 576.5 Q344 586 297 586 Q246 586 218 567.5 Q190 549 190 517 Q190 504 193.5 492 Q197 480 208 469 Q219 458 240 447 Q261 436 296 425 Q342 410 379 391.5 Q416 373 442 348 Q468 323 482 291.5 Q496 260 496 220 Z M281 747 L239 793 L370 926 L396 926 L467 838 L301 747 L281 747 Z " />
<glyph glyph-name="sacute" unicode="&#x15b;" horiz-adv-x="457" d="M250 577 L208 623 L339 756 L365 756 L436 668 L270 577 L250 577 Z M434 166 Q434 124 417 91 Q400 58 370 35.5 Q340 13 298.5 1.5 Q257 -10 209 -10 Q167 -10 135 -6 Q103 -2 80 3 Q53 9 32 17 L32 135 Q66 124 104 113.5 Q142 103 187 103 Q238 103 261.5 114.5 Q285 126 285 149 Q285 157 281.5 165 Q278 173 268 180 Q258 187 240.5 193.5 Q223 200 196 206 Q149 215 118 233 Q87 251 69 273.5 Q51 296 44 322.5 Q37 349 37 376 Q37 411 52 441 Q67 471 95.5 493 Q124 515 164 527.5 Q204 540 255 540 Q286 540 313.5 537 Q341 534 361 530 Q385 526 405 520 L405 404 Q396 407 380.5 411 Q365 415 347 418.5 Q329 422 309 425 Q289 428 271 428 Q227 428 203 417.5 Q179 407 179 385 Q179 371 193.5 358 Q208 345 249 335 Q347 312 390.5 272 Q434 232 434 166 Z " />
<glyph glyph-name="Scircumflex" unicode="&#x15c;" horiz-adv-x="524" d="M496 220 Q496 163 476.5 120 Q457 77 422 48 Q387 19 338.5 4.5 Q290 -10 231 -10 Q190 -10 155.5 -6 Q121 -2 95 3 Q65 9 41 17 L41 142 Q81 134 128 124 Q175 114 231 114 Q292 114 315.5 135.5 Q339 157 339 192 Q339 209 333.5 222 Q328 235 315.5 245.5 Q303 256 282.5 265 Q262 274 232 283 Q185 298 149.5 316.5 Q114 335 90 361.5 Q66 388 53.5 423 Q41 458 41 505 Q41 553 59.5 591 Q78 629 110.5 655.5 Q143 682 188 696 Q233 710 286 710 Q324 710 355.5 706 Q387 702 411 697 Q438 691 462 684 L462 557 Q426 567 385 576.5 Q344 586 297 586 Q246 586 218 567.5 Q190 549 190 517 Q190 504 193.5 492 Q197 480 208 469 Q219 458 240 447 Q261 436 296 425 Q342 410 379 391.5 Q416 373 442 348 Q468 323 482 291.5 Q496 260 496 220 Z M155 747 L126 782 L266 929 L315 929 L455 782 L426 747 L403 747 L291 816 L178 747 L155 747 Z " />
<glyph glyph-name="scircumflex" unicode="&#x15d;" horiz-adv-x="457" d="M126 577 L99 610 L236 756 L282 756 L419 610 L392 577 L370 577 L259 650 L148 577 L126 577 Z M434 166 Q434 124 417 91 Q400 58 370 35.5 Q340 13 298.5 1.5 Q257 -10 209 -10 Q167 -10 135 -6 Q103 -2 80 3 Q53 9 32 17 L32 135 Q66 124 104 113.5 Q142 103 187 103 Q238 103 261.5 114.5 Q285 126 285 149 Q285 157 281.5 165 Q278 173 268 180 Q258 187 240.5 193.5 Q223 200 196 206 Q149 215 118 233 Q87 251 69 273.5 Q51 296 44 322.5 Q37 349 37 376 Q37 411 52 441 Q67 471 95.5 493 Q124 515 164 527.5 Q204 540 255 540 Q286 540 313.5 537 Q341 534 361 530 Q385 526 405 520 L405 404 Q396 407 380.5 411 Q365 415 347 418.5 Q329 422 309 425 Q289 428 271 428 Q227 428 203 417.5 Q179 407 179 385 Q179 371 193.5 358 Q208 345 249 335 Q347 312 390.5 272 Q434 232 434 166 Z " />
<glyph glyph-name="Scedilla" unicode="&#x15e;" horiz-adv-x="524" d="M224 -180 Q192 -180 162.5 -171.5 Q133 -163 116 -151 L137 -102 Q146 -107 168.5 -115 Q191 -123 211 -123 Q225 -123 234 -119.5 Q243 -116 243 -105 Q243 -89 220.5 -80 Q198 -71 160 -66 L160 -46 L191 -9 Q158 -7 130.5 -3 Q103 1 83 6 Q59 11 41 17 L41 142 Q81 134 128 124 Q175 114 231 114 Q292 114 315.5 135.5 Q339 157 339 192 Q339 209 333.5 222 Q328 235 315.5 245.5 Q303 256 282.5 265 Q262 274 232 283 Q185 298 149.5 316.5 Q114 335 90 361.5 Q66 388 53.5 423 Q41 458 41 505 Q41 553 59.5 591 Q78 629 110.5 655.5 Q143 682 188 696 Q233 710 286 710 Q324 710 355.5 706 Q387 702 411 697 Q438 691 462 684 L462 557 Q426 567 385 576.5 Q344 586 297 586 Q246 586 218 567.5 Q190 549 190 517 Q190 504 193.5 492 Q197 480 208 469 Q219 458 240 447 Q261 436 296 425 Q342 410 379 391.5 Q416 373 442 348 Q468 323 482 291.5 Q496 260 496 220 Q496 168 480 127.5 Q464 87 434.5 58.5 Q405 30 363.5 13 Q322 -4 272 -8 L251 -32 Q293 -34 319.5 -51 Q346 -68 346 -102 Q346 -124 335.5 -139 Q325 -154 308 -163 Q291 -172 269 -176 Q247 -180 224 -180 Z " />
<glyph glyph-name="scedilla" unicode="&#x15f;" horiz-adv-x="456" d="M198 -180 Q166 -180 136.5 -171.5 Q107 -163 90 -151 L111 -102 Q120 -107 142.5 -115 Q165 -123 185 -123 Q199 -123 208 -119.5 Q217 -116 217 -105 Q217 -89 194.5 -80 Q172 -71 134 -66 L134 -46 L166 -8 Q134 -6 109 -2.5 Q84 1 67 6 Q47 11 32 17 L32 135 Q66 124 104 113.5 Q142 103 187 103 Q238 103 261.5 114.5 Q285 126 285 149 Q285 157 281.5 165 Q278 173 268 180 Q258 187 240.5 193.5 Q223 200 196 206 Q149 215 118 233 Q87 251 69 273.5 Q51 296 44 322.5 Q37 349 37 376 Q37 411 52 441 Q67 471 95.5 493 Q124 515 164 527.5 Q204 540 255 540 Q286 540 313.5 537 Q341 534 361 530 Q385 526 405 520 L405 404 Q396 407 380.5 411 Q365 415 347 418.5 Q329 422 309 425 Q289 428 271 428 Q227 428 203 417.5 Q179 407 179 385 Q179 371 193.5 358 Q208 345 249 335 Q347 312 390.5 272 Q434 232 434 166 Q434 128 420 97.5 Q406 67 381 45 Q356 23 321.5 9.5 Q287 -4 246 -8 L225 -32 Q267 -34 293.5 -51 Q320 -68 320 -102 Q320 -124 309.5 -139 Q299 -154 282 -163 Q265 -172 243 -176 Q221 -180 198 -180 Z " />
<glyph glyph-name="Scaron" unicode="&#x160;" horiz-adv-x="524" d="M496 220 Q496 163 476.5 120 Q457 77 422 48 Q387 19 338.5 4.5 Q290 -10 231 -10 Q190 -10 155.5 -6 Q121 -2 95 3 Q65 9 41 17 L41 142 Q81 134 128 124 Q175 114 231 114 Q292 114 315.5 135.5 Q339 157 339 192 Q339 209 333.5 222 Q328 235 315.5 245.5 Q303 256 282.5 265 Q262 274 232 283 Q185 298 149.5 316.5 Q114 335 90 361.5 Q66 388 53.5 423 Q41 458 41 505 Q41 553 59.5 591 Q78 629 110.5 655.5 Q143 682 188 696 Q233 710 286 710 Q324 710 355.5 706 Q387 702 411 697 Q438 691 462 684 L462 557 Q426 567 385 576.5 Q344 586 297 586 Q246 586 218 567.5 Q190 549 190 517 Q190 504 193.5 492 Q197 480 208 469 Q219 458 240 447 Q261 436 296 425 Q342 410 379 391.5 Q416 373 442 348 Q468 323 482 291.5 Q496 260 496 220 Z M427 929 L456 894 L316 747 L267 747 L126 894 L155 929 L178 929 L291 860 L404 929 L427 929 Z " />
<glyph glyph-name="scaron" unicode="&#x161;" horiz-adv-x="457" d="M394 759 L423 724 L283 577 L234 577 L94 724 L123 759 L146 759 L258 690 L371 759 L394 759 Z M434 166 Q434 124 417 91 Q400 58 370 35.5 Q340 13 298.5 1.5 Q257 -10 209 -10 Q167 -10 135 -6 Q103 -2 80 3 Q53 9 32 17 L32 135 Q66 124 104 113.5 Q142 103 187 103 Q238 103 261.5 114.5 Q285 126 285 149 Q285 157 281.5 165 Q278 173 268 180 Q258 187 240.5 193.5 Q223 200 196 206 Q149 215 118 233 Q87 251 69 273.5 Q51 296 44 322.5 Q37 349 37 376 Q37 411 52 441 Q67 471 95.5 493 Q124 515 164 527.5 Q204 540 255 540 Q286 540 313.5 537 Q341 534 361 530 Q385 526 405 520 L405 404 Q396 407 380.5 411 Q365 415 347 418.5 Q329 422 309 425 Q289 428 271 428 Q227 428 203 417.5 Q179 407 179 385 Q179 371 193.5 358 Q208 345 249 335 Q347 312 390.5 272 Q434 232 434 166 Z " />
<glyph glyph-name="uni0162" unicode="&#x162;" horiz-adv-x="586" d="M15 700 L571 700 L571 576 L374 576 L374 0 L332 0 L304 -32 Q346 -34 372.5 -51 Q399 -68 399 -102 Q399 -124 388.5 -139 Q378 -154 361 -163 Q344 -172 322 -176 Q300 -180 277 -180 Q245 -180 215.5 -171.5 Q186 -163 169 -151 L190 -102 Q199 -107 221.5 -115 Q244 -123 264 -123 Q278 -123 287 -119.5 Q296 -116 296 -105 Q296 -89 273.5 -80 Q251 -71 213 -66 L213 -46 L252 0 L212 0 L212 576 L15 576 L15 700 Z " />
<glyph glyph-name="uni0163" unicode="&#x163;" horiz-adv-x="370" d="M210 -180 Q178 -180 148.5 -171.5 Q119 -163 102 -151 L123 -102 Q132 -107 154.5 -115 Q177 -123 197 -123 Q211 -123 220 -119.5 Q229 -116 229 -105 Q229 -89 206.5 -80 Q184 -71 146 -66 L146 -46 L178 -7 Q130 -1 106.5 27 Q83 55 83 114 L83 423 L21 423 L21 528 L75 528 L140 670 L235 670 L235 528 L351 528 L351 423 L235 423 L235 100 L354 100 L354 0 Q341 -1 325 -3 Q311 -5 294 -6.5 Q277 -8 257 -9 L237 -32 Q279 -34 305.5 -51 Q332 -68 332 -102 Q332 -124 321.5 -139 Q311 -154 294 -163 Q277 -172 255 -176 Q233 -180 210 -180 Z " />
<glyph glyph-name="Tcaron" unicode="&#x164;" horiz-adv-x="586" d="M15 700 L571 700 L571 576 L374 576 L374 0 L212 0 L212 576 L15 576 L15 700 Z M429 929 L458 894 L318 747 L269 747 L128 894 L157 929 L180 929 L293 860 L406 929 L429 929 Z " />
<glyph glyph-name="tcaron" unicode="&#x165;" horiz-adv-x="370" d="M300 582 L300 780 L409 780 L409 719 L390 582 L300 582 Z M215 -10 Q149 -10 116 17.5 Q83 45 83 114 L83 423 L21 423 L21 528 L75 528 L140 670 L235 670 L235 528 L351 528 L351 423 L235 423 L235 100 L354 100 L354 0 Q334 -3 311 -5 Q291 -7 266 -8.5 Q241 -10 215 -10 Z " />
<glyph glyph-name="Tbar" unicode="&#x166;" horiz-adv-x="594" d="M19 700 L575 700 L575 576 L378 576 L378 385 L478 385 L478 305 L378 305 L378 0 L216 0 L216 305 L116 305 L116 385 L216 385 L216 576 L19 576 L19 700 Z " />
<glyph glyph-name="tbar" unicode="&#x167;" horiz-adv-x="371" d="M27 334 L83 334 L83 423 L21 423 L21 528 L75 528 L140 670 L235 670 L235 528 L351 528 L351 423 L235 423 L235 334 L340 334 L340 256 L235 256 L235 100 L354 100 L354 0 Q334 -3 311 -5 Q291 -7 266 -8.5 Q241 -10 215 -10 Q149 -10 116 17.5 Q83 45 83 114 L83 256 L27 256 L27 334 Z " />
<glyph glyph-name="Utilde" unicode="&#x168;" horiz-adv-x="654" d="M442 700 L592 700 L592 235 Q592 172 572.5 126 Q553 80 518 50 Q483 20 432.5 5 Q382 -10 321 -10 Q262 -10 214.5 5 Q167 20 133 50 Q99 80 80.5 126 Q62 172 62 235 L62 700 L226 700 L226 233 Q226 176 250 147 Q274 118 331 118 Q397 118 419.5 147 Q442 176 442 233 L442 700 Z M490 898 L490 853 Q490 803 466.5 781 Q443 759 403 759 Q380 759 361 764.5 Q342 770 325.5 777 Q309 784 296 789.5 Q283 795 273 795 Q268 795 265 793.5 Q262 792 260 790 Q257 788 256 786 L256 748 L172 748 L172 789 Q172 848 195.5 870 Q219 892 255 892 Q277 892 296.5 885.5 Q316 879 332.5 871.5 Q349 864 363.5 857.5 Q378 851 390 851 Q401 851 405 858 Q407 861 408 865 L408 898 L490 898 Z " />
<glyph glyph-name="utilde" unicode="&#x169;" horiz-adv-x="551" d="M348 60 Q340 52 327 40 Q314 28 295.5 17 Q277 6 253 -2 Q229 -10 201 -10 Q158 -10 129.5 2.5 Q101 15 83.5 37 Q66 59 59 88 Q52 117 52 150 L52 530 L204 530 L204 193 Q204 182 205.5 169.5 Q207 157 213 146.5 Q219 136 231 129.5 Q243 123 265 123 Q291 123 312 132.5 Q333 142 344 150 L344 530 L496 530 L496 0 L399 0 Q369 0 361 14 Q353 28 353 44 L353 60 L348 60 Z M421 728 L421 683 Q421 633 397.5 611 Q374 589 334 589 Q311 589 292 594.5 Q273 600 256.5 607 Q240 614 227 619.5 Q214 625 204 625 Q199 625 196 623.5 Q193 622 191 620 Q188 618 187 616 L187 578 L103 578 L103 619 Q103 678 126.5 700 Q150 722 186 722 Q208 722 227.5 715.5 Q247 709 263.5 701.5 Q280 694 294.5 687.5 Q309 681 321 681 Q332 681 336 688 Q338 691 339 695 L339 728 L421 728 Z " />
<glyph glyph-name="Umacron" unicode="&#x16a;" horiz-adv-x="654" d="M442 700 L592 700 L592 235 Q592 172 572.5 126 Q553 80 518 50 Q483 20 432.5 5 Q382 -10 321 -10 Q262 -10 214.5 5 Q167 20 133 50 Q99 80 80.5 126 Q62 172 62 235 L62 700 L226 700 L226 233 Q226 176 250 147 Q274 118 331 118 Q397 118 419.5 147 Q442 176 442 233 L442 700 Z M199 876 L463 876 L463 788 L199 788 L199 876 Z " />
<glyph glyph-name="umacron" unicode="&#x16b;" horiz-adv-x="551" d="M348 60 Q340 52 327 40 Q314 28 295.5 17 Q277 6 253 -2 Q229 -10 201 -10 Q158 -10 129.5 2.5 Q101 15 83.5 37 Q66 59 59 88 Q52 117 52 150 L52 530 L204 530 L204 193 Q204 182 205.5 169.5 Q207 157 213 146.5 Q219 136 231 129.5 Q243 123 265 123 Q291 123 312 132.5 Q333 142 344 150 L344 530 L496 530 L496 0 L399 0 Q369 0 361 14 Q353 28 353 44 L353 60 L348 60 Z M130 696 L394 696 L394 608 L130 608 L130 696 Z " />
<glyph glyph-name="Ubreve" unicode="&#x16c;" horiz-adv-x="654" d="M442 700 L592 700 L592 235 Q592 172 572.5 126 Q553 80 518 50 Q483 20 432.5 5 Q382 -10 321 -10 Q262 -10 214.5 5 Q167 20 133 50 Q99 80 80.5 126 Q62 172 62 235 L62 700 L226 700 L226 233 Q226 176 250 147 Q274 118 331 118 Q397 118 419.5 147 Q442 176 442 233 L442 700 Z M462 885 Q459 858 449.5 835 Q440 812 423.5 795 Q407 778 384 768.5 Q361 759 330 759 Q299 759 276 768.5 Q253 778 236.5 795 Q220 812 210.5 835 Q201 858 198 885 L268 905 Q274 885 289 868.5 Q304 852 331 852 Q360 852 377 867 Q394 882 400 901 L462 885 L462 885 Z " />
<glyph glyph-name="ubreve" unicode="&#x16d;" horiz-adv-x="551" d="M348 60 Q340 52 327 40 Q314 28 295.5 17 Q277 6 253 -2 Q229 -10 201 -10 Q158 -10 129.5 2.5 Q101 15 83.5 37 Q66 59 59 88 Q52 117 52 150 L52 530 L204 530 L204 193 Q204 182 205.5 169.5 Q207 157 213 146.5 Q219 136 231 129.5 Q243 123 265 123 Q291 123 312 132.5 Q333 142 344 150 L344 530 L496 530 L496 0 L399 0 Q369 0 361 14 Q353 28 353 44 L353 60 L348 60 Z M399 717 Q394 692 383.5 669 Q373 646 356 628 Q339 610 315.5 599.5 Q292 589 262 589 Q232 589 209 599.5 Q186 610 169.5 627 Q153 644 142.5 666.5 Q132 689 127 713 L197 733 Q204 710 219 691 Q234 672 263 672 Q295 672 312 691 Q329 710 337 733 L399 717 L399 717 Z " />
<glyph glyph-name="Uring" unicode="&#x16e;" horiz-adv-x="654" d="M375 826 Q375 862 331 862 Q288 862 288 826 Q288 809 298 799.5 Q308 790 331 790 Q354 790 364.5 799.5 Q375 809 375 826 Z M457 826 Q457 781 421 759.5 Q385 738 331 738 Q278 738 242 759.5 Q206 781 206 826 Q206 871 242 892.5 Q278 914 331 914 Q385 914 421 892.5 Q457 871 457 826 Z M442 700 L592 700 L592 235 Q592 172 572.5 126 Q553 80 518 50 Q483 20 432.5 5 Q382 -10 321 -10 Q262 -10 214.5 5 Q167 20 133 50 Q99 80 80.5 126 Q62 172 62 235 L62 700 L226 700 L226 233 Q226 176 250 147 Q274 118 331 118 Q397 118 419.5 147 Q442 176 442 233 L442 700 Z " />
<glyph glyph-name="uring" unicode="&#x16f;" horiz-adv-x="551" d="M387 656 Q387 611 351 589.5 Q315 568 261 568 Q208 568 172 589.5 Q136 611 136 656 Q136 701 172 722.5 Q208 744 261 744 Q315 744 351 722.5 Q387 701 387 656 Z M305 656 Q305 692 261 692 Q218 692 218 656 Q218 639 228 629.5 Q238 620 261 620 Q284 620 294.5 629.5 Q305 639 305 656 Z M348 60 Q340 52 327 40 Q314 28 295.5 17 Q277 6 253 -2 Q229 -10 201 -10 Q158 -10 129.5 2.5 Q101 15 83.5 37 Q66 59 59 88 Q52 117 52 150 L52 530 L204 530 L204 193 Q204 182 205.5 169.5 Q207 157 213 146.5 Q219 136 231 129.5 Q243 123 265 123 Q291 123 312 132.5 Q333 142 344 150 L344 530 L496 530 L496 0 L399 0 Q369 0 361 14 Q353 28 353 44 L353 60 L348 60 Z " />
<glyph glyph-name="Uhungarumlaut" unicode="&#x170;" horiz-adv-x="654" d="M249 747 L213 787 L332 926 L358 926 L414 867 L269 747 L249 747 Z M385 747 L359 784 L480 901 L506 901 L566 833 L405 747 L385 747 Z M442 700 L592 700 L592 235 Q592 172 572.5 126 Q553 80 518 50 Q483 20 432.5 5 Q382 -10 321 -10 Q262 -10 214.5 5 Q167 20 133 50 Q99 80 80.5 126 Q62 172 62 235 L62 700 L226 700 L226 233 Q226 176 250 147 Q274 118 331 118 Q397 118 419.5 147 Q442 176 442 233 L442 700 Z " />
<glyph glyph-name="uhungarumlaut" unicode="&#x171;" horiz-adv-x="551" d="M348 60 Q340 52 327 40 Q314 28 295.5 17 Q277 6 253 -2 Q229 -10 201 -10 Q158 -10 129.5 2.5 Q101 15 83.5 37 Q66 59 59 88 Q52 117 52 150 L52 530 L204 530 L204 193 Q204 182 205.5 169.5 Q207 157 213 146.5 Q219 136 231 129.5 Q243 123 265 123 Q291 123 312 132.5 Q333 142 344 150 L344 530 L496 530 L496 0 L399 0 Q369 0 361 14 Q353 28 353 44 L353 60 L348 60 Z M176 577 L140 617 L259 756 L285 756 L341 697 L196 577 L176 577 Z M312 577 L286 614 L407 731 L433 731 L493 663 L332 577 L312 577 Z " />
<glyph glyph-name="Uogonek" unicode="&#x172;" horiz-adv-x="654" d="M376 -180 Q324 -180 291.5 -159.5 Q259 -139 259 -97 Q259 -71 271.5 -49 Q284 -27 304 -10 L303 -10 Q249 -8 204.5 8 Q160 24 128.5 54.5 Q97 85 79.5 130 Q62 175 62 235 L62 700 L226 700 L226 233 Q226 176 250 147 Q274 118 331 118 Q397 118 419.5 147 Q442 176 442 233 L442 700 L592 700 L592 235 Q592 139 550.5 84.5 Q509 30 427 3 Q404 -5 383 -20.5 Q362 -36 362 -63 Q362 -86 376 -96 Q390 -106 411 -106 Q422 -106 438 -101.5 Q454 -97 472 -86 L488 -147 Q468 -161 438.5 -170.5 Q409 -180 376 -180 Z " />
<glyph glyph-name="uogonek" unicode="&#x173;" horiz-adv-x="551" d="M348 60 Q340 52 327 40 Q314 28 295.5 17 Q277 6 253 -2 Q229 -10 201 -10 Q158 -10 129.5 2.5 Q101 15 83.5 37 Q66 59 59 88 Q52 117 52 150 L52 530 L204 530 L204 193 Q204 182 205.5 169.5 Q207 157 213 146.5 Q219 136 231 129.5 Q243 123 265 123 Q291 123 312 132.5 Q333 142 344 150 L344 530 L496 530 L496 0 L444 0 Q425 0 412.5 -6.5 Q400 -13 392.5 -22.5 Q385 -32 382 -43 Q379 -54 379 -63 Q379 -86 393 -96 Q407 -106 428 -106 Q439 -106 455 -101.5 Q471 -97 489 -86 L505 -147 Q485 -161 455.5 -170.5 Q426 -180 393 -180 Q341 -180 308.5 -159.5 Q276 -139 276 -97 Q276 -59 300 -31 Q324 -3 361 14 Q356 20 354.5 28 Q353 36 353 44 L353 60 L348 60 Z " />
<glyph glyph-name="Wcircumflex" unicode="&#x174;" horiz-adv-x="962" d="M347 747 L318 782 L458 929 L507 929 L647 782 L618 747 L595 747 L483 816 L370 747 L347 747 Z M481 427 L366 -2 L204 -2 L8 700 L177 700 L293 214 L408 700 L570 700 L687 214 L801 700 L952 700 L761 -2 L599 -2 L481 427 Z " />
<glyph glyph-name="wcircumflex" unicode="&#x175;" horiz-adv-x="790" d="M262 577 L235 610 L372 756 L418 756 L555 610 L528 577 L506 577 L395 650 L284 577 L262 577 Z M7 530 L165 530 L251 194 L339 530 L467 530 L553 194 L641 530 L781 530 L618 -2 L478 -2 L395 269 L314 -2 L174 -2 L7 530 Z " />
<glyph glyph-name="Ycircumflex" unicode="&#x176;" horiz-adv-x="617" d="M234 0 L234 259 L-5 700 L179 700 L319 422 L449 700 L605 700 L396 278 L396 0 L234 0 Z M189 747 L160 782 L300 929 L349 929 L489 782 L460 747 L437 747 L325 816 L212 747 L189 747 Z " />
<glyph glyph-name="ycircumflex" unicode="&#x177;" horiz-adv-x="521" d="M147 -170 L196 -13 L5 530 L172 530 L266 208 L367 530 L515 530 L274 -170 L147 -170 Z M136 577 L109 610 L246 756 L292 756 L429 610 L402 577 L380 577 L269 650 L158 577 L136 577 Z " />
<glyph glyph-name="Ydieresis" unicode="&#x178;" horiz-adv-x="617" d="M234 0 L234 259 L-5 700 L179 700 L319 422 L449 700 L605 700 L396 278 L396 0 L234 0 Z M178 840 Q178 866 196.5 885.5 Q215 905 244 905 Q273 905 290.5 885.5 Q308 866 308 840 Q308 813 290.5 794.5 Q273 776 244 776 Q215 776 196.5 794.5 Q178 813 178 840 Z M343 840 Q343 866 361 885.5 Q379 905 408 905 Q437 905 455 885.5 Q473 866 473 840 Q473 813 455 794.5 Q437 776 408 776 Q379 776 361 794.5 Q343 813 343 840 Z " />
<glyph glyph-name="Zacute" unicode="&#x179;" horiz-adv-x="581" d="M26 0 L26 84 L338 577 L42 577 L42 700 L538 700 L538 616 L227 124 L553 124 L553 0 L26 0 Z M285 747 L243 793 L374 926 L400 926 L471 838 L305 747 L285 747 Z " />
<glyph glyph-name="zacute" unicode="&#x17a;" horiz-adv-x="498" d="M243 577 L201 623 L332 756 L358 756 L429 668 L263 577 L243 577 Z M24 0 L24 68 L261 412 L37 412 L37 530 L459 530 L459 456 L227 118 L472 118 L472 0 L24 0 Z " />
<glyph glyph-name="Zdotaccent" unicode="&#x17b;" horiz-adv-x="581" d="M210 830 Q210 846 216.5 860.5 Q223 875 234.5 886 Q246 897 261.5 903.5 Q277 910 295 910 Q313 910 328.5 903.5 Q344 897 355.5 886 Q367 875 374 860.5 Q381 846 381 830 Q381 813 374 798.5 Q367 784 355.5 773 Q344 762 328.5 755.5 Q313 749 295 749 Q277 749 261.5 755.5 Q246 762 234.5 773 Q223 784 216.5 798.5 Q210 813 210 830 Z M26 0 L26 84 L338 577 L42 577 L42 700 L538 700 L538 616 L227 124 L553 124 L553 0 L26 0 Z " />
<glyph glyph-name="zdotaccent" unicode="&#x17c;" horiz-adv-x="498" d="M24 0 L24 68 L261 412 L37 412 L37 530 L459 530 L459 456 L227 118 L472 118 L472 0 L24 0 Z M166 660 Q166 676 172.5 690.5 Q179 705 190.5 716 Q202 727 217.5 733.5 Q233 740 251 740 Q269 740 284.5 733.5 Q300 727 311.5 716 Q323 705 330 690.5 Q337 676 337 660 Q337 643 330 628.5 Q323 614 311.5 603 Q300 592 284.5 585.5 Q269 579 251 579 Q233 579 217.5 585.5 Q202 592 190.5 603 Q179 614 172.5 628.5 Q166 643 166 660 Z " />
<glyph glyph-name="Zcaron" unicode="&#x17d;" horiz-adv-x="581" d="M26 0 L26 84 L338 577 L42 577 L42 700 L538 700 L538 616 L227 124 L553 124 L553 0 L26 0 Z M431 929 L460 894 L320 747 L271 747 L130 894 L159 929 L182 929 L295 860 L408 929 L431 929 Z " />
<glyph glyph-name="zcaron" unicode="&#x17e;" horiz-adv-x="498" d="M387 759 L416 724 L276 577 L227 577 L87 724 L116 759 L139 759 L251 690 L364 759 L387 759 Z M24 0 L24 68 L261 412 L37 412 L37 530 L459 530 L459 456 L227 118 L472 118 L472 0 L24 0 Z " />
<glyph glyph-name="longs" unicode="&#x17f;" horiz-adv-x="323" d="M238 0 L86 0 L86 423 L24 423 L24 528 L86 528 L86 558 Q86 592 96 625 Q106 658 128.5 683.5 Q151 709 188 724.5 Q225 740 279 740 Q305 740 326 738 Q347 736 357 734 L357 635 L297 635 Q259 635 248.5 617.5 Q238 600 238 567 L238 0 Z " />
<glyph glyph-name="florin" unicode="&#x192;" horiz-adv-x="391" d="M17 -180 Q-34 -180 -60.5 -175.5 Q-87 -171 -90 -169 L-90 -75 L-5 -75 Q19 -75 33.5 -70.5 Q48 -66 56 -57.5 Q64 -49 67 -36.5 Q70 -24 72 -7 L110 358 L21 358 L21 463 L120 463 L130 560 Q133 594 144.5 626.5 Q156 659 180 684 Q204 709 242.5 724.5 Q281 740 339 740 Q391 740 416.5 735 Q442 730 446 729 L446 635 L361 635 Q336 635 321.5 630.5 Q307 626 299 617.5 Q291 609 287.5 596 Q284 583 283 567 L272 463 L381 463 L381 358 L262 358 L226 0 Q223 -35 211 -67.5 Q199 -100 174.5 -125 Q150 -150 111.5 -165 Q73 -180 17 -180 Z " />
<glyph glyph-name="uni0218" unicode="&#x218;" horiz-adv-x="524" d="M172 -258 L200 -210 L191 -190 Q157 -174 157 -132 Q157 -96 174.5 -77 Q192 -58 230 -58 Q267 -58 285.5 -76.5 Q304 -95 304 -128 Q304 -139 299.5 -151 Q295 -163 289 -175 L228 -287 L172 -258 Z M496 220 Q496 163 476.5 120 Q457 77 422 48 Q387 19 338.5 4.5 Q290 -10 231 -10 Q190 -10 155.5 -6 Q121 -2 95 3 Q65 9 41 17 L41 142 Q81 134 128 124 Q175 114 231 114 Q292 114 315.5 135.5 Q339 157 339 192 Q339 209 333.5 222 Q328 235 315.5 245.5 Q303 256 282.5 265 Q262 274 232 283 Q185 298 149.5 316.5 Q114 335 90 361.5 Q66 388 53.5 423 Q41 458 41 505 Q41 553 59.5 591 Q78 629 110.5 655.5 Q143 682 188 696 Q233 710 286 710 Q324 710 355.5 706 Q387 702 411 697 Q438 691 462 684 L462 557 Q426 567 385 576.5 Q344 586 297 586 Q246 586 218 567.5 Q190 549 190 517 Q190 504 193.5 492 Q197 480 208 469 Q219 458 240 447 Q261 436 296 425 Q342 410 379 391.5 Q416 373 442 348 Q468 323 482 291.5 Q496 260 496 220 Z " />
<glyph glyph-name="uni0219" unicode="&#x219;" horiz-adv-x="457" d="M146 -258 L174 -210 L165 -190 Q131 -174 131 -132 Q131 -96 148.5 -77 Q166 -58 204 -58 Q241 -58 259.5 -76.5 Q278 -95 278 -128 Q278 -139 273.5 -151 Q269 -163 263 -175 L202 -287 L146 -258 Z M434 166 Q434 124 417 91 Q400 58 370 35.5 Q340 13 298.5 1.5 Q257 -10 209 -10 Q167 -10 135 -6 Q103 -2 80 3 Q53 9 32 17 L32 135 Q66 124 104 113.5 Q142 103 187 103 Q238 103 261.5 114.5 Q285 126 285 149 Q285 157 281.5 165 Q278 173 268 180 Q258 187 240.5 193.5 Q223 200 196 206 Q149 215 118 233 Q87 251 69 273.5 Q51 296 44 322.5 Q37 349 37 376 Q37 411 52 441 Q67 471 95.5 493 Q124 515 164 527.5 Q204 540 255 540 Q286 540 313.5 537 Q341 534 361 530 Q385 526 405 520 L405 404 Q396 407 380.5 411 Q365 415 347 418.5 Q329 422 309 425 Q289 428 271 428 Q227 428 203 417.5 Q179 407 179 385 Q179 371 193.5 358 Q208 345 249 335 Q347 312 390.5 272 Q434 232 434 166 Z " />
<glyph glyph-name="uni021A" unicode="&#x21a;" horiz-adv-x="586" d="M236 -258 L264 -210 L255 -190 Q221 -174 221 -132 Q221 -96 238.5 -77 Q256 -58 294 -58 Q331 -58 349.5 -76.5 Q368 -95 368 -128 Q368 -139 363.5 -151 Q359 -163 353 -175 L292 -287 L236 -258 Z M15 700 L571 700 L571 576 L374 576 L374 0 L212 0 L212 576 L15 576 L15 700 Z " />
<glyph glyph-name="uni021B" unicode="&#x21b;" horiz-adv-x="370" d="M143 -258 L171 -210 L162 -190 Q128 -174 128 -132 Q128 -96 145.5 -77 Q163 -58 201 -58 Q238 -58 256.5 -76.5 Q275 -95 275 -128 Q275 -139 270.5 -151 Q266 -163 260 -175 L199 -287 L143 -258 Z M215 -10 Q149 -10 116 17.5 Q83 45 83 114 L83 423 L21 423 L21 528 L75 528 L140 670 L235 670 L235 528 L351 528 L351 423 L235 423 L235 100 L354 100 L354 0 Q334 -3 311 -5 Q291 -7 266 -8.5 Q241 -10 215 -10 Z " />
<glyph glyph-name="uni0237" unicode="&#x237;" horiz-adv-x="262" d="M-69 -70 L-1 -70 Q31 -70 43 -50 Q55 -30 55 1 L55 530 L207 530 L207 10 Q207 -24 197 -58 Q187 -92 163.5 -119 Q140 -146 102 -163 Q64 -180 9 -180 Q-17 -180 -36 -177 Q-55 -174 -69 -171 L-69 -70 Z " />
<glyph glyph-name="uni02C9" unicode="&#x2c9;" horiz-adv-x="400" d="M68 706 L332 706 L332 618 L68 618 L68 706 Z " />
<glyph glyph-name="ogonek" unicode="&#x2db;" horiz-adv-x="400" d="M233 0 Q198 -12 183 -28 Q168 -44 168 -63 Q168 -86 182 -96 Q196 -106 217 -106 Q228 -106 244 -101.5 Q260 -97 278 -86 L294 -147 Q274 -161 244.5 -170.5 Q215 -180 182 -180 Q130 -180 97.5 -159.5 Q65 -139 65 -97 Q65 -68 80 -44.5 Q95 -21 119 -4.5 Q143 12 173 22.5 Q203 33 233 37 L233 0 Z " />
<glyph glyph-name="uni0394" unicode="&#x394;" horiz-adv-x="656" d="M15 0 L15 84 L268 702 L410 702 L641 84 L641 0 L15 0 Z M327 489 L190 134 L452 134 L327 489 Z " />
<glyph glyph-name="Delta" unicode="&#x2206;" horiz-adv-x="656" d="M15 0 L15 84 L268 702 L410 702 L641 84 L641 0 L15 0 Z M327 489 L190 134 L452 134 L327 489 Z " />
<glyph glyph-name="uni03A9" unicode="&#x3a9;" horiz-adv-x="722" d="M398 0 L398 205 Q438 225 462.5 246.5 Q487 268 500.5 293 Q514 318 518.5 347 Q523 376 523 412 Q523 508 481.5 547.5 Q440 587 361 587 Q281 587 240 547.5 Q199 508 199 412 Q199 376 203.5 347 Q208 318 221.5 293 Q235 268 259.5 246.5 Q284 225 324 205 L324 0 L50 0 L50 111 L232 111 L232 134 Q178 159 142 188 Q106 217 83.5 251.5 Q61 286 51.5 325.5 Q42 365 42 412 Q42 492 66.5 549.5 Q91 607 133.5 643.5 Q176 680 234.5 697 Q293 714 361 714 Q429 714 487.5 697 Q546 680 588.5 643.5 Q631 607 655.5 549.5 Q680 492 680 412 Q680 365 670.5 325.5 Q661 286 638.5 251.5 Q616 217 580 188 Q544 159 490 134 L490 111 L672 111 L672 0 L398 0 Z " />
<glyph glyph-name="Omega" unicode="&#x2126;" horiz-adv-x="722" d="M398 0 L398 205 Q438 225 462.5 246.5 Q487 268 500.5 293 Q514 318 518.5 347 Q523 376 523 412 Q523 508 481.5 547.5 Q440 587 361 587 Q281 587 240 547.5 Q199 508 199 412 Q199 376 203.5 347 Q208 318 221.5 293 Q235 268 259.5 246.5 Q284 225 324 205 L324 0 L50 0 L50 111 L232 111 L232 134 Q178 159 142 188 Q106 217 83.5 251.5 Q61 286 51.5 325.5 Q42 365 42 412 Q42 492 66.5 549.5 Q91 607 133.5 643.5 Q176 680 234.5 697 Q293 714 361 714 Q429 714 487.5 697 Q546 680 588.5 643.5 Q631 607 655.5 549.5 Q680 492 680 412 Q680 365 670.5 325.5 Q661 286 638.5 251.5 Q616 217 580 188 Q544 159 490 134 L490 111 L672 111 L672 0 L398 0 Z " />
<glyph glyph-name="uni03BC" unicode="&#x3bc;" horiz-adv-x="606" d="M598 10 Q588 5 575.5 1.5 Q563 -2 550.5 -4 Q538 -6 526 -7 Q514 -8 505 -8 Q454 -8 430.5 17 Q407 42 397 78 Q385 37 357.5 13 Q330 -11 285 -11 Q255 -11 230 3.5 Q205 18 191 51 L204 -89 L204 -169 L57 -182 L57 521 L211 537 L211 227 Q211 166 232.5 142 Q254 118 287 118 Q304 118 325 128.5 Q346 139 362 170 L362 521 L514 537 L514 172 Q514 149 522.5 132.5 Q531 116 559 116 Q567 116 578.5 117.5 Q590 119 598 121 L598 10 Z " />
<glyph glyph-name="mu" unicode="&#xb5;" horiz-adv-x="606" d="M598 10 Q588 5 575.5 1.5 Q563 -2 550.5 -4 Q538 -6 526 -7 Q514 -8 505 -8 Q454 -8 430.5 17 Q407 42 397 78 Q385 37 357.5 13 Q330 -11 285 -11 Q255 -11 230 3.5 Q205 18 191 51 L204 -89 L204 -169 L57 -182 L57 521 L211 537 L211 227 Q211 166 232.5 142 Q254 118 287 118 Q304 118 325 128.5 Q346 139 362 170 L362 521 L514 537 L514 172 Q514 149 522.5 132.5 Q531 116 559 116 Q567 116 578.5 117.5 Q590 119 598 121 L598 10 Z " />
<glyph glyph-name="Wgrave" unicode="&#x1e80;" horiz-adv-x="962" d="M494 747 L474 747 L308 838 L379 926 L405 926 L536 793 L494 747 Z M481 427 L366 -2 L204 -2 L8 700 L177 700 L293 214 L408 700 L570 700 L687 214 L801 700 L952 700 L761 -2 L599 -2 L481 427 Z " />
<glyph glyph-name="wgrave" unicode="&#x1e81;" horiz-adv-x="790" d="M7 530 L165 530 L251 194 L339 530 L467 530 L553 194 L641 530 L781 530 L618 -2 L478 -2 L395 269 L314 -2 L174 -2 L7 530 Z M406 577 L386 577 L220 668 L291 756 L317 756 L448 623 L406 577 Z " />
<glyph glyph-name="Wacute" unicode="&#x1e82;" horiz-adv-x="962" d="M473 747 L431 793 L562 926 L588 926 L659 838 L493 747 L473 747 Z M481 427 L366 -2 L204 -2 L8 700 L177 700 L293 214 L408 700 L570 700 L687 214 L801 700 L952 700 L761 -2 L599 -2 L481 427 Z " />
<glyph glyph-name="wacute" unicode="&#x1e83;" horiz-adv-x="790" d="M386 577 L344 623 L475 756 L501 756 L572 668 L406 577 L386 577 Z M7 530 L165 530 L251 194 L339 530 L467 530 L553 194 L641 530 L781 530 L618 -2 L478 -2 L395 269 L314 -2 L174 -2 L7 530 Z " />
<glyph glyph-name="Wdieresis" unicode="&#x1e84;" horiz-adv-x="962" d="M481 427 L366 -2 L204 -2 L8 700 L177 700 L293 214 L408 700 L570 700 L687 214 L801 700 L952 700 L761 -2 L599 -2 L481 427 Z M336 840 Q336 866 354.5 885.5 Q373 905 402 905 Q431 905 448.5 885.5 Q466 866 466 840 Q466 813 448.5 794.5 Q431 776 402 776 Q373 776 354.5 794.5 Q336 813 336 840 Z M501 840 Q501 866 519 885.5 Q537 905 566 905 Q595 905 613 885.5 Q631 866 631 840 Q631 813 613 794.5 Q595 776 566 776 Q537 776 519 794.5 Q501 813 501 840 Z " />
<glyph glyph-name="wdieresis" unicode="&#x1e85;" horiz-adv-x="790" d="M247 660 Q247 686 265.5 705.5 Q284 725 313 725 Q342 725 359.5 705.5 Q377 686 377 660 Q377 633 359.5 614.5 Q342 596 313 596 Q284 596 265.5 614.5 Q247 633 247 660 Z M412 660 Q412 686 430 705.5 Q448 725 477 725 Q506 725 524 705.5 Q542 686 542 660 Q542 633 524 614.5 Q506 596 477 596 Q448 596 430 614.5 Q412 633 412 660 Z M7 530 L165 530 L251 194 L339 530 L467 530 L553 194 L641 530 L781 530 L618 -2 L478 -2 L395 269 L314 -2 L174 -2 L7 530 Z " />
<glyph glyph-name="endash" unicode="&#x2013;" horiz-adv-x="568" d="M60 375 L508 375 L508 270 L60 270 L60 375 Z " />
<glyph glyph-name="emdash" unicode="&#x2014;" horiz-adv-x="857" d="M60 375 L797 375 L797 270 L60 270 L60 375 Z " />
<glyph glyph-name="quoteleft" unicode="&#x2018;" horiz-adv-x="234" d="M188.003 709.994 L150.005 637.999 L158.005 615 Q199.002 597.001 199.002 543.004 Q199.002 506.007 178.004 484.508 Q157.005 463.009 114.008 463.009 Q71.0101 463.009 49.5114 484.508 Q28.0128 506.007 28.0128 543.004 Q28.0128 557.003 33.5124 570.503 Q39.0121 584.002 45.0117 596.001 L124.007 743.992 L188.003 709.994 Z " />
<glyph glyph-name="quoteright" unicode="&#x2019;" horiz-adv-x="232" d="M48 463 L86 535 L78 558 Q37 576 37 630 Q37 667 58 688.5 Q79 710 122 710 Q165 710 186.5 688.5 Q208 667 208 630 Q208 616 202.5 602.5 Q197 589 191 577 L112 429 L48 463 Z " />
<glyph glyph-name="quotesinglbase" unicode="&#x201a;" horiz-adv-x="247" d="M49 -96 L87 -24 L79 -1 Q38 17 38 71 Q38 108 59 129.5 Q80 151 123 151 Q166 151 187.5 129.5 Q209 108 209 71 Q209 57 203.5 43.5 Q198 30 192 18 L113 -130 L49 -96 Z " />
<glyph glyph-name="quotedblleft" unicode="&#x201c;" horiz-adv-x="431" d="M385.003 709.994 L347.005 637.999 L355.005 615 Q396.002 597.001 396.002 543.004 Q396.002 506.007 375.004 484.508 Q354.005 463.009 311.008 463.009 Q268.01 463.009 246.511 484.508 Q225.013 506.007 225.013 543.004 Q225.013 557.003 230.512 570.503 Q236.012 584.002 242.012 596.001 L321.007 743.992 L385.003 709.994 Z M188.003 709.994 L150.005 637.999 L158.005 615 Q199.002 597.001 199.002 543.004 Q199.002 506.007 178.004 484.508 Q157.005 463.009 114.008 463.009 Q71.0101 463.009 49.5114 484.508 Q28.0128 506.007 28.0128 543.004 Q28.0128 557.003 33.5124 570.503 Q39.0121 584.002 45.0117 596.001 L124.007 743.992 L188.003 709.994 Z " />
<glyph glyph-name="quotedblright" unicode="&#x201d;" horiz-adv-x="426" d="M48 463 L86 535 L78 558 Q37 576 37 630 Q37 667 58 688.5 Q79 710 122 710 Q165 710 186.5 688.5 Q208 667 208 630 Q208 616 202.5 602.5 Q197 589 191 577 L112 429 L48 463 Z M243 463 L281 535 L273 558 Q232 576 232 630 Q232 667 253 688.5 Q274 710 317 710 Q360 710 381.5 688.5 Q403 667 403 630 Q403 616 397.5 602.5 Q392 589 386 577 L307 429 L243 463 Z " />
<glyph glyph-name="quotedblbase" unicode="&#x201e;" horiz-adv-x="442" d="M49 -96 L87 -24 L79 -1 Q38 17 38 71 Q38 108 59 129.5 Q80 151 123 151 Q166 151 187.5 129.5 Q209 108 209 71 Q209 57 203.5 43.5 Q198 30 192 18 L113 -130 L49 -96 Z M244 -96 L282 -24 L274 -1 Q233 17 233 71 Q233 108 254 129.5 Q275 151 318 151 Q361 151 382.5 129.5 Q404 108 404 71 Q404 57 398.5 43.5 Q393 30 387 18 L308 -130 L244 -96 Z " />
<glyph glyph-name="dagger" unicode="&#x2020;" horiz-adv-x="472" d="M285 0 L192 0 L166 340 L184 439 L157 439 L27 417 L27 537 L157 516 L186 516 L166 700 L311 700 L289 516 L315 516 L445 537 L445 417 L315 439 L293 439 L311 340 L285 0 Z " />
<glyph glyph-name="daggerdbl" unicode="&#x2021;" horiz-adv-x="510" d="M308 184 L330 0 L185 0 L205 184 L176 184 L46 161 L46 285 L176 261 L202 261 L185 350 L202 439 L176 439 L46 415 L46 539 L176 516 L205 516 L185 700 L330 700 L308 516 L334 516 L464 539 L464 415 L334 439 L313 439 L330 350 L313 261 L334 261 L464 285 L464 161 L334 184 L308 184 Z " />
<glyph glyph-name="bullet" unicode="&#x2022;" horiz-adv-x="379" d="M62.5 375.5 Q62.5 399.5 72.25 421.25 Q82 443 99.25 459.5 Q116.5 476 139.75 485.75 Q163 495.5 190 495.5 Q217 495.5 240.25 485.75 Q263.5 476 280.75 459.5 Q298 443 308.5 421.25 Q319 399.5 319 375.5 Q319 350 308.5 328.25 Q298 306.5 280.75 290 Q263.5 273.5 240.25 263.75 Q217 254 190 254 Q163 254 139.75 263.75 Q116.5 273.5 99.25 290 Q82 306.5 72.25 328.25 Q62.5 350 62.5 375.5 Z " />
<glyph glyph-name="ellipsis" unicode="&#x2026;" horiz-adv-x="681" d="M475 71 Q475 87 481.5 101.5 Q488 116 499.5 127 Q511 138 526.5 144.5 Q542 151 560 151 Q578 151 593.5 144.5 Q609 138 620.5 127 Q632 116 639 101.5 Q646 87 646 71 Q646 54 639 39.5 Q632 25 620.5 14 Q609 3 593.5 -3.5 Q578 -10 560 -10 Q542 -10 526.5 -3.5 Q511 3 499.5 14 Q488 25 481.5 39.5 Q475 54 475 71 Z M35 71 Q35 87 41.5 101.5 Q48 116 59.5 127 Q71 138 86.5 144.5 Q102 151 120 151 Q138 151 153.5 144.5 Q169 138 180.5 127 Q192 116 199 101.5 Q206 87 206 71 Q206 54 199 39.5 Q192 25 180.5 14 Q169 3 153.5 -3.5 Q138 -10 120 -10 Q102 -10 86.5 -3.5 Q71 3 59.5 14 Q48 25 41.5 39.5 Q35 54 35 71 Z M255 71 Q255 87 261.5 101.5 Q268 116 279.5 127 Q291 138 306.5 144.5 Q322 151 340 151 Q358 151 373.5 144.5 Q389 138 400.5 127 Q412 116 419 101.5 Q426 87 426 71 Q426 54 419 39.5 Q412 25 400.5 14 Q389 3 373.5 -3.5 Q358 -10 340 -10 Q322 -10 306.5 -3.5 Q291 3 279.5 14 Q268 25 261.5 39.5 Q255 54 255 71 Z " />
<glyph glyph-name="perthousand" unicode="&#x2030;" horiz-adv-x="988" d="M208 540 Q208 581 200.5 603.5 Q193 626 167 626 Q141 626 133.5 603.5 Q126 581 126 540 Q126 499 133.5 476.5 Q141 454 167 454 Q193 454 200.5 476.5 Q208 499 208 540 Z M304 540 Q304 453 267 413 Q230 373 168 373 Q106 373 68 413.5 Q30 454 30 541 Q30 627 68 667 Q106 707 168 707 Q229 707 266.5 667 Q304 627 304 540 Z M546 162 Q546 203 538.5 225.5 Q531 248 505 248 Q479 248 471.5 225.5 Q464 203 464 162 Q464 121 471.5 98.5 Q479 76 505 76 Q531 76 538.5 98.5 Q546 121 546 162 Z M642 162 Q642 75 605 35 Q568 -5 506 -5 Q444 -5 406 35.5 Q368 76 368 163 Q368 249 406 289 Q444 329 506 329 Q567 329 604.5 289 Q642 249 642 162 Z M866 161 Q866 202 858.5 224.5 Q851 247 825 247 Q799 247 791.5 224.5 Q784 202 784 161 Q784 120 791.5 97.5 Q799 75 825 75 Q851 75 858.5 97.5 Q866 120 866 161 Z M962 161 Q962 74 925 34 Q888 -6 826 -6 Q764 -6 726 34.5 Q688 75 688 162 Q688 248 726 288 Q764 328 826 328 Q887 328 924.5 288 Q962 248 962 161 Z M52 0 L539 700 L621 700 L135 0 L52 0 Z " />
<glyph glyph-name="guilsinglleft" unicode="&#x2039;" horiz-adv-x="308" d="M30.017 232 L156.009 46 L273.002 46 L150.01 256 L273.002 463 L156.009 463 L30.017 277 L30.017 232 Z " />
<glyph glyph-name="franc" unicode="&#x20a3;" horiz-adv-x="599" d="M270 212 L270 0 L108 0 L108 212 L47 212 L47 300 L108 300 L108 342 L47 342 L47 430 L108 430 L108 700 L573 700 L573 576 L270 576 L270 430 L421 430 L421 342 L270 342 L270 300 L421 300 L421 212 L270 212 Z " />
<glyph glyph-name="lira" unicode="&#x20a4;" horiz-adv-x="591" d="M550 0 L48 0 L48 124 L110 124 L110 230 L48 230 L48 318 L110 318 L110 360 L48 360 L48 448 L110 448 L110 474 Q110 518 124 560.5 Q138 603 169.5 636 Q201 669 251 689.5 Q301 710 372 710 Q410 710 441 706 Q472 702 495 697 Q521 692 541 685 L541 564 Q501 577 461.5 584 Q422 591 390 591 Q327 591 299.5 566.5 Q272 542 272 474 L272 448 L409 448 L409 360 L272 360 L272 318 L409 318 L409 230 L272 230 L272 124 L550 124 L550 0 Z " />
<glyph glyph-name="peseta" unicode="&#x20a7;" horiz-adv-x="1456" d="M61 700 L298 700 Q427 700 501.5 646.5 Q576 593 576 478 Q576 416 556.5 371.5 Q537 327 500.5 297.5 Q464 268 412.5 254 Q361 240 298 240 L223 240 L223 0 L61 0 L61 700 Z M223 582 L223 358 L298 358 Q362 358 385 385.5 Q408 413 408 470 Q408 526 385 554 Q362 582 298 582 L223 582 Z M1423 166 Q1423 124 1406 91 Q1389 58 1359 35.5 Q1329 13 1287.5 1.5 Q1246 -10 1198 -10 Q1156 -10 1124 -6 Q1092 -2 1069 3 Q1042 9 1021 17 L1021 135 Q1055 124 1093 113.5 Q1131 103 1176 103 Q1227 103 1250.5 114.5 Q1274 126 1274 149 Q1274 157 1270.5 165 Q1267 173 1257 180 Q1247 187 1229.5 193.5 Q1212 200 1185 206 Q1138 215 1107 233 Q1076 251 1058 273.5 Q1040 296 1033 322.5 Q1026 349 1026 376 Q1026 411 1041 441 Q1056 471 1084.5 493 Q1113 515 1153 527.5 Q1193 540 1244 540 Q1275 540 1302.5 537 Q1330 534 1350 530 Q1374 526 1394 520 L1394 404 Q1385 407 1369.5 411 Q1354 415 1336 418.5 Q1318 422 1298 425 Q1278 428 1260 428 Q1216 428 1192 417.5 Q1168 407 1168 385 Q1168 371 1182.5 358 Q1197 345 1238 335 Q1336 312 1379.5 272 Q1423 232 1423 166 Z M822 -10 Q756 -10 723 17.5 Q690 45 690 114 L690 423 L628 423 L628 528 L682 528 L747 670 L842 670 L842 528 L958 528 L958 423 L842 423 L842 100 L961 100 L961 0 Q941 -3 918 -5 Q898 -7 873 -8.5 Q848 -10 822 -10 Z " />
<glyph glyph-name="Euro" unicode="&#x20ac;" horiz-adv-x="642" d="M601 18 Q574 8 535 -1 Q496 -10 429 -10 Q304 -10 225 50.5 Q146 111 123 240 L33 240 L33 328 L115 328 L115 344 Q115 351 115 357.5 Q115 364 116 370 L33 370 L33 458 L126 458 Q154 585 240 647.5 Q326 710 447 710 Q479 710 505 707.5 Q531 705 550 702 Q572 698 589 695 L589 567 Q574 570 561.5 572.5 Q549 575 537 577 Q525 579 510.5 580 Q496 581 476 581 Q397 581 355 549.5 Q313 518 296 458 L454 458 L454 370 L285 370 L285 357 Q285 349 285 342 Q285 335 286 328 L454 328 L454 240 L297 240 Q311 181 348.5 150.5 Q386 120 457 120 Q478 120 496 122 Q514 124 530.5 128 Q547 132 564 136.5 Q581 141 601 147 L601 18 L601 18 Z " />
<glyph glyph-name="uni2113" unicode="&#x2113;" horiz-adv-x="421" d="M401 29 Q391 22 374.5 15 Q358 8 339.5 2.5 Q321 -3 303 -6.5 Q285 -10 272 -10 Q192 -10 147.5 14.5 Q103 39 97 101 L54 57 L-3 125 L96 235 L96 538 Q96 586 108.5 621 Q121 656 143.5 678.5 Q166 701 197 711.5 Q228 722 264 722 Q294 722 320 714.5 Q346 707 366 690.5 Q386 674 397.5 647 Q409 620 409 582 Q409 543 398 503.5 Q387 464 364.5 422 Q342 380 306 333 Q270 286 221 232 L221 129 Q221 106 233 96.5 Q245 87 275 87 Q299 87 328 93.5 Q357 100 372 109 L401 29 Z M221 381 Q259 437 272 485.5 Q285 534 285 579 Q285 609 278.5 622.5 Q272 636 255 636 Q241 636 231 607.5 Q221 579 221 521 L221 381 Z " />
<glyph glyph-name="trademark" unicode="&#x2122;" horiz-adv-x="793" d="M469 387 L391 387 L391 700 L498 700 L560 564 L618 700 L732 700 L732 387 L640 387 L640 582 L594 473 L514 473 L469 576 L469 387 Z M51 700 L334 700 L334 622 L239 622 L239 387 L146 387 L146 622 L51 622 L51 700 Z " />
<glyph glyph-name="estimated" unicode="&#x212e;" horiz-adv-x="784" d="M564 370 L574 383 L574 587 Q545 622 499 641.5 Q453 661 399 661 Q280 661 217 587 L217 383 L226 370 L564 370 Z M217 307 L217 137 Q249 89 298.5 62.5 Q348 36 408 36 Q477 36 532.5 62.5 Q588 89 626 137 L699 137 Q645 66 574 28 Q503 -10 408 -10 Q331 -10 264.5 18 Q198 46 148 95 Q98 144 69.5 209 Q41 274 41 349 Q41 424 69.5 489.5 Q98 555 147 603.5 Q196 652 261 679.5 Q326 707 399 707 Q471 707 534 680 Q597 653 645 606.5 Q693 560 723 497.5 Q753 435 758 365 L758 363 L726 320 L226 320 L217 307 Z " />
<glyph glyph-name="partialdiff" unicode="&#x2202;" horiz-adv-x="540" d="M348 265 Q348 345 330 386.5 Q312 428 263 428 Q214 428 196 386.5 Q178 345 178 265 Q178 185 196 143.5 Q214 102 263 102 Q312 102 330 143.5 Q348 185 348 265 Z M506 265 Q506 195 486.5 143 Q467 91 434 57 Q401 23 357 6.5 Q313 -10 263 -10 Q213 -10 169 6.5 Q125 23 92 57 Q59 91 39.5 143 Q20 195 20 265 Q20 335 39.5 387 Q59 439 92 473 Q125 507 169 523.5 Q213 540 263 540 Q278 540 290 536 Q260 577 222.5 612 Q185 647 149 673 L210 738 Q279 706 334 657.5 Q389 609 427.5 548.5 Q466 488 486 416 Q506 344 506 265 Z " />
<glyph glyph-name="product" unicode="&#x220f;" horiz-adv-x="722" d="M36 700 L686 700 L686 592 L624 592 L624 0 L462 0 L462 592 L260 592 L260 0 L98 0 L98 592 L36 592 L36 700 Z " />
<glyph glyph-name="summation" unicode="&#x2211;" horiz-adv-x="580" d="M540 0 L37 0 L37 92 L286 353 L37 622 L37 700 L534 700 L534 590 L240 590 L435 385 L435 341 L217 110 L540 110 L540 0 Z " />
<glyph glyph-name="minus" unicode="&#x2212;" horiz-adv-x="544" d="M58 386 L486 386 L486 291 L58 291 L58 386 Z " />
<glyph glyph-name="uni2215" unicode="&#x2215;" horiz-adv-x="519" d="M-24 0 L463 700 L545 700 L59 0 L-24 0 Z " />
<glyph glyph-name="uni2219" unicode="&#x2219;" horiz-adv-x="251" d="M40 378 Q40 394 46.5 408.5 Q53 423 64.5 434 Q76 445 91.5 451.5 Q107 458 125 458 Q143 458 158.5 451.5 Q174 445 185.5 434 Q197 423 204 408.5 Q211 394 211 378 Q211 361 204 346.5 Q197 332 185.5 321 Q174 310 158.5 303.5 Q143 297 125 297 Q107 297 91.5 303.5 Q76 310 64.5 321 Q53 332 46.5 346.5 Q40 361 40 378 Z " />
<glyph glyph-name="radical" unicode="&#x221a;" horiz-adv-x="578" d="M101 410 L23 377 L-6 447 L198 543 L344 244 L492 971 L575 957 L363 -64 L101 410 Z " />
<glyph glyph-name="infinity" unicode="&#x221e;" horiz-adv-x="848" d="M617 418 Q597 418 578.5 410.5 Q560 403 542 390.5 Q524 378 507.5 362.5 Q491 347 477 331 Q491 316 507.5 300.5 Q524 285 541.5 272.5 Q559 260 578 252 Q597 244 617 244 Q659 244 682 266.5 Q705 289 705 331 Q705 373 682 395.5 Q659 418 617 418 Z M230 418 Q188 418 165 395.5 Q142 373 142 331 Q142 289 165 266.5 Q188 244 230 244 Q249 244 268 251.5 Q287 259 305 271.5 Q323 284 339.5 299.5 Q356 315 370 331 Q356 346 339.5 361.5 Q323 377 305.5 389.5 Q288 402 269 410 Q250 418 230 418 Z M38 331 Q38 368 51 400.5 Q64 433 89 457.5 Q114 482 149 496 Q184 510 229 510 Q260 510 287.5 501 Q315 492 339 477 Q363 462 384 443.5 Q405 425 423 407 Q441 425 461.5 443.5 Q482 462 506 477 Q530 492 558 501 Q586 510 618 510 Q663 510 698 496 Q733 482 758 457.5 Q783 433 796 400.5 Q809 368 809 331 Q809 294 797.5 261.5 Q786 229 762 204.5 Q738 180 702 166 Q666 152 618 152 Q588 152 560.5 161.5 Q533 171 508.5 186 Q484 201 462.5 219 Q441 237 424 254 Q406 236 385 217.5 Q364 199 340 184.5 Q316 170 288.5 161 Q261 152 229 152 Q181 152 145 166 Q109 180 85 204.5 Q61 229 49.5 261.5 Q38 294 38 331 Z " />
<glyph glyph-name="integral" unicode="&#x222b;" horiz-adv-x="602" d="M106 -137 Q75 -137 46 -132.5 Q17 -128 -5 -123 L14 -26 Q34 -30 56 -33 Q78 -36 93 -36 Q130 -36 157 -21.5 Q184 -7 187 34 L262 642 Q273 736 329.5 779 Q386 822 495 822 Q527 822 556.5 817.5 Q586 813 606 808 L587 711 Q568 715 546.5 718 Q525 721 508 721 Q472 721 445.5 706.5 Q419 692 414 651 L337 44 Q329 -50 273 -93.5 Q217 -137 106 -137 Z " />
<glyph glyph-name="approxequal" unicode="&#x2248;" horiz-adv-x="565" d="M47 221 Q70 272 109 304.5 Q148 337 199 337 Q232 337 257.5 325 Q283 313 304 298 Q325 283 343.5 271 Q362 259 380 259 Q392 259 402 268 L468 328 L520 284 Q496 233 457.5 201 Q419 169 367 169 Q336 169 310.5 181 Q285 193 262.5 208 Q240 223 220 235 Q200 247 180 247 Q169 247 159 238 L98 178 L47 221 Z M47 400 Q70 451 109 483.5 Q148 516 199 516 Q232 516 257.5 504 Q283 492 304 477 Q325 462 343.5 450 Q362 438 380 438 Q389 438 413 459 L468 507 L520 463 Q496 412 457.5 380 Q419 348 367 348 Q336 348 310.5 360 Q285 372 263 387 Q241 402 221.5 414 Q202 426 183 426 Q168 426 147 405 L98 357 L47 400 Z " />
<glyph glyph-name="notequal" unicode="&#x2260;" horiz-adv-x="536" d="M56 470 L290 470 L320 537 L397 537 L367 470 L484 470 L484 375 L324 375 L293 305 L484 305 L484 210 L250 210 L221 144 L143 144 L172 210 L56 210 L56 305 L215 305 L247 375 L56 375 L56 470 Z " />
<glyph glyph-name="lessequal" unicode="&#x2264;" horiz-adv-x="540" d="M54 182 L482 182 L482 87 L54 87 L54 182 Z M54 370 L54 437 L482 585 L482 488 L208 405 L482 317 L482 221 L54 370 Z " />
<glyph glyph-name="greaterequal" unicode="&#x2265;" horiz-adv-x="542" d="M58 87 L58 182 L486 182 L486 87 L58 87 Z M58 317 L332 405 L58 488 L58 585 L486 437 L486 370 L58 221 L58 317 Z " />
<glyph glyph-name="lozenge" unicode="&#x25ca;" horiz-adv-x="609" d="M233 -80 L22 340 L234 782 L376 782 L587 362 L375 -80 L233 -80 Z M465 349 L304 673 L144 353 L305 29 L465 349 Z " />
<glyph glyph-name="f_f" unicode="&#xfb00;" horiz-adv-x="715" d="M238 423 L238 0 L86 0 L86 423 L24 423 L24 528 L86 528 L86 558 Q86 592 96 625 Q106 658 128.5 683.5 Q151 709 188 724.5 Q225 740 279 740 Q305 740 326 738 Q347 736 357 734 L357 635 L297 635 Q259 635 248.5 617.5 Q238 600 238 567 L238 528 L350 528 L350 423 L238 423 Z M596 423 L596 0 L444 0 L444 423 L382 423 L382 528 L444 528 L444 558 Q444 592 454 625 Q464 658 486.5 683.5 Q509 709 546 724.5 Q583 740 637 740 Q663 740 684 738 Q705 736 715 734 L715 635 L655 635 Q617 635 606.5 617.5 Q596 600 596 567 L596 528 L708 528 L708 423 L596 423 Z " />
<glyph glyph-name="fi" unicode="&#xfb01;" horiz-adv-x="640" d="M586 530 L586 0 L434 0 L434 530 L586 530 Z M425 665 Q425 702 446 723.5 Q467 745 510 745 Q553 745 574 723.5 Q595 702 595 665 Q595 628 574 606.5 Q553 585 510 585 Q467 585 446 606.5 Q425 628 425 665 Z M238 423 L238 0 L86 0 L86 423 L24 423 L24 528 L86 528 L86 558 Q86 592 96 625 Q106 658 128.5 683.5 Q151 709 188 724.5 Q225 740 279 740 Q305 740 326 738 Q347 736 357 734 L357 635 L297 635 Q259 635 248.5 617.5 Q238 600 238 567 L238 528 L350 528 L350 423 L238 423 Z " />
<glyph glyph-name="fl" unicode="&#xfb02;" horiz-adv-x="641" d="M586 730 L586 0 L434 0 L434 730 L586 730 Z M238 423 L238 0 L86 0 L86 423 L24 423 L24 528 L86 528 L86 558 Q86 592 96 625 Q106 658 128.5 683.5 Q151 709 188 724.5 Q225 740 279 740 Q305 740 326 738 Q347 736 357 734 L357 635 L297 635 Q259 635 248.5 617.5 Q238 600 238 567 L238 528 L350 528 L350 423 L238 423 Z " />
<glyph glyph-name="f_f_i" unicode="&#xfb03;" horiz-adv-x="998" d="M944 530 L944 0 L792 0 L792 530 L944 530 Z M783 665 Q783 702 804 723.5 Q825 745 868 745 Q911 745 932 723.5 Q953 702 953 665 Q953 628 932 606.5 Q911 585 868 585 Q825 585 804 606.5 Q783 628 783 665 Z M238 423 L238 0 L86 0 L86 423 L24 423 L24 528 L86 528 L86 558 Q86 592 96 625 Q106 658 128.5 683.5 Q151 709 188 724.5 Q225 740 279 740 Q305 740 326 738 Q347 736 357 734 L357 635 L297 635 Q259 635 248.5 617.5 Q238 600 238 567 L238 528 L350 528 L350 423 L238 423 Z M596 423 L596 0 L444 0 L444 423 L382 423 L382 528 L444 528 L444 558 Q444 592 454 625 Q464 658 486.5 683.5 Q509 709 546 724.5 Q583 740 637 740 Q663 740 684 738 Q705 736 715 734 L715 635 L655 635 Q617 635 606.5 617.5 Q596 600 596 567 L596 528 L708 528 L708 423 L596 423 Z " />
<glyph glyph-name="f_f_l" unicode="&#xfb04;" horiz-adv-x="1002" d="M947 730 L947 0 L795 0 L795 730 L947 730 Z M238 423 L238 0 L86 0 L86 423 L24 423 L24 528 L86 528 L86 558 Q86 592 96 625 Q106 658 128.5 683.5 Q151 709 188 724.5 Q225 740 279 740 Q305 740 326 738 Q347 736 357 734 L357 635 L297 635 Q259 635 248.5 617.5 Q238 600 238 567 L238 528 L350 528 L350 423 L238 423 Z M596 423 L596 0 L444 0 L444 423 L382 423 L382 528 L444 528 L444 558 Q444 592 454 625 Q464 658 486.5 683.5 Q509 709 546 724.5 Q583 740 637 740 Q663 740 684 738 Q705 736 715 734 L715 635 L655 635 Q617 635 606.5 617.5 Q596 600 596 567 L596 528 L708 528 L708 423 L596 423 Z " />
<glyph glyph-name="longs_t" unicode="&#xfb05;" horiz-adv-x="702" d="M238 0 L86 0 L86 423 L24 423 L24 528 L86 528 L86 558 Q86 592 96 625 Q106 658 128.5 683.5 Q151 709 188 724.5 Q225 740 279 740 Q305 740 326 738 Q347 736 357 734 L357 635 L297 635 Q259 635 248.5 617.5 Q238 600 238 567 L238 0 Z M547 -10 Q481 -10 448 17.5 Q415 45 415 114 L415 423 L353 423 L353 528 L407 528 L472 670 L567 670 L567 528 L683 528 L683 423 L567 423 L567 100 L686 100 L686 0 Q666 -3 643 -5 Q623 -7 598 -8.5 Q573 -10 547 -10 Z " />
<glyph glyph-name="uniF8FF" unicode="&#xf8ff;" horiz-adv-x="1420" d="M378 488 Q389 488 389 477 L389 471 Q398 478 411.5 485 Q425 492 447 492 Q465 492 477.5 484.5 Q490 477 498 466 Q506 473 521 482.5 Q536 492 562 492 Q588 492 603.5 476.5 Q619 461 619 438 L619 306 Q619 295 607 295 L569 295 Q556 295 556 306 L556 422 Q556 431 553.5 434.5 Q551 438 542 438 Q531 438 520.5 433 Q510 428 504 423 L504 306 Q504 295 493 295 L455 295 Q443 295 443 306 L443 422 Q443 431 440.5 434.5 Q438 438 428 438 Q417 438 406.5 433 Q396 428 391 423 L391 306 Q391 295 381 295 L340 295 Q329 295 329 306 L329 477 Q329 488 340 488 L378 488 Z M1043 488 Q1055 488 1055 477 L1056 470 Q1064 477 1078 484.5 Q1092 492 1116 492 Q1145 492 1159 476 Q1173 460 1173 432 L1173 352 Q1173 323 1159 306.5 Q1145 290 1116 290 Q1093 290 1079.5 297.5 Q1066 305 1058 311 L1058 228 Q1058 217 1047 217 L1007 217 Q996 217 996 228 L996 477 Q996 488 1007 488 L1043 488 Z M296 388 Q296 377 284 377 L191 377 L191 354 Q191 336 214 336 Q239 336 239 354 L239 355 Q239 366 250 366 L282 366 Q294 366 294 355 L294 352 Q294 324 276.5 307 Q259 290 214 290 Q169 290 149 307 Q129 324 129 352 L129 431 Q129 460 149 476 Q169 492 214 492 Q259 492 277.5 476 Q296 460 296 431 L296 388 Z M1370 388 Q1370 377 1359 377 L1265 377 L1265 354 Q1265 336 1288 336 Q1312 336 1312 354 L1312 355 Q1312 366 1324 366 L1356 366 Q1367 366 1367 355 L1367 352 Q1367 324 1350 307 Q1333 290 1288 290 Q1243 290 1223.5 307 Q1204 324 1204 352 L1204 431 Q1204 460 1223.5 476 Q1243 492 1288 492 Q1333 492 1351.5 476 Q1370 460 1370 431 L1370 388 Z M872 407 Q876 393 877.5 382 Q879 371 879 370 Q880 371 883.5 383.5 Q887 396 889 405 L913 477 Q915 482 917 485 Q919 488 925 488 L962 488 Q976 488 973 477 L889 228 Q885 217 875 217 L847 217 Q833 217 836 228 L852 287 L787 477 Q783 488 798 488 L838 488 Q844 488 846 485 Q848 482 850 477 L872 407 Z M762 487 Q773 487 773 477 L773 450 Q773 439 762 439 L731 439 L731 362 Q731 344 755 344 L765 344 Q777 344 777 333 L777 306 Q777 295 765 295 L746 295 Q701 295 684.5 309.5 Q668 324 668 355 L668 439 L651 439 Q640 439 640 450 L640 475 Q640 483 651 486 L667 487 L668 487 L668 523 Q668 535 680 535 L719 535 Q731 535 731 523 L731 487 L762 487 Z M472 98 Q472 94 468 94 L354 94 L354 46 Q354 32 364.5 22.5 Q375 13 404 13 Q433 13 442.5 22.5 Q452 32 452 46 L452 54 Q452 58 458 58 L467 58 Q472 58 472 54 L472 45 Q472 24 457.5 10.5 Q443 -3 403 -3 Q364 -3 349 10.5 Q334 24 334 45 L334 147 Q334 168 349 181.5 Q364 195 404 195 Q443 195 457.5 181.5 Q472 168 472 147 L472 98 Z M154 188 L154 171 Q162 177 179.5 186 Q197 195 221 195 Q249 195 262 182 Q275 169 275 149 L275 5 Q275 0 271 0 L260 0 Q256 0 256 5 L256 145 Q256 159 246.5 167.5 Q237 176 217 176 Q194 176 177.5 167.5 Q161 159 155 153 L155 5 Q155 0 151 0 L140 0 Q135 0 135 5 L135 188 Q135 192 140 192 L149 192 Q154 192 154 188 Z M603 191 Q607 191 607 187 L607 179 Q607 174 603 174 L556 174 L556 50 Q556 36 567 26.5 Q578 17 606 17 L612 17 Q617 17 617 12 L617 5 Q617 0 612 0 L603 0 Q564 0 550.5 12.5 Q537 25 537 48 L537 174 L512 174 Q508 174 508 179 L508 186 Q508 190 512 191 L537 191 L537 232 Q537 237 541 237 L552 237 Q556 237 556 232 L556 191 L603 191 Z M354 110 L452 110 L452 146 Q452 160 442 169 Q432 178 404 178 Q375 178 364.5 169 Q354 160 354 146 L354 110 Z M1112 423 Q1112 428 1109.5 433 Q1107 438 1095 438 Q1084 438 1074 432.5 Q1064 427 1058 423 L1058 360 Q1064 356 1074 350 Q1084 344 1095 344 Q1107 344 1109.5 350 Q1112 356 1112 361 L1112 423 Z M191 417 L239 417 L239 428 Q239 446 214 446 Q191 446 191 428 L191 417 Z M1265 417 L1312 417 L1312 428 Q1312 446 1288 446 Q1265 446 1265 428 L1265 417 Z M70 5 Q70 0 65 0 L54 0 Q50 0 50 5 L50 35 Q50 40 54 40 L65 40 Q70 40 70 35 L70 5 Z " />
<glyph glyph-name="zero.tab" unicode="&#xff10;" horiz-adv-x="600" d="M576 350 Q576 259 555 191.5 Q534 124 497.5 79 Q461 34 410.5 12 Q360 -10 300 -10 Q240 -10 189.5 12 Q139 34 102.5 79 Q66 124 45 191.5 Q24 259 24 350 Q24 441 45 509 Q66 577 102.5 621.5 Q139 666 189.5 688 Q240 710 300 710 Q360 710 410.5 688 Q461 666 497.5 621.5 Q534 577 555 509 Q576 441 576 350 Z M406 350 Q406 468 383.5 527 Q361 586 300 586 Q239 586 216.5 527 Q194 468 194 350 Q194 232 216.5 173 Q239 114 300 114 Q361 114 383.5 173 Q406 232 406 350 Z " />
<glyph glyph-name="one.tab" unicode="&#xff11;" horiz-adv-x="600" d="M200 661 Q217 661 235.5 665 Q254 669 270 675.5 Q286 682 298 691 Q310 700 313 710 L394 710 L394 105 L516 105 L516 0 L110 0 L110 105 L232 105 L232 553 L110 553 L110 661 L200 661 Z " />
<glyph glyph-name="two.tab" unicode="&#xff12;" horiz-adv-x="600" d="M73 662 Q79 665 98 672.5 Q117 680 146.5 688.5 Q176 697 213.5 703.5 Q251 710 294 710 Q358 710 403 693.5 Q448 677 476.5 650 Q505 623 518 588.5 Q531 554 531 517 Q531 478 519.5 446.5 Q508 415 484 385.5 Q460 356 423 326.5 Q386 297 335 261 Q298 237 276.5 219.5 Q255 202 243.5 188.5 Q232 175 229 163 Q226 151 226 138 L226 131 L539 131 L539 0 L62 0 L62 131 Q62 159 70.5 185.5 Q79 212 99.5 239 Q120 266 154 295 Q188 324 238 359 Q277 386 301.5 405 Q326 424 340 440.5 Q354 457 359 473 Q364 489 364 510 Q364 542 341.5 563 Q319 584 270 584 Q213 584 166 572 Q119 560 73 543 L73 662 Z " />
<glyph glyph-name="three.tab" unicode="&#xff13;" horiz-adv-x="600" d="M81 681 Q106 689 137 695 Q163 700 197.5 705 Q232 710 272 710 Q339 710 385 694.5 Q431 679 460 653.5 Q489 628 502 595.5 Q515 563 515 529 Q515 491 505.5 462.5 Q496 434 479 413.5 Q462 393 439 379.5 Q416 366 388 359 L388 355 Q454 339 490.5 301.5 Q527 264 527 189 Q527 151 513.5 115.5 Q500 80 469 52 Q438 24 389 7 Q340 -10 269 -10 Q186 -10 139.5 0.5 Q93 11 71 16 L71 138 Q111 127 154 118 Q197 109 251 109 Q307 109 333.5 136 Q360 163 360 203 Q360 258 333.5 280 Q307 302 259 302 L185 302 L185 415 L258 415 Q300 415 325 437.5 Q350 460 350 508 Q350 545 329 567.5 Q308 590 254 590 Q204 590 161 583.5 Q118 577 81 567 L81 681 Z " />
<glyph glyph-name="four.tab" unicode="&#xff14;" horiz-adv-x="600" d="M18 284 L341 710 L492 710 L492 284 L574 284 L574 162 L492 162 L492 0 L330 0 L330 162 L18 162 L18 284 Z M330 516 L151 284 L330 284 L330 516 Z " />
<glyph glyph-name="five.tab" unicode="&#xff15;" horiz-adv-x="600" d="M508 569 L219 569 L219 442 L270 442 Q404 442 475.5 386 Q547 330 547 224 Q547 182 532 140 Q517 98 484.5 64.5 Q452 31 400 10 Q348 -11 274 -11 Q186 -11 134 2.5 Q82 16 66 22 L66 150 Q109 136 153 125 Q197 114 261 114 Q324 114 352.5 142.5 Q381 171 381 208 Q381 268 345 292.5 Q309 317 246 317 L87 317 L87 700 L508 700 L508 569 Z " />
<glyph glyph-name="six.tab" unicode="&#xff16;" horiz-adv-x="600" d="M562 218 Q562 160 541.5 117.5 Q521 75 486 46.5 Q451 18 405 4 Q359 -10 309 -10 Q250 -10 202.5 8 Q155 26 121 64.5 Q87 103 69 162 Q51 221 51 303 Q51 377 65.5 450 Q80 523 116.5 580.5 Q153 638 215.5 674 Q278 710 374 710 Q400 710 422 707.5 Q444 705 461 703 Q480 700 498 697 L498 576 Q474 582 449 585.5 Q424 589 392 589 Q340 589 306.5 573 Q273 557 252.5 528.5 Q232 500 223.5 461.5 Q215 423 212 378 Q241 402 278.5 413.5 Q316 425 354 425 Q394 425 431.5 413 Q469 401 498 375.5 Q527 350 544.5 311 Q562 272 562 218 Z M313 103 Q359 103 383.5 130.5 Q408 158 408 209 Q408 261 383.5 287.5 Q359 314 316 314 Q291 314 263.5 307 Q236 300 211 279 Q214 187 239.5 145 Q265 103 313 103 Z " />
<glyph glyph-name="seven.tab" unicode="&#xff17;" horiz-adv-x="600" d="M143 0 L361 566 L66 566 L66 700 L541 700 L541 618 L312 0 L143 0 Z " />
<glyph glyph-name="eight.tab" unicode="&#xff18;" horiz-adv-x="600" d="M294 -10 Q224 -10 176.5 5 Q129 20 100 45 Q71 70 58.5 101 Q46 132 46 165 Q46 206 58 235.5 Q70 265 88 286 Q106 307 127 319.5 Q148 332 165 340 Q123 367 95.5 406.5 Q68 446 68 506 Q68 552 85.5 590 Q103 628 134.5 654.5 Q166 681 210.5 695.5 Q255 710 310 710 Q374 710 417 694 Q460 678 485.5 653 Q511 628 521.5 597.5 Q532 567 532 538 Q532 484 507 445 Q482 406 444 383 Q494 356 523.5 316 Q553 276 553 213 Q553 159 534 117 Q515 75 480.5 47 Q446 19 398.5 4.5 Q351 -10 294 -10 Z M205 534 Q205 519 209.5 505.5 Q214 492 229.5 479 Q245 466 274.5 451.5 Q304 437 354 421 Q374 435 388.5 457.5 Q403 480 403 512 Q403 554 376 576.5 Q349 599 301 599 Q256 599 230.5 581 Q205 563 205 534 Z M296 101 Q348 101 373 126.5 Q398 152 398 184 Q398 206 389 222 Q380 238 361.5 251.5 Q343 265 315 276.5 Q287 288 249 300 Q241 295 229.5 285 Q218 275 207.5 261 Q197 247 189.5 229.5 Q182 212 182 191 Q182 173 187.5 156.5 Q193 140 206.5 128 Q220 116 242 108.5 Q264 101 296 101 Z " />
<glyph glyph-name="nine.tab" unicode="&#xff19;" horiz-adv-x="600" d="M284 386 Q309 386 336.5 393 Q364 400 389 421 Q386 512 362 554 Q338 596 287 596 Q192 596 192 491 Q192 386 284 386 Z M226 -10 Q200 -10 177.5 -8 Q155 -6 138 -4 Q118 -1 102 3 L102 124 Q126 118 151 114.5 Q176 111 208 111 Q260 111 293.5 127 Q327 143 347.5 171.5 Q368 200 376.5 238.5 Q385 277 388 322 Q359 298 321.5 286.5 Q284 275 246 275 Q206 275 168.5 287 Q131 299 102 324.5 Q73 350 55.5 389 Q38 428 38 482 Q38 539 58.5 582 Q79 625 114 653.5 Q149 682 195 696 Q241 710 291 710 Q350 710 397.5 691.5 Q445 673 479 635 Q513 597 531 537.5 Q549 478 549 397 Q549 323 534.5 250 Q520 177 483.5 119.5 Q447 62 384.5 26 Q322 -10 226 -10 Z " />
<glyph glyph-name="uni215F" unicode="&#x215f;" horiz-adv-x="356" d="M66 376 L66 441 L122 441 L122 607 L66 607 L66 675 L116 675 Q132 675 145 683.5 Q158 692 161 703 L219 703 L219 441 L275 441 L275 376 L66 376 Z M43 0 L530 700 L612 700 L126 0 L43 0 Z " />
<glyph glyph-name="uni2153" unicode="&#x2153;" horiz-adv-x="633" d="M53 376 L53 441 L109 441 L109 607 L53 607 L53 675 L103 675 Q119 675 132 683.5 Q145 692 148 703 L206 703 L206 441 L262 441 L262 376 L53 376 Z M30 0 L517 700 L599 700 L113 0 L30 0 Z M374 318 Q386 320 401 323 Q414 325 430.5 327 Q447 329 467 329 Q500 329 523 321.5 Q546 314 560 301.5 Q574 289 580.5 274 Q587 259 587 244 Q587 210 569.5 192 Q552 174 526 166 L526 163 Q558 155 575.5 138.5 Q593 122 593 89 Q593 71 586 54 Q579 37 564 23.5 Q549 10 524.5 2 Q500 -6 465 -6 Q425 -6 403.5 -3 Q382 0 369 4 L369 83 Q389 79 409 75 Q429 71 455 71 Q497 71 497 100 Q497 127 458 127 L422 127 L422 199 L458 199 Q493 199 493 227 Q493 238 485 244.5 Q477 251 457 251 Q441 251 416 248 Q391 245 374 241 L374 318 Z " />
<glyph glyph-name="uni2154" unicode="&#x2154;" horiz-adv-x="668" d="M40 376 L40 430 Q40 452 43.5 467 Q47 482 56 495 Q65 508 81 520 Q97 532 121 548 Q156 571 165.5 582 Q175 593 175 603 Q175 622 139 622 Q116 622 91.5 617 Q67 612 45 606 L45 684 Q59 690 76 694 Q90 698 110 701.5 Q130 705 153 705 Q185 705 207.5 696.5 Q230 688 244 674 Q258 660 264.5 642.5 Q271 625 271 607 Q271 588 266 573 Q261 558 249.5 544.5 Q238 531 220 517.5 Q202 504 176 488 Q156 475 149.5 469.5 Q143 464 143 457 L143 456 L279 456 L279 376 L40 376 Z M65 0 L552 700 L634 700 L148 0 L65 0 Z M409 318 Q421 320 436 323 Q449 325 465.5 327 Q482 329 502 329 Q535 329 558 321.5 Q581 314 595 301.5 Q609 289 615.5 274 Q622 259 622 244 Q622 210 604.5 192 Q587 174 561 166 L561 163 Q593 155 610.5 138.5 Q628 122 628 89 Q628 71 621 54 Q614 37 599 23.5 Q584 10 559.5 2 Q535 -6 500 -6 Q460 -6 438.5 -3 Q417 0 404 4 L404 83 Q424 79 444 75 Q464 71 490 71 Q532 71 532 100 Q532 127 493 127 L457 127 L457 199 L493 199 Q528 199 528 227 Q528 238 520 244.5 Q512 251 492 251 Q476 251 451 248 Q426 245 409 241 L409 318 Z " />
<glyph glyph-name="uni2155" unicode="&#x2155;" horiz-adv-x="649" d="M30 0 L517 700 L599 700 L113 0 L30 0 Z M53 376 L53 441 L109 441 L109 607 L53 607 L53 675 L103 675 Q119 675 132 683.5 Q145 692 148 703 L206 703 L206 441 L262 441 L262 376 L53 376 Z M461 244 L461 208 L486 208 Q548 208 580.5 181 Q613 154 613 110 Q613 90 605.5 69.5 Q598 49 581.5 32.5 Q565 16 539.5 5.5 Q514 -5 477 -5 Q434 -5 410 1.5 Q386 8 376 12 L376 92 Q396 86 416.5 81 Q437 76 469 76 Q494 76 505 84.5 Q516 93 516 107 Q516 133 472 133 L386 133 L386 324 L599 324 L599 244 L461 244 Z " />
<glyph glyph-name="five.denominator" unicode="&#xf65a;" horiz-adv-x="286" d="M112 244 L112 208 L137 208 Q199 208 231.5 181 Q264 154 264 110 Q264 90 256.5 69.5 Q249 49 232.5 32.5 Q216 16 190.5 5.5 Q165 -5 128 -5 Q85 -5 61 1.5 Q37 8 27 12 L27 92 Q47 86 67.5 81 Q88 76 120 76 Q145 76 156 84.5 Q167 93 167 107 Q167 133 123 133 L37 133 L37 324 L250 324 L250 244 L112 244 Z " />
<glyph glyph-name="uni2156" unicode="&#x2156;" horiz-adv-x="688" d="M39 376 L39 430 Q39 452 42.5 467 Q46 482 55 495 Q64 508 80 520 Q96 532 120 548 Q155 571 164.5 582 Q174 593 174 603 Q174 622 138 622 Q115 622 90.5 617 Q66 612 44 606 L44 684 Q58 690 75 694 Q89 698 109 701.5 Q129 705 152 705 Q184 705 206.5 696.5 Q229 688 243 674 Q257 660 263.5 642.5 Q270 625 270 607 Q270 588 265 573 Q260 558 248.5 544.5 Q237 531 219 517.5 Q201 504 175 488 Q155 475 148.5 469.5 Q142 464 142 457 L142 456 L278 456 L278 376 L39 376 Z M500 244 L500 208 L525 208 Q587 208 619.5 181 Q652 154 652 110 Q652 90 644.5 69.5 Q637 49 620.5 32.5 Q604 16 578.5 5.5 Q553 -5 516 -5 Q473 -5 449 1.5 Q425 8 415 12 L415 92 Q435 86 455.5 81 Q476 76 508 76 Q533 76 544 84.5 Q555 93 555 107 Q555 133 511 133 L425 133 L425 324 L638 324 L638 244 L500 244 Z M69 0 L556 700 L638 700 L152 0 L69 0 Z " />
<glyph glyph-name="uni2157" unicode="&#x2157;" horiz-adv-x="655" d="M467 244 L467 208 L492 208 Q554 208 586.5 181 Q619 154 619 110 Q619 90 611.5 69.5 Q604 49 587.5 32.5 Q571 16 545.5 5.5 Q520 -5 483 -5 Q440 -5 416 1.5 Q392 8 382 12 L382 92 Q402 86 422.5 81 Q443 76 475 76 Q500 76 511 84.5 Q522 93 522 107 Q522 133 478 133 L392 133 L392 324 L605 324 L605 244 L467 244 Z M36 0 L523 700 L605 700 L119 0 L36 0 Z M53 694 Q65 696 80 699 Q93 701 109.5 703 Q126 705 146 705 Q179 705 202 697.5 Q225 690 239 677.5 Q253 665 259.5 650 Q266 635 266 620 Q266 586 248.5 568 Q231 550 205 542 L205 539 Q237 531 254.5 514.5 Q272 498 272 465 Q272 447 265 430 Q258 413 243 399.5 Q228 386 203.5 378 Q179 370 144 370 Q104 370 82.5 373 Q61 376 48 380 L48 459 Q68 455 88 451 Q108 447 134 447 Q176 447 176 476 Q176 503 137 503 L101 503 L101 575 L137 575 Q172 575 172 603 Q172 614 164 620.5 Q156 627 136 627 Q120 627 95 624 Q70 621 53 617 L53 694 Z " />
<glyph glyph-name="uni2158" unicode="&#x2158;" horiz-adv-x="697" d="M27 516 L175 705 L259 705 L259 516 L295 516 L295 439 L259 439 L259 376 L166 376 L166 439 L27 439 L27 516 Z M166 599 L99 516 L166 516 L166 599 Z M507 244 L507 208 L532 208 Q594 208 626.5 181 Q659 154 659 110 Q659 90 651.5 69.5 Q644 49 627.5 32.5 Q611 16 585.5 5.5 Q560 -5 523 -5 Q480 -5 456 1.5 Q432 8 422 12 L422 92 Q442 86 462.5 81 Q483 76 515 76 Q540 76 551 84.5 Q562 93 562 107 Q562 133 518 133 L432 133 L432 324 L645 324 L645 244 L507 244 Z M76 0 L563 700 L645 700 L159 0 L76 0 Z " />
</font>
</svg>
